<?xml version="1.0" standalone="no"?>
<!DOCTYPE svg PUBLIC "-//W3C//DTD SVG 1.1//EN" "http://www.w3.org/Graphics/SVG/1.1/DTD/svg11.dtd" >
<svg xmlns="http://www.w3.org/2000/svg" xmlns:xlink="http://www.w3.org/1999/xlink" version="1.1">
<metadata>
Created by FontForge 20170731 at Fri Jan 15 15:03:23 2021
 By Aleksey,,,
(c) 1996, 2001 Adobe Systems Incorporated. All rights reserved.
</metadata>
<defs>
<font id="CronosPro-Disp" horiz-adv-x="577" >
  <font-face 
    font-family="Cronos Pro Display"
    font-weight="400"
    font-stretch="normal"
    units-per-em="2048"
    panose-1="2 12 5 2 3 7 3 2 3 4"
    ascent="1536"
    descent="-512"
    x-height="907"
    cap-height="1286"
    bbox="-373 -512 2212.92 1812.76"
    underline-thickness="102"
    underline-position="-307"
    unicode-range="U+0020-E006"
  />
<missing-glyph horiz-adv-x="1024" 
d="M0 0v1434h1024v-1434h-1024zM512 809l348 522h-696zM573 717l349 -522v1044zM164 102h696l-348 523zM102 1239v-1044l349 522z" />
    <glyph glyph-name="fi" unicode="fi" horiz-adv-x="985" 
d="M854 776v-727q0 -30 -8 -40t-31 -13q-33 -5 -129 -8q6 246 6 319v486q-69 -8 -387 -11q-1 -128 2.5 -442.5t3.5 -337.5q-49 -14 -145 -14q-16 0 -20.5 5t-4.5 25q2 96 2 214t-1 282t-1 268q-61 0 -83.5 8.5t-22.5 30.5q35 41 106 74q0 289 170 428q102 82 254 82
q119 0 185 -55q12 -28 2 -56q-9 -35 -37 -47q-80 43 -160 43q-112 0 -181.5 -94t-68.5 -301q296 0 377 4q34 1 85 7.5t60 6.5q10 0 15.5 -11t8.5 -41.5t3 -84.5z" />
    <glyph glyph-name="fl" unicode="fl" horiz-adv-x="985" 
d="M692 12v785q-94 -18 -387 -15q-1 -128 2.5 -442t3.5 -336q-43 -16 -145 -16q-15 0 -20 5.5t-5 24.5q2 96 2 214t-1 282t-1 268q-106 0 -106 41q29 36 106 72q3 153 42.5 249t109.5 163q104 98 258 98q94 0 166 -39q80 39 110 39q16 0 21.5 -19.5t5.5 -89.5v-1026
q0 -154 8 -268q-50 -16 -143 -16q-27 0 -27 26zM692 895v317q0 35 -16 48q-46 43 -135 43q-102 0 -167.5 -99t-68.5 -309q6 0 63 -0.5t116.5 -1t121.5 0t86 1.5z" />
    <glyph glyph-name="f_f" unicode="ff" horiz-adv-x="1064" 
d="M698 786h-393q-1 -140 -0.5 -273t1.5 -304.5t1 -206.5q-46 -14 -143 -14q-16 0 -21.5 6t-5.5 24q4 145 4 768q-61 0 -83.5 9t-22.5 32q4 5 8.5 10t10 9.5t9 7.5t10.5 7l10.5 6t12.5 6.5l13 6.5t15.5 7.5t16.5 7.5q14 239 152 367q108 102 285 102q141 0 239 -80
q93 121 248 121q48 0 87 -14t54 -31q3 -33 -20.5 -61.5t-50.5 -18.5q-30 12 -84 12q-82 0 -136.5 -95.5t-50.5 -301.5q239 0 262 4q-7 -66 -51 -92q-35 -21 -215 -21q0 -123 4 -432t4 -352q-49 -14 -145 -14q-15 0 -20 5.5t-5 24.5q4 209 0 768zM307 895h391q0 79 15.5 165
t40.5 130q-26 35 -82.5 53.5t-110.5 18.5q-121 0 -185 -96.5t-69 -270.5z" />
    <glyph glyph-name="f_f_i" unicode="ffi" horiz-adv-x="1548" 
d="M698 786h-393q-1 -141 -0.5 -274t1.5 -304t1 -206q-46 -14 -143 -14q-16 0 -21.5 5.5t-5.5 24.5q4 145 4 768q-61 0 -83.5 9t-22.5 34q32 41 106 64q7 236 154 369q108 102 283 102q151 0 245 -84q113 125 289 125q62 0 118 -19t75 -47q3 -30 -19 -59.5t-53 -15.5
q-65 30 -135 30q-238 0 -238 -401q305 0 385 2q27 1 58 5.5t55.5 9t30.5 5.5q16 0 22 -24.5t6 -99.5v-742q0 -30 -8 -40t-31 -13q-64 -10 -129 -10q6 252 6 321v484q-15 -5 -395 -5q0 -121 3 -430t3 -354q-49 -14 -143 -14q-16 0 -21.5 5.5t-5.5 24.5q6 285 2 768zM305 893
h393q5 204 60 295q-63 72 -193 72q-122 0 -191 -100.5t-69 -266.5z" />
    <glyph glyph-name="f_f_l" unicode="ffl" horiz-adv-x="1548" 
d="M698 786h-393q-1 -126 2.5 -443.5t3.5 -340.5q-49 -14 -145 -14q-16 0 -20.5 5t-4.5 25q2 96 2 215.5t-1 284.5t-1 268q-61 0 -83.5 10t-22.5 35q29 37 106 64q7 230 156 367q111 102 291 102q75 0 137.5 -24.5t97.5 -57.5q108 123 283 123q113 0 182 -43q80 43 103 43
q10 0 15 -7t8 -36.5t3 -89.5v-1002q0 -152 8 -270q-49 -14 -143 -14q-27 0 -27 24v791q-95 -18 -395 -15q0 -120 4 -429.5t4 -354.5q-49 -14 -145 -14q-15 0 -20 5.5t-5 24.5q4 214 0 768zM1251 895v313q0 33 -8 41q-51 51 -143 51q-234 0 -240 -405l93 -1q93 -1 180 -1
t118 2zM305 895h393q0 73 18 159.5t42 133.5q-28 34 -78.5 54t-112.5 20q-122 0 -192 -99.5t-70 -267.5z" />
    <glyph glyph-name="f_j" unicode="fj" horiz-adv-x="985" 
d="M692 176v610q-111 -2 -387 -2q-1 -128 2.5 -443.5t3.5 -338.5q-49 -14 -145 -14q-16 0 -20.5 5t-4.5 25q2 96 2 214.5t-1 283t-1 268.5q-60 0 -83 9t-23 30q20 22 42.5 37t63.5 35q0 287 170 428q101 82 252 82q56 0 105 -16t77 -39q18 -22 4 -58.5t-38 -42.5
q-77 45 -160 45q-52 0 -94 -19.5t-77.5 -63.5t-55 -124t-19.5 -192h377q35 1 87 9.5t60 8.5q15 0 20 -27t5 -110v-637q0 -147 -15.5 -246.5t-62.5 -177.5q-42 -71 -105.5 -115t-101.5 -44q-52 0 -73 61l2 8q74 32 115.5 93t60 169.5t18.5 288.5z" />
    <glyph glyph-name="f_f_j" unicode="ffj" horiz-adv-x="1548" 
d="M1255 176v619q-60 -9 -395 -9q0 -120 3 -429.5t3 -354.5q-49 -14 -143 -14q-16 0 -21.5 5.5t-5.5 24.5q6 286 2 768h-393q-1 -140 -0.5 -273t1.5 -304.5t1 -206.5q-46 -14 -143 -14q-16 0 -21.5 5.5t-5.5 24.5q4 145 4 768q-63 2 -84.5 10.5t-21.5 34.5q29 37 106 64
q5 115 40 205.5t114 161.5q111 102 287 102q142 0 241 -84q116 125 293 125q59 0 114 -19t75 -47q2 -30 -22 -59t-50 -18q-69 32 -133 32q-37 0 -69.5 -10t-64.5 -37t-55 -70.5t-37 -115.5t-14 -166q3 0 50 -0.5t94.5 -1t116.5 0.5t124 3q36 0 87.5 9t56.5 9q16 0 22 -24.5
t6 -99.5v-652q0 -144 -16 -244.5t-62 -179.5q-43 -72 -106.5 -115.5t-102.5 -43.5q-24 0 -43 18t-28 47v4q74 32 116 93t61 169.5t19 288.5zM305 895h393q5 199 62 293q-31 34 -85.5 53t-109.5 19q-122 0 -191 -101t-69 -264z" />
    <glyph glyph-name="T_h" unicode="Th" horiz-adv-x="1974" 
d="M1255 1257v-481q62 65 141 104.5t163 39.5q80 0 138 -31t89 -85.5t45 -116.5t14 -136v-289q0 -213 4 -258q-82 -16 -141 -16q-15 0 -21 7.5t-6 24.5v525q1 132 -53.5 191t-136.5 59q-74 0 -136 -37t-100 -84v-629q0 -26 -7.5 -36t-30.5 -13q-45 -8 -130 -8q7 122 7 377
v809h-457v-920q0 -127 6 -250q-69 -16 -145 -16q-18 0 -24.5 7t-6.5 30v1149h-408q-24 0 -29 7.5t3 32.5q17 42 55 76q36 -10 301 -10h703q-1 15 -7 86q89 27 142 27q11 0 16.5 -7.5t8.5 -37.5t3 -91z" />
    <glyph glyph-name=".notdef" horiz-adv-x="1024" 
d="M0 0v1434h1024v-1434h-1024zM512 809l348 522h-696zM573 717l349 -522v1044zM164 102h696l-348 523zM102 1239v-1044l349 522z" />
    <glyph glyph-name=".null" horiz-adv-x="0" 
 />
    <glyph glyph-name="nonmarkingreturn" horiz-adv-x="682" 
 />
    <glyph glyph-name="space" unicode=" " horiz-adv-x="364" 
 />
    <glyph glyph-name="space" unicode="&#xa0;" horiz-adv-x="364" 
 />
    <glyph glyph-name="exclam" unicode="!" horiz-adv-x="358" 
d="M252 1243q19 0 25 -8.5t6 -40.5q0 -65 -18.5 -365t-24.5 -362q-4 -39 -31 -57q-52 -19 -66 -19q-7 95 -23.5 389t-19.5 410q4 13 61.5 33t90.5 20zM186 193q42 0 68.5 -31.5t26.5 -73.5q0 -50 -29 -80.5t-76 -30.5q-38 0 -68 28.5t-30 78.5q0 47 28 78t80 31z" />
    <glyph glyph-name="quotedbl" unicode="&#x22;" horiz-adv-x="546" 
d="M180 1397q25 0 34 -23.5t7 -77.5q-2 -71 -15 -162.5t-30 -134.5q-10 -17 -36.5 -32.5t-53.5 -16.5q4 254 -25 404q21 16 57.5 29.5t61.5 13.5zM442 1397q27 0 36 -24.5t7 -76.5q-2 -71 -15 -162.5t-30 -134.5q-10 -16 -37 -32t-55 -17q5 268 -22 404q21 16 56.5 29.5
t59.5 13.5z" />
    <glyph glyph-name="numbersign" unicode="#" horiz-adv-x="917" 
d="M152 969h163l56 237q10 7 39 15t49 8q18 0 10 -29l-51 -231h184l51 237q6 6 36 14.5t52 8.5q11 0 13.5 -7.5t-0.5 -21.5l-49 -231h120q18 0 23.5 -7.5t1.5 -25.5q-11 -53 -33 -78h-137l-55 -268h139q17 0 22.5 -5t4.5 -20q-12 -63 -33 -84h-160l-55 -297q-8 -8 -35.5 -16
t-48.5 -8t-13 30l58 291h-193l-59 -295q-3 -15 -9 -20.5t-20 -5.5q-20 0 -71 37l61 284h-135q-20 0 -26 6.5t-3 22.5q9 47 31 80h156l59 268h-145q-20 0 -26.5 5.5t-2.5 21.5q12 53 31 84zM580 858h-187l-57 -268h188z" />
    <glyph glyph-name="dollar" unicode="$" horiz-adv-x="917" 
d="M584 1346l-21 -168q59 -3 121 -25t94 -51q0 -34 -16.5 -58.5t-42.5 -25.5q-61 30 -107.5 44.5t-101.5 14.5q-88 0 -144.5 -49.5t-56.5 -118.5q0 -24 6.5 -46t13 -38t27 -36.5t32.5 -31.5t46 -33t49.5 -32t61.5 -37q12 -8 37.5 -23.5t39 -24t36.5 -24t35.5 -26t31 -27
t28.5 -31t22.5 -34t18.5 -39t10.5 -44t4.5 -50.5q0 -67 -21.5 -122t-54.5 -90.5t-77 -60.5t-85 -37t-82 -16l-16 -149q-3 -33 -41 -41q-56 -8 -84 -6l21 190q-80 5 -144.5 30t-95.5 52q-20 20 -19 64t21 59l4 2q62 -43 142.5 -70.5t150.5 -27.5q104 0 163.5 50t59.5 138
q0 37 -15 68t-53 63t-71.5 54t-101.5 63q-134 79 -194 150t-60 179q0 60 21.5 111t53.5 84t72 57t75.5 35t65.5 13l17 110q6 40 35 49q43 13 88 13z" />
    <glyph glyph-name="percent" unicode="%" horiz-adv-x="1349" 
d="M1098 1214q-9 -15 -290.5 -482.5t-475.5 -778.5q-11 -21 -21 -23t-20 9q-31 25 -39 59q44 73 221 364.5t311.5 515t235.5 394.5q9 13 17 12.5t22 -14.5q30 -20 39 -56zM332 1233q130 0 198 -94t68 -244q0 -88 -28.5 -163.5t-91.5 -126t-150 -50.5q-117 0 -193 85.5
t-76 248.5q0 61 16.5 120t48.5 110t86 82.5t122 31.5zM328 1149q-70 0 -104 -71t-34 -187q0 -107 35 -179.5t105 -72.5q135 0 135 260q0 44 -7 85.5t-21.5 80t-42.5 61.5t-66 23zM1032 653q127 0 192.5 -96.5t65.5 -245.5q0 -138 -71 -237t-195 -99q-54 0 -101 18
t-85.5 55.5t-61 102.5t-22.5 152q0 51 10.5 100.5t33 95t54.5 79.5t78.5 54.5t101.5 20.5zM1022 569q-66 0 -100.5 -74.5t-34.5 -187.5q0 -107 33.5 -177.5t103.5 -70.5q135 0 135 254q0 256 -137 256z" />
    <glyph glyph-name="ampersand" unicode="&#x26;" horiz-adv-x="1290" 
d="M1212 10v-4q-68 -35 -149 -35q-19 0 -33 8t-37 31q-49 49 -178 172q-155 -207 -373 -207q-161 0 -260.5 91.5t-99.5 250.5q0 26 5 51t12 45.5t20.5 43t24 38.5t30 36t31 31.5t34.5 30t33 26t34 25t30 22.5q-133 143 -133 284q0 137 86.5 222t216.5 85q118 0 196 -67.5
t78 -200.5q0 -35 -8.5 -66.5t-26.5 -59.5t-34.5 -49t-45.5 -45t-45 -36t-48 -33.5t-40 -27.5q40 -38 111 -107.5t121.5 -118.5t66.5 -63q159 302 220 393q43 62 69 62q32 0 58 -15t39 -37v-4q-99 -94 -306 -473q181 -169 301 -299zM348 973q0 -119 127 -240
q86 60 127.5 121.5t40.5 132.5q0 82 -42 128t-105 46q-69 0 -108.5 -48t-39.5 -140zM487 98q158 0 258 156q-267 262 -348 350q-155 -115 -155 -262q0 -103 70 -173.5t175 -70.5z" />
    <glyph glyph-name="quotesingle" unicode="'" horiz-adv-x="282" 
d="M180 1397q25 0 34 -23.5t7 -77.5q-1 -66 -16 -158.5t-31 -138.5q-10 -16 -37 -32t-55 -17q5 273 -21 404q21 16 57.5 29.5t61.5 13.5z" />
    <glyph glyph-name="parenleft" unicode="(" horiz-adv-x="622" 
d="M96 510q0 304 103.5 536t281.5 388q26 -6 44 -31.5t12 -50.5q-312 -324 -312 -830q0 -266 82 -472.5t230 -344.5q-9 -36 -27.5 -59t-38.5 -23q-167 110 -271 351.5t-104 535.5z" />
    <glyph glyph-name="parenright" unicode=")" horiz-adv-x="622" 
d="M545 549q0 -299 -101 -532.5t-282 -393.5q-24 7 -42.5 30t-13.5 52q310 322 310 830q0 527 -310 817q8 35 26 58.5t38 23.5q72 -50 136.5 -130t119.5 -189.5t87 -256.5t32 -309z" />
    <glyph glyph-name="asterisk" unicode="*" horiz-adv-x="698" 
d="M328 1108l2 250q37 10 76 2q22 -2 32 -13t6 -28l-51 -207l195 127q35 -22 45 -72q12 -40 -31 -55l-182 -61l190 -101q37 -21 19 -59q-9 -20 -26 -37.5t-36 -26.5l-188 170l2 -245q-35 -7 -92 4q-35 8 -21 65l47 185l-204 -140q-14 9 -27 32t-18 46q-11 35 16 45l203 70
l-179 96q-40 24 -20 53q18 35 61 66z" />
    <glyph glyph-name="plus" unicode="+" horiz-adv-x="1120" 
d="M500 455h-375q3 106 59 106h316v205q0 106 -6 158l77 10q30 3 40 -10.5t10 -57.5v-305h374q0 -52 -13.5 -79t-47.5 -27h-313v-361q0 -23 -15.5 -36t-54.5 -19l-51 -4v420z" />
    <glyph glyph-name="comma" unicode="," horiz-adv-x="315" 
d="M193 244q29 0 42 -34.5t13 -76.5q0 -81 -54 -174.5t-114 -134.5q-45 -28 -119 -25q59 72 91 156t32 166q0 47 -10 80q79 43 119 43z" />
    <glyph glyph-name="hyphen" unicode="-" horiz-adv-x="583" 
d="M520 582q-10 -63 -33.5 -99t-74.5 -49q-57 -19 -175 -38.5t-174 -18.5l-2 4q10 54 30 92t38 41q215 27 391 68z" />
    <glyph glyph-name="period" unicode="." horiz-adv-x="315" 
d="M162 193q44 0 71 -32t27 -73q0 -50 -29 -80.5t-75 -30.5q-38 0 -68.5 28.5t-30.5 78.5q0 46 28 77.5t77 31.5z" />
    <glyph glyph-name="slash" unicode="/" horiz-adv-x="692" 
d="M631 1313l-412 -1432q-11 -45 -24.5 -57t-44.5 -14l-70 -3l418 1446q9 32 21.5 45t49.5 13z" />
    <glyph glyph-name="zero" unicode="0" horiz-adv-x="917" 
d="M469 1233q72 0 130.5 -23t98.5 -60.5t70 -91.5t47 -108.5t27.5 -119.5t14 -117t3.5 -107q0 -319 -106 -475t-297 -156q-63 0 -118 17.5t-108.5 62t-91.5 114t-61 181t-23 254.5q0 84 11.5 166t41.5 167.5t75 149.5t119 105t167 41zM455 1135q-33 0 -62.5 -12.5t-60.5 -48
t-53.5 -92t-37 -151.5t-14.5 -219q0 -121 14.5 -216t37.5 -154.5t55.5 -98t65 -54t69.5 -15.5q33 0 60.5 10.5t58.5 45t51.5 92t34.5 159t14 237.5q0 98 -11 183.5t-36 164t-72.5 124t-113.5 45.5z" />
    <glyph glyph-name="one" unicode="1" horiz-adv-x="917" 
d="M610 1233l21 -12q0 -65 3 -575t3 -597q0 -29 -10.5 -38.5t-36.5 -14.5q-78 -8 -127 -8q0 1 1 380.5t1 700.5q-139 -58 -322 -108l-4 6l45 98q355 133 426 168z" />
    <glyph glyph-name="two" unicode="2" horiz-adv-x="917" 
d="M82 27l37 69q278 297 381.5 456.5t103.5 303.5q0 118 -59 182t-154 64q-69 0 -132 -31.5t-103 -71.5q-23 -17 -35 -15.5t-23 17.5q-4 5 -6.5 15.5t-5.5 24.5t-4 18q60 85 158 129.5t200 44.5q84 0 150.5 -29t106.5 -79.5t60.5 -113t20.5 -134.5q0 -152 -110 -312
q-117 -171 -379 -438q244 -15 569 0q-6 -32 -31 -67t-47 -44q-39 -24 -209 -24q-381 0 -483 20z" />
    <glyph glyph-name="three" unicode="3" horiz-adv-x="917" 
d="M86 92l4 4q115 -47 238 -47q90 0 155 23t100.5 64t51.5 89t16 107q0 111 -76.5 172t-220.5 61q-27 0 -71 -4t-47 -4l-3 2q4 24 25 59t35 44q289 49 289 258q0 81 -51 133.5t-142 52.5q-51 0 -104.5 -22t-91.5 -54q-50 -33 -66 -10t-16 67q41 55 132.5 100.5t180.5 45.5
q75 0 134 -20t94 -49.5t58 -68t31.5 -71.5t8.5 -63q0 -199 -222 -297q157 -32 230 -115.5t73 -204.5q0 -186 -134.5 -295.5t-350.5 -109.5q-75 0 -135 15t-80 32q-20 20 -32.5 49.5t-12.5 56.5z" />
    <glyph glyph-name="four" unicode="4" horiz-adv-x="917" 
d="M772 1270l4 -10q-154 -175 -309 -388t-266 -405q178 -24 366 -21l8 349q23 14 71.5 27t82.5 16l6 -7v-385q73 0 144 9l2 -4q-15 -63 -70 -101q-13 -5 -42 -8t-34 -4v-289q0 -26 -9.5 -36t-35.5 -15q-51 -10 -133 -10q8 320 8 350q-140 0 -283 8t-200 21q-12 7 -26 27
t-17 38q88 154 275 417.5t257 332.5q41 32 99 57t102 31z" />
    <glyph glyph-name="five" unicode="5" horiz-adv-x="917" 
d="M127 631l-6 8q16 113 58.5 317.5t62.5 253.5q67 0 271 11t247 18l2 -4q-17 -77 -51 -107q-25 -23 -93 -31t-290 -18q-11 -37 -36.5 -159t-31.5 -168q134 -19 260 -52q160 -44 238 -125.5t78 -216.5q0 -187 -140 -303t-348 -116q-131 0 -180 34q-18 15 -29.5 43t-11.5 56
l2 2q85 -29 195 -29q150 0 244 72.5t94 214.5q-1 98 -59 152.5t-167 86.5q-134 41 -309 60z" />
    <glyph glyph-name="six" unicode="6" horiz-adv-x="917" 
d="M846 1208l-2 -6q-291 -54 -449 -235q-81 -90 -124.5 -217t-43.5 -271q0 -201 73 -303t185 -102q94 0 155.5 71t61.5 205q0 61 -14 107.5t-35.5 74t-51.5 45t-58 23.5t-58 6q-91 0 -192 -71q-3 21 7 54.5t28 47.5q46 42 110 66t123 24q69 0 124 -22.5t88.5 -57.5t55.5 -81
t30.5 -89.5t8.5 -85.5q0 -111 -47 -204.5t-140.5 -152.5t-217.5 -59q-65 0 -123.5 16t-112.5 53.5t-93 93.5t-62 143t-23 196q0 294 191 516q63 75 143 132.5t151.5 87t125 43.5t85.5 14q78 0 101 -62z" />
    <glyph glyph-name="seven" unicode="7" horiz-adv-x="917" 
d="M848 1208l6 -4q-12 -133 -122 -401t-226.5 -490t-165.5 -278q-23 -26 -43 -37.5t-51 -17.5q-56 -9 -90 -9l-2 6q132 174 306.5 527.5t233.5 572.5h-491q-82 0 -112 9.5t-25 33.5q5 22 29 55.5t50 51.5q31 -19 168 -19h535z" />
    <glyph glyph-name="eight" unicode="8" horiz-adv-x="917" 
d="M473 1233q148 0 239 -83t91 -204q0 -55 -16 -100t-50.5 -83t-68.5 -64.5t-88 -61.5q60 -34 89 -51.5t71.5 -50t62 -61t34.5 -71.5t15 -94q0 -140 -112 -237t-289 -97q-88 0 -157.5 20.5t-111 52.5t-69 74t-37.5 80.5t-10 76.5q0 46 15 86.5t36.5 70.5t59.5 61.5
t70.5 52.5t82.5 50q-114 61 -163.5 136t-49.5 175q0 129 99.5 225.5t256.5 96.5zM457 1135q-81 0 -137 -52t-56 -145q0 -87 55 -141t179 -115q155 114 155 248q0 92 -52.5 148.5t-143.5 56.5zM465 74q99 0 162 55.5t63 155.5q0 75 -61 132t-215 132q-94 -58 -141.5 -117.5
t-47.5 -136.5q0 -100 70 -160.5t170 -60.5z" />
    <glyph glyph-name="nine" unicode="9" horiz-adv-x="917" 
d="M117 6l2 4q57 11 118 31t139.5 64t129.5 100q172 183 172 508q0 187 -61.5 304.5t-178.5 117.5q-95 0 -152 -79.5t-57 -199.5q0 -132 66.5 -199t167.5 -67q50 0 135 37q2 -20 -6.5 -49.5t-24.5 -45.5q-22 -22 -73 -37.5t-111 -15.5q-152 0 -238 99.5t-86 250.5
q0 76 27 148t76 129.5t126 92t169 34.5q84 0 152.5 -29.5t114 -78.5t76 -116t43.5 -139.5t13 -150.5q0 -357 -240 -586q-73 -70 -163 -117.5t-147 -62t-91 -14.5q-44 0 -59 10q-25 20 -39 57z" />
    <glyph glyph-name="colon" unicode=":" horiz-adv-x="315" 
d="M162 850q43 0 68.5 -31t25.5 -76q0 -47 -28 -77.5t-72 -30.5q-38 0 -68.5 27.5t-30.5 76.5t27.5 80t77.5 31zM164 193q45 0 71.5 -32t26.5 -75q0 -49 -29 -79t-75 -30q-38 0 -68.5 27.5t-30.5 77.5q0 46 28.5 78.5t76.5 32.5z" />
    <glyph glyph-name="semicolon" unicode=";" horiz-adv-x="315" 
d="M164 850q44 0 68 -31t24 -76q0 -47 -28 -77.5t-72 -30.5q-38 0 -68.5 27t-30.5 77q0 49 28 80t79 31zM190 244q30 0 44 -34.5t14 -76.5q0 -81 -54 -174.5t-114 -134.5q-45 -28 -119 -25q53 67 88 155t35 167q0 47 -10 80q79 43 116 43z" />
    <glyph glyph-name="less" unicode="&#x3c;" horiz-adv-x="1120" 
d="M934 811l-606 -354v-6l606 -351q0 -38 -23 -82q-17 -27 -49 -8l-647 383q-29 18 -29 35q0 44 23 74l655 397q32 20 51 -14q19 -47 19 -74z" />
    <glyph glyph-name="equal" unicode="=" horiz-adv-x="1120" 
d="M934 629h-811q2 55 15.5 80.5t47.5 25.5h811q-2 -57 -14.5 -81.5t-48.5 -24.5zM934 246h-811q2 56 15.5 82t47.5 26h811q-2 -56 -14.5 -82t-48.5 -26z" />
    <glyph glyph-name="greater" unicode="&#x3e;" horiz-adv-x="1120" 
d="M188 98l607 355v6l-609 350q0 13 7.5 40t15.5 42q19 25 51 8l647 -383q27 -17 27 -35q0 -49 -21 -73l-655 -398q-19 -10 -29.5 -7t-21.5 22q-15 34 -19 73z" />
    <glyph glyph-name="question" unicode="?" horiz-adv-x="651" 
d="M336 1243q118 0 189 -70t71 -178q0 -70 -34 -133.5t-103 -150.5q-109 -136 -109 -219q0 -49 25 -101q-22 -22 -60 -22q-36 0 -66 36.5t-30 102.5q0 60 23 116t69 124q2 3 28 38t34 48.5t25 43t23.5 53.5t6.5 48q0 58 -33 94.5t-92 36.5q-102 0 -184 -70h-6q-22 18 -30 48
t5 55q108 100 248 100zM328 193q42 0 70 -32.5t28 -72.5q0 -49 -30.5 -80t-76.5 -31q-38 0 -68 28.5t-30 78.5q0 47 28.5 78t78.5 31z" />
    <glyph glyph-name="at" unicode="@" horiz-adv-x="1478" 
d="M1094 78l6 -2q11 -12 8 -46.5t-18 -47.5q-149 -146 -422 -146q-122 0 -228.5 42t-186 120.5t-125.5 198t-46 266.5q0 174 56 320t154.5 247t237 157t299.5 56q255 0 413.5 -154t158.5 -403q0 -141 -56 -257.5t-149.5 -181.5t-202.5 -65q-38 0 -65 9.5t-49.5 36t-25 72.5
t8.5 118q-74 -122 -160 -179t-165 -57q-62 0 -100 59t-38 158q0 100 31 194t87 168.5t144 119.5t193 45q31 0 63.5 -3.5t51.5 -7.5t58 -12.5t54 -11.5q-21 -77 -54.5 -224.5t-43.5 -215.5q-13 -100 1.5 -138.5t62.5 -38.5q35 0 74.5 23.5t78 71t63.5 134t25 197.5
q0 133 -63.5 237.5t-168.5 159t-231 54.5q-142 0 -259.5 -51.5t-195.5 -142t-120.5 -213t-42.5 -263.5q0 -239 139 -389.5t373 -150.5q101 0 200.5 37t174.5 100zM604 293q67 0 151 92.5t124 220.5q34 101 61 219q-25 15 -100 15q-76 0 -136 -40t-95 -104t-52.5 -135.5
t-17.5 -142.5q0 -60 18 -92.5t47 -32.5z" />
    <glyph glyph-name="A" unicode="A" horiz-adv-x="1249" 
d="M862 422h-514q-124 -293 -180 -412q-9 -22 -41 -22q-50 0 -100 24l-2 6q77 168 267.5 603t256.5 589l-23 56q82 20 125 20q33 0 47 -35q49 -112 183.5 -433t173.5 -410q27 -62 68.5 -160.5t63 -148t38.5 -81.5l-2 -8q-54 -22 -144 -22q-19 0 -31.5 13t-27.5 50
q-79 195 -158 371zM389 530h436q-145 369 -217 531q-84 -197 -219 -531z" />
    <glyph glyph-name="B" unicode="B" horiz-adv-x="995" 
d="M141 16v977q0 169 -6 267q35 8 129.5 19t177.5 11q74 0 135 -12.5t102 -32.5t72 -48t48.5 -55.5t28.5 -59.5t14.5 -56.5t3.5 -48.5q0 -89 -49.5 -162.5t-128.5 -116.5q127 -34 195.5 -119t68.5 -196q0 -128 -66.5 -220.5t-177.5 -137.5t-254 -45q-149 0 -293 36z
M309 1178v-467q86 17 246 10q48 21 85.5 84t37.5 151q0 103 -66 166.5t-196 63.5q-57 0 -107 -8zM309 612v-518q51 -14 131 -14q135 0 220 75.5t85 213.5q0 126 -81.5 189t-231.5 63q-76 0 -123 -9z" />
    <glyph glyph-name="B" unicode="&#xe000;" horiz-adv-x="995" 
d="M141 16v977q0 169 -6 267q35 8 129.5 19t177.5 11q74 0 135 -12.5t102 -32.5t72 -48t48.5 -55.5t28.5 -59.5t14.5 -56.5t3.5 -48.5q0 -89 -49.5 -162.5t-128.5 -116.5q127 -34 195.5 -119t68.5 -196q0 -128 -66.5 -220.5t-177.5 -137.5t-254 -45q-149 0 -293 36z
M309 1178v-467q86 17 246 10q48 21 85.5 84t37.5 151q0 103 -66 166.5t-196 63.5q-57 0 -107 -8zM309 612v-518q51 -14 131 -14q135 0 220 75.5t85 213.5q0 126 -81.5 189t-231.5 63q-76 0 -123 -9z" />
    <glyph glyph-name="C" unicode="C" horiz-adv-x="1167" 
d="M1116 150q0 -27 -17 -63t-40 -54q-38 -25 -122 -44.5t-179 -19.5q-331 0 -510.5 181t-179.5 481q0 151 54 279t147.5 215.5t222.5 136.5t278 49q136 0 236 -33.5t131 -69.5q2 -28 -17.5 -56t-44.5 -32q-137 72 -311 72q-103 0 -194.5 -35.5t-162.5 -102.5t-113 -173
t-42 -238q0 -120 36 -220.5t104 -173.5t173.5 -114t237.5 -41q88 0 174.5 17.5t138.5 38.5z" />
    <glyph glyph-name="D" unicode="D" horiz-adv-x="1304" 
d="M141 25v991q0 180 -4 239q27 9 152.5 22t214.5 13q132 0 240.5 -22t183.5 -58.5t132 -88.5t90 -107t54 -120t28 -121t7 -116q0 -160 -55 -289t-152.5 -213.5t-230.5 -129.5t-291 -45q-181 0 -369 45zM311 1169v-1065q82 -20 205 -20q85 0 160 17.5t145.5 59t120.5 105
t80.5 163t30.5 224.5q0 248 -141.5 388.5t-424.5 140.5q-100 0 -176 -13z" />
    <glyph glyph-name="E" unicode="E" horiz-adv-x="882" 
d="M141 45v948q0 180 -4 258q73 24 142 29h520q-11 -72 -45 -96q-27 -13 -156 -13h-287v-456h471q-10 -67 -38 -88t-85 -21h-348v-491q58 -19 250 -19q200 0 295 10l4 -4q-23 -82 -90 -106q-54 -8 -246 -8q-268 0 -358 22z" />
    <glyph glyph-name="F" unicode="F" horiz-adv-x="858" 
d="M141 23v1009q0 152 -6 219q70 20 162 29h534q-5 -25 -12.5 -43.5t-13 -26.5t-17.5 -24q-25 -15 -139 -15h-338v-497h486q-4 -69 -34 -90t-89 -21h-363q0 -328 6 -559q-46 -16 -141 -16q-35 0 -35 35z" />
    <glyph glyph-name="G" unicode="G" horiz-adv-x="1298" 
d="M1018 117v237q0 171 -8 226q117 30 149 30q29 0 29 -55v-461q-52 -42 -135 -80q-142 -45 -285 -45q-113 0 -212.5 20.5t-190.5 69.5t-156.5 123.5t-104 189t-38.5 259.5q0 201 95 357.5t256 239.5t359 83q162 0 269 -39.5t143 -79.5q2 -26 -19.5 -56t-50.5 -30
q-147 86 -346 86q-109 0 -204 -37.5t-165 -106.5t-110.5 -173t-40.5 -230q0 -119 31 -216t84 -161t124.5 -108t150 -63t163.5 -19q62 0 121.5 11t91.5 28z" />
    <glyph glyph-name="H" unicode="H" horiz-adv-x="1296" 
d="M311 719h674v506q0 30 8.5 40t32.5 13q44 8 135 8q-6 -117 -6 -368v-662q0 -129 6 -252q-70 -16 -147 -16q-16 0 -22.5 6.5t-6.5 25.5v598q-61 -6 -295 -6h-379v-563q0 -30 -9.5 -39t-39.5 -14q-51 -8 -127 -8q6 123 6 374v648q0 202 -6 260q70 16 141 16q21 0 28 -19
t7 -87v-461z" />
    <glyph glyph-name="I" unicode="I" horiz-adv-x="452" 
d="M141 27v985q0 202 -6 258q72 16 146 16q20 0 25 -18t5 -86v-928q0 -127 6 -250q-46 -16 -143 -16q-18 0 -25.5 7.5t-7.5 31.5z" />
    <glyph glyph-name="J" unicode="J" horiz-adv-x="452" 
d="M141 309v703q0 202 -6 258q93 16 146 16q20 0 25 -17.5t5 -86.5v-871q0 -211 -29.5 -321t-105.5 -180q-37 -34 -86 -56t-84 -22q-28 0 -49.5 22t-26.5 53l2 3q87 25 129.5 70t61 142t18.5 287z" />
    <glyph glyph-name="K" unicode="K" horiz-adv-x="1124" 
d="M141 23v987q0 202 -6 260q83 16 146 16q21 0 25.5 -16.5t4.5 -89.5v-533q321 321 629 651q34 0 92 -12q32 -8 31.5 -24t-31.5 -50q-35 -35 -246.5 -248.5t-293.5 -297.5q108 -131 310 -344.5t314 -311.5v-4q-17 -9 -57 -15.5t-74 -6.5q-39 0 -67 14t-66 53
q-87 86 -291 305.5t-250 274.5v-375q0 -129 6 -252q-19 -6 -68 -11t-73 -5q-21 0 -28 7t-7 28z" />
    <glyph glyph-name="L" unicode="L" horiz-adv-x="849" 
d="M141 45v963q0 200 -6 262q93 16 146 16q18 0 24 -19.5t6 -90.5v-1061q55 -19 228 -19q204 0 299 10l4 -4q-5 -35 -26 -64t-56 -42q-54 -8 -234 -8q-263 0 -360 22z" />
    <glyph glyph-name="M" unicode="M" horiz-adv-x="1685" 
d="M1237 1225l-6 39q16 8 59 15t70 7q26 0 33 -53l131 -762q52 -322 86 -465q-20 -7 -63.5 -12.5t-69.5 -5.5q-38 0 -43 41q-29 168 -62 389l-98 633q-40 -111 -176.5 -465.5t-198.5 -519.5q-15 -42 -51 -54q-46 -12 -80 -12q-60 190 -375 1051q-27 -179 -97.5 -589
t-76.5 -446q-6 -18 -13 -23t-22 -5q-75 0 -106 18q16 81 97 519t132 694l-12 45q68 22 143 22q31 -39 107 -233l303 -793q283 719 389 965z" />
    <glyph glyph-name="N" unicode="N" horiz-adv-x="1323" 
d="M156 1192l-58 72v6q20 4 78 10t82 6t51 -35q30 -38 99.5 -133t191 -263t195.5 -269q12 -17 50 -70.5t52 -73t43 -62.5t44.5 -67t34.5 -55t32 -57q-9 195 -9 446v572q0 33 9.5 45t29.5 14q47 8 97 8q-7 -154 -7 -377v-905q-10 -8 -50 -19.5t-66 -11.5q-18 0 -31 13
q-69 94 -247 338t-265 362q-164 248 -238 373q11 -349 11 -471v-531q0 -34 -8.5 -45t-32.5 -16q-41 -8 -94 -8q6 123 6 372v832z" />
    <glyph glyph-name="O" unicode="O" horiz-adv-x="1427" 
d="M711 1311q121 0 226 -34.5t182 -96t131.5 -144t82 -181t27.5 -204.5q0 -108 -25.5 -208t-78 -186.5t-127 -150.5t-179.5 -100.5t-229 -36.5q-137 0 -249 40.5t-185.5 106.5t-124 152.5t-72.5 176t-22 180.5q0 195 76.5 350t224 245.5t342.5 90.5zM700 1206
q-202 0 -325 -149.5t-123 -415.5q0 -133 40.5 -242.5t108.5 -179.5t154 -107.5t180 -37.5q198 0 319.5 147t121.5 418q0 255 -136.5 411t-339.5 156z" />
    <glyph glyph-name="P" unicode="P" horiz-adv-x="970" 
d="M141 25v966q0 183 -8 275q158 24 291 24q111 0 198 -22t153 -67.5t101 -123t35 -182.5q0 -82 -26.5 -150.5t-68 -113t-94.5 -75t-104 -43.5t-98 -13q-75 0 -108 20q-14 11 -27 37.5t-12 54.5q47 -14 96 -14q47 0 90.5 15t83 47t63 91t23.5 138q0 71 -20 125.5t-50.5 85.5
t-72.5 50t-80 25.5t-80 6.5q-63 0 -115 -8v-924q0 -123 6 -246q-46 -16 -141 -16q-17 0 -26 7.5t-9 29.5z" />
    <glyph glyph-name="Q" unicode="Q" horiz-adv-x="1427" 
d="M713 1311q154 0 279.5 -55.5t204.5 -148.5t121 -210.5t42 -247.5q0 -148 -45.5 -275.5t-141 -225t-231.5 -142.5q63 -37 172 -117q204 -147 369 -176v-4q-19 -34 -60.5 -52.5t-85.5 -18.5q-85 0 -185 51.5t-245 160.5q-78 61 -132 86.5t-130 34.5q-261 28 -419 206
t-158 448q0 195 77 350t225 245.5t343 90.5zM698 1206q-200 0 -323 -149.5t-123 -415.5q0 -133 42.5 -243.5t111.5 -179.5t154 -106.5t173 -37.5q204 0 323.5 145t119.5 416q0 259 -134.5 415t-343.5 156z" />
    <glyph glyph-name="R" unicode="R" horiz-adv-x="1042" 
d="M309 549v-504q0 -27 -7.5 -36.5t-29.5 -14.5q-35 -6 -137 -6q6 123 6 372v687q0 149 -4 215q44 9 145.5 18.5t161.5 9.5q210 0 322.5 -81.5t112.5 -272.5q0 -56 -17.5 -106.5t-44.5 -86.5t-63 -66t-68.5 -48.5t-64.5 -30.5q67 -44 196 -260q74 -127 138 -216.5t96 -113.5
v-6q-29 -18 -113 -18q-47 0 -86 28.5t-84 93.5q-39 59 -63.5 99.5t-52.5 91.5t-54 94q-61 99 -107.5 128.5t-117.5 29.5h-64zM309 1178v-533q174 -3 228 19q67 26 115 90t48 168q0 72 -22.5 125.5t-62.5 82.5t-86.5 42.5t-100.5 13.5q-83 0 -119 -8z" />
    <glyph glyph-name="S" unicode="S" horiz-adv-x="843" 
d="M477 1311q74 0 147 -25.5t103 -56.5q3 -24 -12 -54t-41 -38q-40 22 -98.5 38.5t-108.5 16.5q-92 0 -157.5 -49t-65.5 -144q0 -45 12.5 -79.5t46 -69t75.5 -64.5t118 -77q83 -49 133 -86t88.5 -81.5t54.5 -95t16 -116.5q0 -114 -58 -197.5t-150.5 -123.5t-206.5 -40
q-94 0 -170 24t-113 56q-35 24 -35 51q0 20 11 51.5t20 41.5q56 -43 136.5 -70t148.5 -27q121 0 183 55t62 146q0 48 -14.5 84.5t-54 74t-88 70.5t-137.5 86q-79 46 -131 95t-74.5 96.5t-30.5 84t-8 79.5q0 42 11 85t39.5 90.5t71.5 84t115 60.5t162 24z" />
    <glyph glyph-name="T" unicode="T" horiz-adv-x="1071" 
d="M451 25v1149h-392q-23 0 -28.5 7.5t2.5 30.5q16 43 51 78q42 -10 305 -10h678q0 -39 -21.5 -69t-46.5 -37h-378v-920q0 -127 6 -250q-69 -16 -146 -16q-18 0 -24 7t-6 30z" />
    <glyph glyph-name="U" unicode="U" horiz-adv-x="1312" 
d="M307 1178v-584q0 -125 23.5 -219t58.5 -147t86.5 -85.5t98.5 -42.5t102 -10q64 0 112.5 11t97.5 44t80.5 89.5t51.5 152.5t20 227v613q0 46 37 53q56 6 109 6q-6 -120 -6 -371v-297q0 -119 -18 -215.5t-47 -163t-72.5 -116.5t-88 -78.5t-99 -46.5t-101 -23.5t-99.5 -5.5
q-94 0 -169 18.5t-141.5 63t-110.5 115.5t-69.5 180t-25.5 252v410q0 200 -6 262q72 16 141 16q24 0 29.5 -17.5t5.5 -90.5z" />
    <glyph glyph-name="V" unicode="V" horiz-adv-x="1189" 
d="M33 1243q26 16 71.5 29.5t75.5 13.5q21 0 34.5 -26t55.5 -140q116 -321 344 -921q38 98 189 489.5t229 599.5q71 -4 103 -18q19 -9 21 -24.5t-11 -53.5q-133 -354 -461 -1137q-17 -42 -41 -59q-31 -21 -115 -21q-34 89 -113.5 300.5t-129.5 341.5t-121.5 309.5
t-130.5 316.5z" />
    <glyph glyph-name="W" unicode="W" horiz-adv-x="1765" 
d="M926 1286q16 0 24 -11t15 -36q229 -756 295 -1038q69 218 198 614t152 471q38 0 92 -14q23 -7 26.5 -22.5t-8.5 -55.5q-116 -363 -389 -1133q-16 -47 -41 -65q-15 -8 -50 -14.5t-60 -6.5q-31 111 -301 1037q-35 -129 -150 -507t-129 -427q-11 -40 -20.5 -57.5
t-26.5 -26.5q-47 -19 -102 -19q-12 40 -54.5 178t-60 193t-55 175.5t-61 192.5t-57 173.5t-64.5 189t-62 172.5q24 14 67 25.5t76 11.5q20 0 33.5 -26t42.5 -123q17 -57 91.5 -303t117 -391t65.5 -236q106 407 287 993q0 37 -10 60q69 26 119 26z" />
    <glyph glyph-name="X" unicode="X" horiz-adv-x="1132" 
d="M55 1251v4q113 31 154 31q14 0 28 -14.5t42 -54.5q132 -197 307 -441q221 306 332 467q19 25 30.5 34t24.5 9q46 0 110 -31v-4q-34 -47 -186 -252t-240 -325q338 -500 455 -660v-6q-54 -24 -151 -24q-34 0 -64 39q-31 45 -141.5 210.5t-202.5 301.5q-70 -103 -207.5 -295
t-159.5 -224q-16 -28 -51 -28q-70 0 -115 20v4q54 76 223.5 306t237.5 323q-135 204 -426 610z" />
    <glyph glyph-name="Y" unicode="Y" horiz-adv-x="1110" 
d="M475 25v501q0 65 -14 88q-73 119 -211 324t-219 317v5q93 26 145 26q21 0 35.5 -13.5t44.5 -62.5q43 -67 172 -264.5t154 -236.5q60 84 208.5 306.5t176.5 270.5q66 -4 102 -16q38 -14 -6 -76q-44 -64 -208.5 -300t-186.5 -265q-23 -36 -23 -82v-297q0 -123 6 -246
q-50 -16 -147 -16q-18 0 -23.5 7t-5.5 30z" />
    <glyph glyph-name="Z" unicode="Z" horiz-adv-x="1097" 
d="M1073 100l2 -4q-41 -78 -96 -98q-30 -10 -303 -10q-510 0 -598 16q-26 23 -31 43q199 262 435.5 613t326.5 516h-604q-59 0 -86.5 4.5t-32.5 12.5t0 24q3 14 22.5 38.5t36.5 40.5q57 -16 162 -16h703q-4 -47 -43 -133q-109 -182 -300 -477t-382 -564q127 -10 414 -11.5
t374 5.5z" />
    <glyph glyph-name="bracketleft" unicode="[" horiz-adv-x="610" 
d="M172 434q0 164 6 483.5t12 430.5q6 6 131.5 20t182.5 14q20 -33 20 -75q0 -11 -26 -17q-56 -7 -158 -24q-17 -3 -24 -13.5t-9 -35.5q-13 -96 -16 -797q-4 -520 4 -629q3 -22 13.5 -32t31.5 -15q43 -8 145 -20q24 -3 21 -23q-3 -39 -21 -68q-78 0 -151.5 7t-114.5 15.5
t-45 14.5q-5 53 -5.5 167t1.5 305t2 292z" />
    <glyph glyph-name="backslash" unicode="\" horiz-adv-x="614" 
d="M180 1313l363 -1432q9 -41 1 -54t-40 -15l-72 -5l-360 1446q-2 15 -2 27t13.5 20t41.5 9z" />
    <glyph glyph-name="bracketright" unicode="]" horiz-adv-x="610" 
d="M438 582q0 -573 -18 -914q-6 -6 -132 -20.5t-182 -14.5q-20 33 -20 78q0 12 27 17q88 9 157 22q17 3 24 13.5t9 35.5q10 75 16 797q2 573 -6 629q-5 41 -45 47q-9 1 -32 4.5t-49.5 6.5t-57.5 7q-28 4 -25 25q3 38 21 67q78 0 151.5 -6.5t114.5 -15t45 -14.5
q5 -53 5.5 -167t-1.5 -305t-2 -292z" />
    <glyph glyph-name="asciicircum" unicode="^" horiz-adv-x="1120" 
d="M150 465l337 729q6 18 13.5 24t29.5 9q56 8 86 6l357 -768q-10 -10 -42 -22.5t-52 -12.5q-24 0 -43 47l-279 623l-278 -637q-15 -33 -35 -33q-13 0 -46.5 12t-47.5 23z" />
    <glyph glyph-name="underscore" unicode="_" horiz-adv-x="1024" 
d="M1024 -154v-102h-1024v102h1024z" />
    <glyph glyph-name="grave" unicode="`" horiz-adv-x="819" 
d="M311 1372q24 -1 77 -98.5t81 -173.5q12 -29 -6 -47q-23 -23 -47 -27q-111 163 -205 262q-17 16 6 39q52 45 94 45z" />
    <glyph glyph-name="a" unicode="a" horiz-adv-x="845" 
d="M803 98l2 -4q1 -57 -32.5 -88t-90.5 -31q-58 0 -92.5 38t-42.5 96q-48 -59 -118.5 -96.5t-145.5 -37.5q-102 0 -168 66t-66 160q0 36 11.5 68t27 56.5t45 47.5t51 37.5t61 30.5t58.5 23t60.5 18t50.5 13t43 9q43 10 90 18l2 76q0 83 -47 139t-135 56q-104 0 -226 -91
q-31 -5 -49 21.5t-18 56.5q68 56 156.5 98t177.5 42q147 0 223 -92.5t76 -243.5q0 -31 -4 -190t-3 -230q0 -33 18 -52.5t54 -19.5q16 0 31 6zM215 231q0 -60 40.5 -98.5t100.5 -38.5q100 0 174 96q15 22 15 64v182q-330 -58 -330 -205z" />
    <glyph glyph-name="b" unicode="b" horiz-adv-x="1001" 
d="M293 1260v-435q150 95 274 95q71 0 136 -26t120 -76t88 -135.5t33 -193.5q0 -153 -71.5 -271t-192.5 -180.5t-270 -62.5q-138 0 -246 50q-19 9 -26 21t-7 38v1053q0 143 -8 229q88 27 141 27q11 0 16.5 -7t9 -36.5t3.5 -89.5zM293 733v-635q50 -20 127 -20
q152 0 251 102.5t99 284.5q0 151 -80.5 238.5t-210.5 87.5q-43 0 -94 -15t-92 -43z" />
    <glyph glyph-name="c" unicode="c" horiz-adv-x="829" 
d="M784 145l2 -4q-2 -34 -16 -66.5t-35 -49.5q-36 -22 -95 -36t-118 -14q-65 0 -126 12.5t-124 45t-109.5 83t-76 133t-29.5 187.5q0 211 139.5 347.5t350.5 136.5q85 0 153 -22.5t97 -53.5q2 -25 -12.5 -54t-39.5 -36q-95 49 -202 49q-138 0 -226 -94.5t-88 -253.5
q0 -81 22 -144.5t56.5 -101.5t80.5 -63t89 -34.5t88 -9.5q129 0 219 43z" />
    <glyph glyph-name="d" unicode="d" horiz-adv-x="1019" 
d="M721 891v276q0 113 -8 199q27 9 72.5 18t66.5 9q13 0 18.5 -7.5t9 -36t3.5 -89.5v-1059q0 -73 15.5 -99.5t64.5 -35.5v-5q-8 -32 -33.5 -59t-52.5 -27q-64 0 -99 33.5t-41 87.5q-67 -54 -143 -87.5t-145 -33.5q-79 0 -149.5 29t-125 83.5t-86 140.5t-31.5 192
q0 219 143 359.5t361 140.5q76 0 160 -29zM721 176v608q-64 35 -160 35q-45 0 -89.5 -12.5t-89 -41.5t-78 -71.5t-54.5 -108.5t-21 -147q0 -154 84.5 -245t204.5 -91q54 0 110.5 20.5t92.5 53.5z" />
    <glyph glyph-name="e" unicode="e" horiz-adv-x="854" 
d="M752 145l4 -2q-1 -39 -22.5 -74.5t-45.5 -48.5q-26 -17 -83 -31t-113 -14q-210 0 -322.5 119.5t-112.5 335.5q0 132 48 242t145 179t225 69q82 0 147 -29t103 -77.5t58 -106.5t22 -121q0 -46 -6 -62q-12 -44 -170 -67q-43 -6 -168.5 -7t-239.5 3q0 -164 86 -258.5
t225 -94.5q60 0 123.5 14.5t96.5 30.5zM455 825q-86 0 -150 -71.5t-78 -202.5q68 -2 150.5 -2t153.5 1t73 1q20 1 31.5 13t11.5 30q2 102 -48 166.5t-144 64.5z" />
    <glyph glyph-name="f" unicode="f" horiz-adv-x="512" 
d="M512 1405q40 0 76 -11.5t53 -31.5q7 -29 -16 -62t-50 -20q-36 12 -73 12q-200 0 -195 -397q228 0 277 6q-9 -54 -54 -90q-36 -25 -225 -25q-1 -125 2.5 -442t3.5 -340q-56 -16 -145 -16q-15 0 -20 5.5t-5 24.5q2 97 2 217t-1 284.5t-1 266.5q-61 3 -83.5 12t-22.5 29
q32 40 106 68q0 159 37 259.5t107 164.5q96 86 227 86z" />
    <glyph glyph-name="g" unicode="g" horiz-adv-x="872" 
d="M414 920q75 0 153 -19q97 -29 144 -29q84 0 151 23q6 -12 6 -31q0 -44 -24.5 -68.5t-67.5 -27.5q-40 -4 -80 -4q43 -77 43 -160q0 -149 -96 -233t-233 -84q-57 0 -88 8q-52 -42 -52 -64q0 -64 117 -69q238 -11 252 -12q120 -11 176.5 -75.5t56.5 -158.5q0 -108 -68 -192
t-172 -126t-222 -42q-181 0 -280 77t-99 189q0 115 196 217q-60 23 -90.5 68t-32.5 90q0 15 15 22q27 17 63.5 46t57.5 54q-170 80 -170 269q0 145 97.5 238.5t246.5 93.5zM408 829q-77 0 -129 -63.5t-52 -165.5q0 -97 51 -161t134 -64q86 0 131 65.5t45 159.5
q0 96 -44 162.5t-136 66.5zM180 -158q0 -78 82 -126t191 -48q123 0 201.5 56.5t78.5 140.5q0 53 -37 91t-123 48q-109 14 -219 10q-27 0 -55 -14q-47 -24 -83 -68t-36 -90z" />
    <glyph glyph-name="h" unicode="h" horiz-adv-x="1011" 
d="M293 1260v-482q152 142 303 142q82 0 140 -31.5t89 -87t44.5 -118.5t13.5 -138v-283q0 -213 4 -258q-82 -16 -142 -16q-15 0 -20.5 7t-5.5 25q0 28 1 223t1 296q0 135 -55 195.5t-138 60.5q-127 0 -235 -119v-631q0 -26 -8 -36t-31 -13q-43 -8 -129 -8q6 105 6 377v772
q0 143 -8 229q79 27 141 27q11 0 16.5 -7t9 -36.5t3.5 -89.5z" />
    <glyph glyph-name="i" unicode="i" horiz-adv-x="423" 
d="M215 1315q41 0 65.5 -28.5t24.5 -69.5q0 -43 -26.5 -73t-69.5 -30q-41 0 -66.5 26.5t-25.5 71.5q0 49 30.5 76t67.5 27zM293 780v-731q0 -27 -9 -37.5t-32 -13.5q-28 -6 -127 -10q6 246 6 321v346q0 142 -8 232q23 8 69 14t72 6q11 0 16.5 -7t9 -35t3.5 -85z" />
    <glyph glyph-name="j" unicode="j" horiz-adv-x="423" 
d="M215 1315q41 0 65.5 -28.5t24.5 -69.5q0 -43 -26.5 -73t-69.5 -30q-41 0 -66.5 26.5t-25.5 71.5q0 49 30.5 76t67.5 27zM-68 -379v4q58 25 93 55.5t60.5 89t35.5 148t10 229.5v510q0 144 -8 230q23 8 69 14t72 6q11 0 16.5 -7t9 -35t3.5 -85v-641q0 -142 -16 -245
t-62 -181q-43 -71 -106.5 -114t-102.5 -43q-24 0 -44.5 18.5t-29.5 46.5z" />
    <glyph glyph-name="k" unicode="k" horiz-adv-x="894" 
d="M293 1260v-783q90 79 234 227t204 216q54 0 92 -13q18 -7 23 -14.5t-4 -24.5t-37 -47q-35 -37 -87 -87.5t-134 -129t-117 -112.5q74 -97 221 -267.5t207 -216.5v-4q-38 -20 -123 -20q-38 0 -65 14t-58 49q-76 76 -189.5 205.5t-166.5 204.5v-408q0 -30 -10 -41t-37 -14
q-58 -6 -121 -6q6 123 6 374v775q0 141 -8 227q21 11 69.5 20t71.5 9q11 0 16.5 -7t9 -36.5t3.5 -89.5z" />
    <glyph glyph-name="l" unicode="l" horiz-adv-x="423" 
d="M131 12v1127q0 145 -8 227q27 11 72.5 19t68.5 8q13 0 18.5 -7.5t8 -35.5t2.5 -90v-990q0 -154 8 -268q-25 -7 -73.5 -11.5t-69.5 -4.5q-27 0 -27 26z" />
    <glyph glyph-name="m" unicode="m" horiz-adv-x="1554" 
d="M301 668v-627q0 -26 -8.5 -34.5t-30.5 -10.5q-47 -8 -129 -8q6 105 6 379v352q0 101 -33 123v8q9 25 40.5 47.5t60.5 22.5q78 0 86 -154q150 154 299 154q175 0 239 -160q149 160 310 160q74 0 130 -28.5t88.5 -78.5t48 -112t15.5 -136v-311q0 -164 7 -250
q-104 -16 -144 -16q-24 0 -24 30v533q0 122 -49.5 183t-135.5 61q-69 0 -119.5 -33t-97.5 -86l2 -627q0 -31 -6.5 -40.5t-32.5 -12.5q-51 -8 -129 -8q6 105 6 379v188q0 240 -174 240q-66 0 -125.5 -38t-99.5 -89z" />
    <glyph glyph-name="n" unicode="n" horiz-adv-x="1011" 
d="M717 16l2 537q1 120 -50 181t-137 61q-131 0 -231 -131v-617q0 -31 -8 -39.5t-35 -11.5q-43 -8 -125 -8q6 105 6 379v348q0 102 -33 125v8q9 26 40 49t61 23q73 0 86 -152q148 152 295 152q295 0 295 -365v-299q0 -178 6 -252q-115 -16 -144 -16q-28 0 -28 28z" />
    <glyph glyph-name="o" unicode="o" horiz-adv-x="995" 
d="M512 920q106 0 189.5 -37t135 -101.5t77.5 -146.5t26 -176q0 -209 -124 -346.5t-327 -137.5q-108 0 -192.5 38t-135.5 103t-77.5 146.5t-26.5 173.5q0 207 127 345.5t328 138.5zM492 821q-112 0 -187.5 -96.5t-75.5 -263.5q0 -185 80 -286t201 -101q48 0 91.5 21
t81.5 62.5t60.5 115t22.5 169.5q0 166 -71.5 272.5t-202.5 106.5z" />
    <glyph glyph-name="p" unicode="p" horiz-adv-x="1021" 
d="M301 29v-406q0 -27 -7 -37.5t-32 -13.5q-63 -8 -129 -8q6 82 6 358v807q0 90 -33 113v8q12 26 41.5 48t63.5 22q73 0 82 -142q93 74 167.5 108t147.5 34q67 0 129.5 -26.5t114.5 -77.5t83.5 -136t31.5 -193q0 -218 -137.5 -365t-346.5 -147q-45 0 -96 15.5t-86 38.5z
M301 686v-555q75 -47 180 -47q40 0 80 10.5t82.5 38.5t75 70t53.5 111t21 155q0 144 -73.5 231.5t-182.5 87.5q-117 0 -236 -102z" />
    <glyph glyph-name="q" unicode="q" horiz-adv-x="999" 
d="M780 885l90 10h7q-9 -283 -9 -489v-779q0 -30 -12 -40.5t-53 -14.5q-52 -8 -103 -8q7 140 7 352v141q-49 -33 -115.5 -57.5t-114.5 -24.5q-178 0 -299 119.5t-121 325.5q0 221 144 360.5t366 139.5q105 0 213 -35zM707 145v648q-62 28 -152 28q-59 0 -114.5 -22t-104 -65
t-78 -118t-29.5 -170q0 -147 85.5 -245.5t230.5 -98.5q40 0 89 12.5t73 30.5z" />
    <glyph glyph-name="r" unicode="r" horiz-adv-x="636" 
d="M92 838v6q3 22 36 49t62 27q49 0 74 -54.5t25 -152.5q46 101 110 154t133 53q36 0 64.5 -13t40.5 -30q0 -57 -43 -107q-20 -17 -51 -6q-27 10 -62 10q-40 0 -83.5 -34t-73.5 -105q-23 -61 -23 -113v-477q0 -25 -7.5 -35.5t-29.5 -13.5q-63 -8 -131 -8q6 105 6 379v342
q0 57 -10 86.5t-37 42.5z" />
    <glyph glyph-name="s" unicode="s" horiz-adv-x="665" 
d="M379 920q140 0 205 -68q5 -22 -11.5 -50.5t-42.5 -35.5q-77 41 -155 41q-65 0 -106.5 -34t-41.5 -93q0 -76 97 -129q26 -14 84.5 -42.5t91.5 -47.5q127 -75 127 -203q0 -92 -49 -158t-121.5 -95.5t-157.5 -29.5q-72 0 -129.5 19.5t-91.5 46.5q-25 17 -25 41q0 21 13 46
t30 34q99 -72 215 -72q78 0 120 36.5t42 92.5q0 42 -23 73t-79 58q-10 5 -63.5 31.5t-82.5 42.5q-147 83 -147 227q0 119 89 194t212 75z" />
    <glyph glyph-name="t" unicode="t" horiz-adv-x="659" 
d="M612 139l4 -2q10 -27 5.5 -55t-31.5 -49q-30 -26 -85 -42t-108 -16q-126 0 -186.5 72.5t-60.5 196.5v540q-46 0 -71.5 11t-25.5 26q15 39 172 185q37 37 97 49q-9 -149 -9 -160h324q-7 -35 -17.5 -56.5t-26 -30.5t-25.5 -11.5t-29 -3.5q-84 -7 -228 -7q-14 -363 -2 -532
q12 -156 152 -156q94 0 151 41z" />
    <glyph glyph-name="u" unicode="u" horiz-adv-x="1005" 
d="M131 309v346q0 146 -8 232q55 20 141 20q11 0 16 -7t8 -34.5t3 -85.5q2 -135 2 -426q0 -65 13 -112.5t32.5 -73t48 -41t53 -19.5t54.5 -4q66 0 122.5 33t83.5 74v616q0 36 6.5 49t26.5 19q102 12 135 12q0 -6 -3 -133t-3 -233v-340q0 -75 17 -101t65 -32v-7
q-5 -30 -32.5 -58t-57.5 -28q-124 0 -137 146q-55 -63 -170 -117q-66 -29 -125 -29q-148 0 -219.5 89t-71.5 245z" />
    <glyph glyph-name="v" unicode="v" horiz-adv-x="854" 
d="M160 920q26 0 43 -43q168 -456 243 -693q236 614 279 736q43 -3 88 -25q25 -12 23.5 -37.5t-29.5 -91.5q-39 -97 -136 -335t-151 -372q-13 -30 -24 -44.5t-29 -20.5q-49 -16 -100 -19q-17 51 -44.5 124.5t-78.5 207t-101 268.5q-61 163 -118 299q23 16 66.5 31t68.5 15z
" />
    <glyph glyph-name="w" unicode="w" horiz-adv-x="1316" 
d="M162 920q25 0 37 -37q108 -330 215 -695q49 156 114.5 354t87.5 267q-1 9 -7 29.5t-7 25.5q19 10 56 20.5t59 10.5q16 0 26 -18t21 -62q12 -40 182 -614q160 466 240 719q55 0 100 -25q30 -20 -8 -117q-70 -198 -264 -719q-11 -32 -21.5 -46t-31.5 -21q-52 -14 -95 -17
q-24 86 -194 668q-17 -56 -57.5 -176t-85.5 -252.5t-56 -165.5q-17 -44 -45 -55q-50 -16 -96 -19q-92 297 -185 566q-81 232 -120 333q25 17 67.5 31.5t67.5 14.5z" />
    <glyph glyph-name="x" unicode="x" horiz-adv-x="845" 
d="M39 881v4q19 10 66.5 22.5t74.5 12.5q19 0 60 -56q17 -24 85.5 -126t110.5 -160q143 200 211 299q17 24 26.5 33.5t22.5 9.5q49 0 105 -27v-4q-42 -55 -88 -118.5t-115.5 -162.5t-89.5 -127q142 -213 328 -473v-2q-56 -18 -144 -18q-33 0 -49 26q-11 17 -98 142.5
t-137 199.5q-25 -38 -100.5 -143t-139.5 -199q-16 -26 -45 -26q-57 0 -107 16v4q35 50 147 204t173 241q-14 21 -93.5 137t-131.5 190.5t-72 100.5z" />
    <glyph glyph-name="y" unicode="y" horiz-adv-x="837" 
d="M90 -391v4q59 67 138.5 183.5t142.5 236.5q-8 9 -23 41.5t-24 58.5q-222 587 -297 741q29 18 69 32t64 14q28 0 45 -35q17 -36 65 -166.5t110 -305t77 -216.5q60 132 137.5 363t105.5 360q46 0 93 -19q34 -13 18 -74q-28 -114 -88.5 -294t-144.5 -365
q-72 -160 -156 -304.5t-143.5 -222t-79.5 -77.5q-32 0 -62.5 13.5t-46.5 31.5z" />
    <glyph glyph-name="z" unicode="z" horiz-adv-x="763" 
d="M43 12l-18 31q69 93 245 360t238 383h-336q-72 0 -99 10.5t-22 34.5q5 21 22.5 46t28.5 32q16 -10 48 -12t133 -2h422q-3 -52 -31 -121q-49 -104 -414 -665q101 -8 276 -7.5t222 7.5q-14 -68 -49 -91q-21 -15 -73 -19.5t-183 -4.5q-324 0 -410 18z" />
    <glyph glyph-name="braceleft" unicode="{" horiz-adv-x="610" 
d="M524 -291q0 -17 -6 -40t-12 -31q-133 3 -210 75.5t-77 210.5q0 56 20.5 201.5t20.5 204.5q0 91 -34 134t-122 50q-12 1 -19.5 26.5t-4.5 51.5q107 20 143.5 65.5t36.5 120.5q0 50 -17.5 175t-17.5 177q0 163 111 242q36 27 84 43.5t92 18.5q12 -18 12 -66q0 -22 -28 -33
q-77 -31 -110.5 -78t-33.5 -127q0 -48 19.5 -162t19.5 -173q0 -91 -35 -144.5t-102 -83.5q46 -19 75 -46t41.5 -62.5t16.5 -67t4 -78.5q0 -77 -21.5 -205t-21.5 -180q0 -72 33.5 -120t114.5 -72q28 -7 28 -27z" />
    <glyph glyph-name="bar" unicode="|" horiz-adv-x="542" 
d="M338 1536v-2048h-133v2048h133z" />
    <glyph glyph-name="braceright" unicode="}" horiz-adv-x="610" 
d="M86 1360q0 18 6 41.5t12 32.5q132 -3 208.5 -76t76.5 -211q0 -59 -20.5 -196.5t-20.5 -180.5q0 -88 34.5 -130.5t123.5 -49.5q11 -2 19 -27t5 -51q-108 -20 -145 -65.5t-37 -120.5q0 -48 17.5 -187t17.5 -198q0 -164 -107 -240q-78 -59 -178 -63q-12 18 -12 65
q0 19 25 31q78 31 111.5 78.5t33.5 128.5q0 46 -18.5 168t-18.5 188q0 97 36 153t101 87q-44 19 -72.5 46t-42 61t-18 66.5t-4.5 75.5q0 61 20.5 182.5t20.5 180.5q0 72 -32.5 117t-114.5 69q-27 8 -27 25z" />
    <glyph glyph-name="asciitilde" unicode="~" horiz-adv-x="1120" 
d="M371 711q63 0 114 -28t113 -93q37 -38 51.5 -52t41 -36.5t47 -30.5t42.5 -8q54 0 82 43t39 166q2 30 25 30q24 0 46.5 -9.5t33.5 -22.5q-7 -328 -232 -328q-65 0 -121 38t-129 116q-91 96 -155 96q-52 0 -86 -46t-52 -163q-5 -37 -43 -37q-12 0 -38 7.5t-33 13.5
q8 90 31 157t49.5 101.5t62 55t60 25.5t51.5 5z" />
    <glyph glyph-name="exclamdown" unicode="&#xa1;" horiz-adv-x="358" 
d="M174 705q-41 0 -66.5 31.5t-25.5 72.5q0 50 28.5 80.5t75.5 30.5q38 0 68.5 -28.5t30.5 -78.5q0 -48 -29.5 -78t-81.5 -30zM117 -346q-19 0 -27 11t-8 42q0 64 19.5 362.5t25.5 360.5q2 38 29 53q59 23 67 23q37 -620 41 -803q-4 -14 -58 -31.5t-89 -17.5z" />
    <glyph glyph-name="cent" unicode="&#xa2;" horiz-adv-x="917" 
d="M623 1184l-19 -150q130 -12 191 -67q2 -24 -14 -48t-44 -36q-74 43 -164 43q-62 0 -111.5 -20.5t-79.5 -51.5t-50.5 -72t-28.5 -79.5t-8 -75.5q0 -80 25 -140.5t67 -95.5t92 -52t105 -17q109 0 200 40q-8 -92 -63 -120q-73 -35 -170 -35l-16 -127q-3 -28 -14 -40t-40 -15
l-75 -7l24 199q-33 7 -67 20t-79.5 43t-79 70t-57.5 106.5t-24 147.5q0 88 26 159.5t64 116t90 78t95 48.5t87 24l11 100q5 26 21 37t65 15z" />
    <glyph glyph-name="sterling" unicode="&#xa3;" horiz-adv-x="917" 
d="M51 27v18q64 60 102.5 158.5t49 181t10.5 170.5q-93 0 -117 27q10 32 37 49t84 33q12 300 104 434.5t279 134.5q100 0 174 -59q2 -21 -13.5 -50.5t-39.5 -36.5q-60 33 -117 33q-53 0 -91 -20.5t-62 -56t-38.5 -95t-20.5 -125t-9 -159.5q334 0 369 6q-10 -59 -36 -85
t-57 -28q-13 -2 -282 -2q-3 -157 -40 -264t-110 -180q60 -26 176.5 -46t202.5 -22q162 0 246 31l6 -6q-12 -67 -63 -111q-61 -37 -203 -37q-225 0 -541 107z" />
    <glyph glyph-name="currency" unicode="&#xa4;" horiz-adv-x="917" 
d="M455 975q57 2 112 -14.5t90 -45.5q69 76 115 136q55 -39 55 -80q0 -6 -2.5 -13t-8.5 -16.5t-11.5 -17.5t-16 -21t-17.5 -21l-21 -24l-21 -24q64 -89 64 -211q0 -70 -25 -141t-66 -113q21 -24 55 -61t50 -56t22 -31q-6 -27 -28 -52.5t-37 -25.5q-5 0 -13.5 6.5t-23.5 22.5
t-28.5 31t-39.5 44t-45 50q-85 -59 -200 -59q-99 0 -164 36q-72 -92 -80 -102q-24 -25 -40 -32.5t-34 -0.5q-42 22 -49 56q42 48 111 137q-99 99 -99 268q0 128 97 244q-10 11 -34 37.5t-42 48.5q-29 36 -12 69q30 55 61 45q12 -12 54 -58.5t65 -70.5q34 25 93 42.5
t114 17.5zM424 885q-105 0 -168 -79t-63 -196q0 -127 63.5 -203.5t171.5 -76.5q112 0 170.5 77.5t58.5 206.5q0 124 -64 197.5t-169 73.5z" />
    <glyph glyph-name="yen" unicode="&#xa5;" horiz-adv-x="917" 
d="M539 672h268q-2 -32 -22 -64.5t-46 -32.5h-221v-163h260q0 -35 -22 -66t-45 -31h-193v-315q-54 -14 -127 -14q-18 0 -26.5 7t-8.5 30v292h-274q0 24 7.5 57.5t14.5 39.5h252v163h-284q0 23 8 57t16 40h238q-29 46 -102 166.5t-133.5 218.5t-80.5 127v8q82 20 150 20
q23 0 33 -20q14 -23 113.5 -200t146.5 -257q36 62 98.5 173t108.5 190.5t67 111.5q52 3 101 -8q34 -8 18 -31q-307 -487 -315 -499z" />
    <glyph glyph-name="brokenbar" unicode="&#xa6;" horiz-adv-x="542" 
d="M338 1382v-716h-133v716h133zM338 358v-716h-133v716h133z" />
    <glyph glyph-name="section" unicode="&#xa7;" horiz-adv-x="843" 
d="M72 768q0 116 63 214t154 163q77 112 219 112q36 0 75 -11.5t64 -33.5q7 -13 -3.5 -36.5t-27.5 -34.5q-52 30 -112 30q-66 0 -102.5 -35t-36.5 -98q0 -28 11.5 -58t35.5 -61.5t42.5 -53.5t50.5 -55t42 -44q102 -110 133 -154q84 -118 84 -264q0 -212 -195 -403
q-32 -64 -103 -98.5t-147 -34.5q-41 0 -76.5 8.5t-49.5 19.5q-16 12 -25 38t-2 54q62 -32 156 -32q73 0 118 40.5t45 104.5q0 32 -12 65t-39.5 71t-46 61t-58 65t-48.5 53q-51 57 -82.5 96t-64 91.5t-47.5 106.5t-15 114zM664 293q0 100 -44 179.5t-128 168.5q-9 10 -45 49
t-48.5 54t-41.5 49.5t-41.5 56t-29 53t-24 60.5t-8.5 59q-75 -99 -78 -213q0 -154 178 -344q59 -61 89 -94.5t71 -87.5t60.5 -103.5t21.5 -99.5q31 50 49.5 108t18.5 105z" />
    <glyph glyph-name="dieresis" unicode="&#xa8;" horiz-adv-x="819" 
d="M254 1274q37 0 61.5 -27t24.5 -65q0 -44 -25.5 -70.5t-66.5 -26.5q-37 0 -63.5 24.5t-26.5 68.5q0 41 26 68.5t70 27.5zM575 1274q38 0 62.5 -26.5t24.5 -65.5q0 -44 -26 -70.5t-69 -26.5q-34 0 -60 24.5t-26 68.5q0 42 24.5 69t69.5 27z" />
    <glyph glyph-name="copyright" unicode="&#xa9;" horiz-adv-x="1376" 
d="M692 1290q178 0 319.5 -86.5t217.5 -233t76 -323.5q0 -141 -48 -262t-130.5 -204t-195 -130t-239.5 -47q-173 0 -314 79.5t-223.5 227.5t-82.5 336t82.5 335.5t223.5 227.5t314 80zM694 1210q-150 0 -269 -75.5t-183 -203.5t-64 -284q0 -114 38 -217t105 -179.5
t164.5 -121.5t210.5 -45q147 0 262.5 75.5t177.5 204t62 285.5q0 150 -59 276.5t-176 205.5t-269 79zM928 432l4 -4q-3 -54 -39 -82q-55 -35 -162 -35q-158 0 -254 92t-96 242t102.5 245t261.5 95q66 0 123.5 -18.5t73.5 -36.5q0 -33 -16 -49q-18 -21 -45 -9q-84 27 -148 27
q-41 0 -81 -15t-75 -43.5t-56 -77t-21 -108.5q0 -116 70.5 -185t197.5 -69q76 0 160 31z" />
    <glyph glyph-name="ordfeminine" unicode="&#xaa;" horiz-adv-x="628" 
d="M600 662v-7q0 -47 -27 -69.5t-69 -22.5q-85 0 -111 74q-64 -71 -168 -74q-76 -1 -123 42t-47 112q0 35 13.5 64t38.5 49.5t50 35t60 25.5t54.5 16t47.5 11q53 10 70 12v31q0 55 -27.5 84.5t-80.5 29.5q-66 0 -140 -57q-21 -13 -40 -7t-25 33l-6 25q32 36 102.5 69
t136.5 33q105 0 156 -57.5t51 -152.5q0 -29 -1 -127t-1 -127q3 -23 17.5 -37.5t29.5 -14.5t39 7zM186 737q0 -34 25.5 -57t60.5 -23q36 0 64.5 16t40.5 42q10 23 10 51v92q-49 -6 -90.5 -17.5t-76 -39t-34.5 -64.5z" />
    <glyph glyph-name="guillemotleft" unicode="&#xab;" horiz-adv-x="1095" 
d="M782 137q0 -25 -19 -47.5t-42 -30.5q-121 213 -270 375q-17 24 -17 49q159 159 305 389q51 -36 54 -86q0 -46 -205 -321q41 -52 117.5 -174.5t76.5 -153.5zM434 770q0 -45 -186 -305q172 -251 172 -311q1 -24 -16 -45.5t-37 -26.5q-118 205 -261 354q-12 21 -12 47
q160 154 289 363q17 -9 34 -31.5t17 -44.5z" />
    <glyph glyph-name="logicalnot" unicode="&#xac;" horiz-adv-x="1120" 
d="M879 178v451h-756q2 55 15.5 80.5t47.5 25.5h791l20 -20v-477q0 -12 -4 -22t-9.5 -16t-15.5 -10.5t-17 -7t-20.5 -3.5t-19 -1h-18.5h-14z" />
    <glyph glyph-name="uni00AD" unicode="&#xad;" horiz-adv-x="583" 
d="M520 582q-10 -63 -33.5 -99t-74.5 -49q-57 -19 -175 -38.5t-174 -18.5l-2 4q10 54 30 92t38 41q215 27 391 68z" />
    <glyph glyph-name="registered" unicode="&#xae;" horiz-adv-x="598" 
d="M297 1311q109 0 176.5 -69t67.5 -175q0 -105 -67.5 -174.5t-176.5 -69.5q-108 0 -175 69.5t-67 174.5q0 106 67 175t175 69zM297 1264q-81 0 -132.5 -55.5t-51.5 -139.5q0 -89 52 -145t134 -56q80 0 132 55.5t52 145.5q0 84 -52 139.5t-134 55.5zM264 1038v-71
q0 -21 -18 -23q-25 0 -37 -2v246q46 8 82 8q104 0 104 -76q0 -40 -53 -61q4 -6 19 -31.5t30 -48t25 -31.5v-4q-20 -4 -37 -4q-21 0 -35 18q-25 35 -39 62q-6 12 -13.5 15t-27.5 3zM264 1157v-84q31 0 45 4q29 10 29 41q0 18 -12 29.5t-33 11.5q-23 0 -29 -2z" />
    <glyph glyph-name="macron" unicode="&#xaf;" horiz-adv-x="819" 
d="M584 1114h-357q-24 0 -24 23q0 20 10.5 52.5t17.5 39.5h365q22 0 22 -19q0 -20 -11.5 -52t-22.5 -44z" />
    <glyph glyph-name="degree" unicode="&#xb0;" horiz-adv-x="548" 
d="M274 1233q97 0 156 -63.5t59 -155.5q0 -98 -62 -158.5t-165 -60.5q-78 0 -141.5 57.5t-63.5 157.5q0 96 61.5 159.5t155.5 63.5zM274 1143q-51 0 -79.5 -37t-28.5 -92q0 -60 32.5 -94.5t77.5 -34.5q107 3 107 127q0 51 -28.5 91t-80.5 40z" />
    <glyph glyph-name="plusminus" unicode="&#xb1;" horiz-adv-x="1120" 
d="M500 600h-375q2 53 15.5 80t45.5 27h314v215q0 76 -6 129l88 10q25 3 32 -12.5t7 -55.5v-286h374q-2 -53 -14.5 -80t-46.5 -27h-313v-332q0 -52 -70 -57l-51 -4v393zM936 0h-809q2 54 15 80t44 26h811q-2 -52 -14.5 -79t-46.5 -27z" />
    <glyph glyph-name="twosuperior" unicode="&#xb2;" 
d="M55 1358h-4q-3 52 21 92q34 39 87 62.5t115 23.5q99 0 157 -55t58 -150q0 -24 -5 -47.5t-17.5 -47t-23.5 -42.5t-33 -42.5t-35 -38t-41 -38.5t-39.5 -33.5t-41 -33.5t-36.5 -29q146 -6 320 4q-11 -61 -60 -94q-50 -15 -170 -15q-205 0 -264 13l-4 8q27 53 35 70
q51 42 81.5 68t71.5 66.5t63.5 71t39 68.5t16.5 72q0 57 -32.5 89t-86.5 32q-44 0 -90.5 -19.5t-81.5 -54.5z" />
    <glyph glyph-name="threesuperior" unicode="&#xb3;" 
d="M154 1149l-9 6q2 5 8.5 20t13.5 28t13 22q80 15 122 43t42 84q0 41 -31 66.5t-73 25.5q-30 0 -72 -18.5t-68 -43.5q-20 20 -20 45q0 18 18 39q27 25 76.5 47.5t104.5 22.5q90 0 138 -46.5t48 -111.5q0 -58 -27.5 -92t-79.5 -61q150 -32 150 -172q0 -101 -88 -164.5
t-207 -63.5q-88 0 -119 27q-28 28 -28 72l2 4q55 -19 120 -19q89 0 137 37.5t48 93.5q0 117 -135 117q-43 0 -84 -8z" />
    <glyph glyph-name="acute" unicode="&#xb4;" horiz-adv-x="819" 
d="M508 1368q25 0 53.5 -13.5t46.5 -31.5q17 -14 -4 -37q-76 -83 -205 -264q-30 9 -49 31q-13 13 2 53q37 83 86.5 172.5t69.5 89.5z" />
    <glyph glyph-name="mu" unicode="&#xb5;" horiz-adv-x="1007" 
d="M266 72l13 -523q-25 -2 -74 2q-61 6 -75.5 23t-12.5 72l18 653v352q0 171 -8 234q25 9 70 15.5t73 6.5q10 0 15 -7t8.5 -36t3.5 -88v-434q0 -231 186 -231q69 0 127.5 37.5t87.5 89.5v583q0 39 6 52.5t25 19.5q114 13 137 14q0 -10 -3 -138t-3 -232v-328q0 -72 25.5 -102
t77.5 -37v-4q-4 -32 -31 -61.5t-72 -29.5q-59 0 -96.5 38.5t-46.5 103.5q-67 -69 -130.5 -105t-142.5 -35q-123 4 -178 95z" />
    <glyph glyph-name="paragraph" unicode="&#xb6;" horiz-adv-x="972" 
d="M610 432l-123 -37q-33 -8 -61 -8q-135 0 -231.5 104.5t-96.5 256.5q0 187 119 299t303 112h189h200l2 -6l-51 -80l-125 -10v-623q0 -256 -24 -364t-95 -176q-84 -84 -229 -84q-83 0 -148 35.5t-69 66.5q-5 15 5 42.5t18 35.5q93 -80 198 -80q55 0 94 19.5t63.5 53t38 90
t18.5 119.5t5 152v82z" />
    <glyph glyph-name="periodcentered" unicode="&#xb7;" horiz-adv-x="315" 
d="M164 596q45 0 70.5 -32t25.5 -75q0 -51 -28.5 -81.5t-75.5 -30.5q-38 0 -68.5 27t-30.5 77t28 82.5t79 32.5z" />
    <glyph glyph-name="cedilla" unicode="&#xb8;" horiz-adv-x="819" 
d="M406 8h106l-76 -108q60 -17 92.5 -56t32.5 -90q0 -53 -38 -96t-91 -66.5t-110 -29.5q-19 4 -32.5 21t-13.5 32t19 20q141 31 141 105q0 37 -45 56.5t-106 17.5v22z" />
    <glyph glyph-name="onesuperior" unicode="&#xb9;" 
d="M399 1536l9 -4q0 -10 -1.5 -130.5t-3 -264.5t-0.5 -228q0 -19 -8.5 -26.5t-34.5 -8.5l-88 -8q2 27 7 529q-29 -9 -88.5 -20t-84.5 -13l-4 8l29 72q63 15 148 45t120 49z" />
    <glyph glyph-name="ordmasculine" unicode="&#xba;" horiz-adv-x="698" 
d="M356 1171q143 0 222 -84t79 -215q0 -138 -86.5 -223.5t-226.5 -85.5q-73 0 -132.5 25.5t-95.5 68t-55.5 94t-19.5 107.5q0 139 89.5 226t225.5 87zM346 1081q-69 0 -115.5 -57.5t-46.5 -155.5q0 -104 50.5 -159.5t115.5 -55.5q71 0 117.5 56.5t46.5 164.5q0 89 -43.5 148
t-124.5 59z" />
    <glyph glyph-name="guillemotright" unicode="&#xbb;" horiz-adv-x="1091" 
d="M313 795q0 24 19.5 46.5t42.5 30.5q117 -212 272 -376q17 -27 17 -52q-167 -167 -308 -389q-18 11 -35 35t-18 49q0 25 47.5 101t86.5 129t71 94q-41 53 -118 176.5t-77 155.5zM653 156q0 51 191 307q-2 3 -20.5 30.5t-30 45.5t-32 50t-34.5 56.5t-28 51t-21.5 47
t-7.5 32.5q-1 24 16 46.5t37 25.5q129 -219 262 -354q12 -24 12 -50q-158 -152 -290 -364q-17 10 -35.5 33.5t-18.5 42.5z" />
    <glyph glyph-name="onequarter" unicode="&#xbc;" horiz-adv-x="1269" 
d="M1038 1206q-215 -366 -766 -1253q-11 -22 -21 -24t-20 10q-31 21 -38 57q359 572 770 1261q10 14 17 13t21 -15q30 -20 37 -49zM379 1233l10 -4q0 -9 -1.5 -130t-2.5 -265t0 -228q0 -19 -8.5 -26.5t-34.5 -8.5l-90 -8q6 43 6 529q-30 -9 -88 -20.5t-84 -12.5l-2 8l29 72
q64 15 148.5 45t117.5 49zM1100 690l2 -4q-193 -196 -350 -438q65 -8 192 -8l4 145q12 11 51.5 24.5t63.5 14.5h6v-182q52 0 96 8l2 -4q-5 -16 -19.5 -41t-25.5 -35q-7 -3 -53 -12v-152l-54 -9t-46 -7.5t-25 -3.5l-4 4q4 86 4 166q-210 0 -280 12q-8 5 -21.5 26.5
t-13.5 28.5q53 90 154.5 222t154.5 182q17 17 74 38.5t88 24.5z" />
    <glyph glyph-name="onehalf" unicode="&#xbd;" horiz-adv-x="1269" 
d="M999 1206q-215 -366 -766 -1253q-13 -22 -21.5 -24t-18.5 10q-34 24 -41 57q359 572 770 1261q10 14 17.5 13t23.5 -15q27 -20 36 -49zM371 1233l10 -4q0 -9 -1.5 -130t-2.5 -265t0 -228q0 -19 -8.5 -26.5t-34.5 -8.5l-90 -8q6 43 6 529q-30 -9 -88 -20.5t-84 -12.5l-4 8
l30 72q62 15 147.5 45t119.5 49zM725 477h-4q-3 54 20 92q34 38 88 62t115 24q99 0 157 -54.5t58 -149.5q0 -24 -5 -47.5t-18 -47t-23.5 -42.5t-33 -43.5t-34.5 -38t-41 -38.5t-39 -33t-41.5 -33.5t-36.5 -29.5q147 -7 319 4q-11 -62 -59 -94q-46 -14 -168 -14
q-210 0 -266 12l-4 8q21 41 34 70q64 52 102.5 86.5t83 81.5t66 91t21.5 87q0 57 -32.5 89t-86.5 32q-44 0 -90.5 -19.5t-81.5 -54.5z" />
    <glyph glyph-name="threequarters" unicode="&#xbe;" horiz-adv-x="1269" 
d="M1077 1206q-215 -366 -766 -1253q-13 -22 -22 -24t-19 10q-34 24 -41 57q399 636 770 1261q10 14 17.5 13t23.5 -15q28 -21 37 -49zM182 846l-8 6q2 5 8.5 20t13.5 28t13 22q80 15 122 43t42 84q0 41 -31.5 66.5t-73.5 25.5q-30 0 -71 -18.5t-68 -43.5q-20 20 -20 45
q0 18 18 39q27 25 76 47.5t104 22.5q90 0 138.5 -46.5t48.5 -111.5q0 -58 -27.5 -92t-79.5 -61q150 -32 150 -172q0 -101 -88 -164.5t-207 -63.5q-88 0 -119 27q-31 31 -31 72l2 4q59 -19 121 -19q91 0 138.5 37.5t47.5 93.5q0 117 -135 117q-43 0 -84 -8zM1114 690l2 -4
q-193 -196 -350 -438q65 -8 192 -8l5 145q12 11 51 24.5t63 14.5h6v-182q53 0 97 8l2 -4q-5 -16 -19.5 -41t-25.5 -35q-6 -2 -54 -12v-152l-54 -9t-46 -7.5t-25 -3.5l-4 4q4 86 4 166q-210 0 -280 12q-8 5 -21.5 26.5t-13.5 28.5q53 90 154.5 222t154.5 182q17 17 74 38.5
t88 24.5z" />
    <glyph glyph-name="questiondown" unicode="&#xbf;" horiz-adv-x="651" 
d="M336 705q-41 0 -67.5 32.5t-26.5 71.5q0 49 30 80t76 31q38 0 68 -28.5t30 -78.5q0 -48 -29.5 -78t-80.5 -30zM330 -346q-118 0 -187 71.5t-69 176.5q0 70 34.5 136.5t102.5 149.5q106 133 106 218q0 54 -22 100q16 22 61 22q35 0 65 -36.5t30 -102.5q0 -58 -22 -112.5
t-71 -126.5l-18 -24t-20.5 -27.5t-19 -27t-19.5 -30t-15.5 -29t-14 -32t-8 -30.5t-3.5 -32q0 -59 35 -95t94 -36q98 0 182 66h4q22 -15 30 -45t-5 -54q-106 -100 -250 -100z" />
    <glyph glyph-name="Agrave" unicode="&#xc0;" horiz-adv-x="1249" 
d="M862 422h-514q-124 -293 -180 -412q-9 -22 -41 -22q-50 0 -100 24l-2 6q77 168 267.5 603t256.5 589l-23 56q82 20 125 20q33 0 47 -35q49 -112 183.5 -433t173.5 -410q27 -62 68.5 -160.5t63 -148t38.5 -81.5l-2 -8q-54 -22 -144 -22q-19 0 -31.5 13t-27.5 50
q-79 195 -158 371zM389 530h436q-145 369 -217 531q-84 -197 -219 -531zM463 1620q26 0 118 -58.5t148 -107.5q23 -20 6 -49q-5 -8 -10.5 -14.5l-11 -13t-8.5 -9.5q-183 94 -316 139q-20 8 -12 27q11 31 37.5 58.5t48.5 27.5z" />
    <glyph glyph-name="Aacute" unicode="&#xc1;" horiz-adv-x="1249" 
d="M862 422h-514q-124 -293 -180 -412q-9 -22 -41 -22q-50 0 -100 24l-2 6q77 168 267.5 603t256.5 589l-23 56q82 20 125 20q33 0 47 -35q49 -112 183.5 -433t173.5 -410q27 -62 68.5 -160.5t63 -148t38.5 -81.5l-2 -8q-54 -22 -144 -22q-19 0 -31.5 13t-27.5 50
q-79 195 -158 371zM389 530h436q-145 369 -217 531q-84 -197 -219 -531zM834 1597q24 -7 45 -36.5t28 -55.5q7 -25 -26 -35q-53 -16 -112 -36t-134 -47.5t-84 -30.5q-20 20 -27 39q-14 28 13 47q62 46 161.5 100t135.5 55z" />
    <glyph glyph-name="Acircumflex" unicode="&#xc2;" horiz-adv-x="1249" 
d="M862 422h-514q-124 -293 -180 -412q-9 -22 -41 -22q-50 0 -100 24l-2 6q77 168 267.5 603t256.5 589l-23 56q82 20 125 20q33 0 47 -35q49 -112 183.5 -433t173.5 -410q27 -62 68.5 -160.5t63 -148t38.5 -81.5l-2 -8q-54 -22 -144 -22q-19 0 -31.5 13t-27.5 50
q-79 195 -158 371zM389 530h436q-145 369 -217 531q-84 -197 -219 -531zM471 1356q-21 0 -45 14.5t-35 30.5q106 78 193 184q16 17 30 21q18 6 52 6q110 -123 219 -207q-9 -17 -33 -33t-43 -16q-23 0 -43 10q-24 17 -131 113q-54 -57 -127 -111q-30 -12 -37 -12z" />
    <glyph glyph-name="Atilde" unicode="&#xc3;" horiz-adv-x="1249" 
d="M862 422h-514q-124 -293 -180 -412q-9 -22 -41 -22q-50 0 -100 24l-2 6q77 168 267.5 603t256.5 589l-23 56q82 20 125 20q33 0 47 -35q49 -112 183.5 -433t173.5 -410q27 -62 68.5 -160.5t63 -148t38.5 -81.5l-2 -8q-54 -22 -144 -22q-19 0 -31.5 13t-27.5 50
q-79 195 -158 371zM389 530h436q-145 369 -217 531q-84 -197 -219 -531zM551 1602q62 0 113 -68q36 -49 55 -49q31 0 47 96q6 21 20 21q12 0 33.5 -8.5t36.5 -20.5q-22 -205 -139 -205q-22 0 -44 13t-32.5 24t-38.5 41q-15 18 -22 25t-16 12.5t-19 5.5q-30 0 -53 -92
q-4 -21 -17 -21q-36 0 -76 17q4 39 13.5 73.5t26.5 66.5t46 50.5t66 18.5z" />
    <glyph glyph-name="Adieresis" unicode="&#xc4;" horiz-adv-x="1249" 
d="M862 422h-514q-124 -293 -180 -412q-9 -22 -41 -22q-50 0 -100 24l-2 6q77 168 267.5 603t256.5 589l-23 56q82 20 125 20q33 0 47 -35q49 -112 183.5 -433t173.5 -410q27 -62 68.5 -160.5t63 -148t38.5 -81.5l-2 -8q-54 -22 -144 -22q-19 0 -31.5 13t-27.5 50
q-79 195 -158 371zM389 530h436q-145 369 -217 531q-84 -197 -219 -531zM461 1546q36 0 60 -26t24 -62q0 -45 -24.5 -70.5t-65.5 -25.5q-37 0 -62.5 23t-25.5 67q0 41 25.5 67.5t68.5 26.5zM803 1546q38 0 61 -25t23 -63q0 -45 -24 -70.5t-66 -25.5q-34 0 -60 23t-26 67
q0 41 24.5 67.5t67.5 26.5z" />
    <glyph glyph-name="Aring" unicode="&#xc5;" horiz-adv-x="1249" 
d="M862 422h-514q-124 -293 -180 -412q-9 -22 -41 -22q-50 0 -100 24l-2 6q77 168 267.5 603t256.5 589l-23 56q82 20 125 20q33 0 47 -35q49 -112 183.5 -433t173.5 -410q27 -62 68.5 -160.5t63 -148t38.5 -81.5l-2 -8q-54 -22 -144 -22q-19 0 -31.5 13t-27.5 50
q-79 195 -158 371zM389 530h436q-145 369 -217 531q-84 -197 -219 -531zM637 1696q72 0 120 -48.5t48 -119.5q0 -76 -50 -124t-130 -48q-68 0 -117 45t-49 119q0 75 48 125.5t130 50.5zM629 1614q-34 0 -54 -27.5t-20 -64.5q0 -39 22.5 -62.5t55.5 -23.5q37 1 56.5 26
t19.5 60q0 41 -20.5 66.5t-59.5 25.5z" />
    <glyph glyph-name="AE" unicode="&#xc6;" horiz-adv-x="1579" 
d="M819 524h-395q-234 -435 -281 -514q-18 -33 -41 -33q-8 0 -16 1t-13.5 2t-12.5 4t-11 4.5t-10.5 5.5t-9 5.5t-9 6.5t-8.5 6v11q64 113 324 589.5t323 589.5q18 35 23 58q4 1 50.5 9.5t80.5 10.5h657q-5 -57 -36 -84q-17 -20 -109 -20h-373l29 -549h463q-17 -64 -39 -85.5
t-68 -21.5h-352l27 -414q83 -14 266 -14q212 4 270 10l4 -4q-19 -73 -92 -100q-54 -8 -221 -8q-267 0 -369 20l-28 41zM815 627l-24 544q-29 0 -50 -43q-145 -265 -270 -501h344z" />
    <glyph glyph-name="Ccedilla" unicode="&#xc7;" horiz-adv-x="1167" 
d="M592 -164l94 135q-298 20 -458 198t-160 462q0 151 54 279t147.5 215.5t222.5 136.5t278 49q136 0 236 -33.5t131 -69.5q2 -28 -17.5 -56t-44.5 -32q-137 72 -311 72q-103 0 -194.5 -35.5t-162.5 -102.5t-113 -173t-42 -238q0 -120 36 -220.5t104 -173.5t173.5 -114
t237.5 -41q88 0 174.5 17.5t138.5 38.5q0 -27 -17 -63t-40 -54q-34 -23 -106.5 -41.5t-159.5 -22.5l-50 -69q60 -17 92.5 -56t32.5 -90q0 -53 -38 -96t-91 -66.5t-110 -29.5q-19 4 -32 21t-13 32t18 20q141 31 141 105q0 37 -45 56.5t-106 17.5v22z" />
    <glyph glyph-name="Egrave" unicode="&#xc8;" horiz-adv-x="882" 
d="M141 45v948q0 180 -4 258q73 24 142 29h520q-11 -72 -45 -96q-27 -13 -156 -13h-287v-456h471q-10 -67 -38 -88t-85 -21h-348v-491q58 -19 250 -19q200 0 295 10l4 -4q-23 -82 -90 -106q-54 -8 -246 -8q-268 0 -358 22zM313 1606q27 0 119.5 -58t145.5 -106q26 -20 8 -49
q-21 -27 -31 -37q-200 100 -317 139q-20 6 -11 27q11 30 37 57t49 27z" />
    <glyph glyph-name="Eacute" unicode="&#xc9;" horiz-adv-x="882" 
d="M141 45v948q0 180 -4 258q73 24 142 29h520q-11 -72 -45 -96q-27 -13 -156 -13h-287v-456h471q-10 -67 -38 -88t-85 -21h-348v-491q58 -19 250 -19q200 0 295 10l4 -4q-23 -82 -90 -106q-54 -8 -246 -8q-268 0 -358 22zM664 1597q24 -7 46 -37t27 -55q10 -24 -24 -35
q-85 -25 -330 -114q-19 19 -29 39q-14 27 15 47q61 46 161 100t134 55z" />
    <glyph glyph-name="Ecircumflex" unicode="&#xca;" horiz-adv-x="882" 
d="M141 45v948q0 180 -4 258q73 24 142 29h520q-11 -72 -45 -96q-27 -13 -156 -13h-287v-456h471q-10 -67 -38 -88t-85 -21h-348v-491q58 -19 250 -19q200 0 295 10l4 -4q-23 -82 -90 -106q-54 -8 -246 -8q-268 0 -358 22zM315 1374q-20 0 -44 14.5t-35 30.5q109 80 192 185
q14 14 31 20q27 8 51 8q100 -116 219 -209q-8 -15 -32.5 -32t-41.5 -17q-27 0 -45 12t-131 113q-62 -65 -127 -110q-25 -15 -37 -15z" />
    <glyph glyph-name="Edieresis" unicode="&#xcb;" horiz-adv-x="882" 
d="M141 45v948q0 180 -4 258q73 24 142 29h520q-11 -72 -45 -96q-27 -13 -156 -13h-287v-456h471q-10 -67 -38 -88t-85 -21h-348v-491q58 -19 250 -19q200 0 295 10l4 -4q-23 -82 -90 -106q-54 -8 -246 -8q-268 0 -358 22zM309 1559q36 0 60 -26.5t24 -62.5
q0 -45 -24.5 -70.5t-65.5 -25.5q-37 0 -62.5 23.5t-25.5 66.5q0 41 25.5 68t68.5 27zM651 1559q36 0 60 -26t24 -63q0 -45 -25 -70.5t-67 -25.5q-33 0 -58.5 23.5t-25.5 66.5q0 41 24.5 68t67.5 27z" />
    <glyph glyph-name="Igrave" unicode="&#xcc;" horiz-adv-x="452" 
d="M141 27v985q0 202 -6 258q72 16 146 16q20 0 25 -18t5 -86v-928q0 -127 6 -250q-46 -16 -143 -16q-18 0 -25.5 7.5t-7.5 31.5zM66 1606q25 0 117 -58t147 -106q14 -11 15 -21.5t-9 -27.5q-12 -18 -31 -37q-185 95 -315 139q-22 6 -10 27q11 30 37 57t49 27z" />
    <glyph glyph-name="Iacute" unicode="&#xcd;" horiz-adv-x="452" 
d="M141 27v985q0 202 -6 258q72 16 146 16q20 0 25 -18t5 -86v-928q0 -127 6 -250q-46 -16 -143 -16q-18 0 -25.5 7.5t-7.5 31.5zM408 1597q24 -7 45 -36.5t28 -55.5q7 -25 -26 -35q-80 -24 -328 -114q-16 14 -29 39q-14 28 13 47q64 46 163.5 100t133.5 55z" />
    <glyph glyph-name="Icircumflex" unicode="&#xce;" horiz-adv-x="452" 
d="M141 27v985q0 202 -6 258q72 16 146 16q20 0 25 -18t5 -86v-928q0 -127 6 -250q-46 -16 -143 -16q-18 0 -25.5 7.5t-7.5 31.5zM61 1356q-20 0 -44 14.5t-35 30.5q111 82 192 184q23 18 31 21q20 6 51 6q103 -116 219 -207q-7 -17 -32 -33t-44 -16q-23 0 -43 10
q-2 1 -131 113q-54 -57 -127 -111q-30 -12 -37 -12z" />
    <glyph glyph-name="Idieresis" unicode="&#xcf;" horiz-adv-x="452" 
d="M141 27v985q0 202 -6 258q72 16 146 16q20 0 25 -18t5 -86v-928q0 -127 6 -250q-46 -16 -143 -16q-18 0 -25.5 7.5t-7.5 31.5zM61 1546q35 0 58.5 -26t23.5 -62q0 -45 -24.5 -70.5t-65.5 -25.5q-36 0 -61 23t-25 67q0 41 25 67.5t69 26.5zM403 1546q36 0 60 -25.5
t24 -62.5q0 -45 -25 -70.5t-67 -25.5q-33 0 -58.5 23t-25.5 67q0 41 24 67.5t68 26.5z" />
    <glyph glyph-name="Eth" unicode="&#xd0;" horiz-adv-x="1331" 
d="M168 606h-178q7 64 32.5 86.5t65.5 22.5h80v297q0 180 -4 243q192 35 362 35q133 0 242 -21.5t184.5 -57.5t133 -88t91 -106t54.5 -119t28 -120.5t7 -115.5q0 -155 -50.5 -284t-173.5 -235q-77 -66 -180.5 -105t-175.5 -48.5t-143 -9.5q-114 0 -187.5 9.5t-187.5 35.5
v581zM338 1169v-454h371q-6 -37 -18 -60t-32 -33t-38.5 -13t-49.5 -3h-233v-497q92 -27 211 -27q83 0 158.5 19t144.5 62.5t119 108t80 161.5t30 216q0 247 -141.5 390t-425.5 143q-74 0 -176 -13z" />
    <glyph glyph-name="Ntilde" unicode="&#xd1;" horiz-adv-x="1323" 
d="M156 1192l-58 72v6q20 4 78 10t82 6t51 -35q30 -38 99.5 -133t191 -263t195.5 -269q12 -17 50 -70.5t52 -73t43 -62.5t44.5 -67t34.5 -55t32 -57q-9 195 -9 446v572q0 33 9.5 45t29.5 14q47 8 97 8q-7 -154 -7 -377v-905q-10 -8 -50 -19.5t-66 -11.5q-18 0 -31 13
q-69 94 -247 338t-265 362q-164 248 -238 373q11 -349 11 -471v-531q0 -34 -8.5 -45t-32.5 -16q-41 -8 -94 -8q6 123 6 372v832zM592 1577q60 0 113 -68q36 -49 55 -49q31 0 47 96q6 21 20 21q12 0 33.5 -8.5t36.5 -20.5q-22 -205 -139 -205q-7 0 -14 1t-12.5 2.5t-12 5.5
t-11 6t-11.5 8t-10 8.5t-11 10.5l-10.5 10.5l-11.5 11.5t-11 12q-21 26 -32 35.5t-25 9.5q-30 -3 -54 -92q-3 -20 -16 -20q-39 0 -76 16q4 40 13.5 74t26 66t45.5 50.5t67 18.5z" />
    <glyph glyph-name="Ograve" unicode="&#xd2;" horiz-adv-x="1427" 
d="M711 1311q121 0 226 -34.5t182 -96t131.5 -144t82 -181t27.5 -204.5q0 -108 -25.5 -208t-78 -186.5t-127 -150.5t-179.5 -100.5t-229 -36.5q-137 0 -249 40.5t-185.5 106.5t-124 152.5t-72.5 176t-22 180.5q0 195 76.5 350t224 245.5t342.5 90.5zM700 1206
q-202 0 -325 -149.5t-123 -415.5q0 -133 40.5 -242.5t108.5 -179.5t154 -107.5t180 -37.5q198 0 319.5 147t121.5 418q0 255 -136.5 411t-339.5 156zM590 1645q26 0 118 -58.5t148 -107.5q23 -20 6 -49q-12 -18 -31 -37q-185 95 -315 139q-20 8 -12 27q11 30 37.5 58
t48.5 28z" />
    <glyph glyph-name="Oacute" unicode="&#xd3;" horiz-adv-x="1427" 
d="M711 1311q121 0 226 -34.5t182 -96t131.5 -144t82 -181t27.5 -204.5q0 -108 -25.5 -208t-78 -186.5t-127 -150.5t-179.5 -100.5t-229 -36.5q-137 0 -249 40.5t-185.5 106.5t-124 152.5t-72.5 176t-22 180.5q0 195 76.5 350t224 245.5t342.5 90.5zM700 1206
q-202 0 -325 -149.5t-123 -415.5q0 -133 40.5 -242.5t108.5 -179.5t154 -107.5t180 -37.5q198 0 319.5 147t121.5 418q0 255 -136.5 411t-339.5 156zM887 1624q24 -7 46.5 -37.5t27.5 -56.5q10 -21 -25 -33q-42 -12 -94 -29.5t-86.5 -30t-85.5 -31.5t-64 -24q-14 11 -28 39
q-15 29 14 47q62 46 161.5 100.5t133.5 55.5z" />
    <glyph glyph-name="Ocircumflex" unicode="&#xd4;" horiz-adv-x="1427" 
d="M711 1311q121 0 226 -34.5t182 -96t131.5 -144t82 -181t27.5 -204.5q0 -108 -25.5 -208t-78 -186.5t-127 -150.5t-179.5 -100.5t-229 -36.5q-137 0 -249 40.5t-185.5 106.5t-124 152.5t-72.5 176t-22 180.5q0 195 76.5 350t224 245.5t342.5 90.5zM700 1206
q-202 0 -325 -149.5t-123 -415.5q0 -133 40.5 -242.5t108.5 -179.5t154 -107.5t180 -37.5q198 0 319.5 147t121.5 418q0 255 -136.5 411t-339.5 156zM551 1397q-22 0 -46.5 14.5t-35.5 30.5q111 82 195 184q17 17 30 21q18 6 51 6q91 -107 218 -207q-8 -17 -31.5 -33
t-42.5 -16q-26 0 -43 10q-18 12 -131 113q-53 -53 -127 -111q-4 -1 -11 -4.5t-13.5 -5.5t-12.5 -2z" />
    <glyph glyph-name="Otilde" unicode="&#xd5;" horiz-adv-x="1427" 
d="M711 1311q121 0 226 -34.5t182 -96t131.5 -144t82 -181t27.5 -204.5q0 -108 -25.5 -208t-78 -186.5t-127 -150.5t-179.5 -100.5t-229 -36.5q-137 0 -249 40.5t-185.5 106.5t-124 152.5t-72.5 176t-22 180.5q0 195 76.5 350t224 245.5t342.5 90.5zM700 1206
q-202 0 -325 -149.5t-123 -415.5q0 -133 40.5 -242.5t108.5 -179.5t154 -107.5t180 -37.5q198 0 319.5 147t121.5 418q0 255 -136.5 411t-339.5 156zM639 1640q61 0 111 -67q42 -49 55 -49q31 0 47 96q6 20 20 20q13 0 34.5 -8.5t35.5 -19.5q-22 -205 -139 -205
q-22 0 -43.5 12.5t-32.5 23.5t-37 40q-23 27 -34 36t-23 9q-32 -3 -55 -92q-4 -21 -17 -21q-36 0 -76 17q6 54 20.5 97.5t49 77t84.5 33.5z" />
    <glyph glyph-name="Odieresis" unicode="&#xd6;" horiz-adv-x="1427" 
d="M711 1311q121 0 226 -34.5t182 -96t131.5 -144t82 -181t27.5 -204.5q0 -108 -25.5 -208t-78 -186.5t-127 -150.5t-179.5 -100.5t-229 -36.5q-137 0 -249 40.5t-185.5 106.5t-124 152.5t-72.5 176t-22 180.5q0 195 76.5 350t224 245.5t342.5 90.5zM700 1206
q-202 0 -325 -149.5t-123 -415.5q0 -133 40.5 -242.5t108.5 -179.5t154 -107.5t180 -37.5q198 0 319.5 147t121.5 418q0 255 -136.5 411t-339.5 156zM549 1587q36 0 59 -26t23 -62q0 -45 -24 -70.5t-64 -25.5q-37 0 -62.5 23t-25.5 67q0 41 25 67.5t69 26.5zM891 1587
q36 0 60 -25.5t24 -62.5q0 -45 -25 -70.5t-67 -25.5q-33 0 -58.5 23t-25.5 67q0 41 24.5 67.5t67.5 26.5z" />
    <glyph glyph-name="multiply" unicode="&#xd7;" horiz-adv-x="1120" 
d="M969 836l-336 -347l305 -315q32 -29 8 -63q-28 -35 -67 -50l-330 349l-326 -349q-34 14 -57 58q-17 34 8 59l297 311l-305 314q-20 20 -4 53q25 42 61 55l330 -342l301 316q28 32 64 10q30 -16 51 -59z" />
    <glyph glyph-name="Oslash" unicode="&#xd8;" horiz-adv-x="1435" 
d="M1274 1292l-113 -147q103 -91 155 -223t52 -271q0 -108 -24 -206.5t-75.5 -185.5t-126.5 -151.5t-183 -101.5t-238 -37q-226 0 -377 109l-121 -160q-24 -34 -51 -4q-35 44 -41 63l131 168q-100 96 -147 225t-47 255q0 195 79.5 350.5t229 245.5t344.5 90q206 0 356 -103
l103 135q17 23 27.5 26t25.5 -11q31 -27 41 -66zM356 270l643 836q-127 100 -292 100q-94 0 -177.5 -39t-146.5 -110.5t-100 -181t-37 -240.5q0 -109 28.5 -204.5t81.5 -160.5zM1071 1028l-641 -840q58 -53 135.5 -83.5t159.5 -30.5q210 0 337.5 146t127.5 425
q0 245 -119 383z" />
    <glyph glyph-name="Ugrave" unicode="&#xd9;" horiz-adv-x="1312" 
d="M307 1178v-584q0 -125 23.5 -219t58.5 -147t86.5 -85.5t98.5 -42.5t102 -10q64 0 112.5 11t97.5 44t80.5 89.5t51.5 152.5t20 227v613q0 46 37 53q56 6 109 6q-6 -120 -6 -371v-297q0 -119 -18 -215.5t-47 -163t-72.5 -116.5t-88 -78.5t-99 -46.5t-101 -23.5t-99.5 -5.5
q-94 0 -169 18.5t-141.5 63t-110.5 115.5t-69.5 180t-25.5 252v410q0 200 -6 262q72 16 141 16q24 0 29.5 -17.5t5.5 -90.5zM518 1589q27 0 118.5 -57.5t147.5 -106.5q24 -21 7 -49q-12 -18 -31 -37q-188 97 -316 140q-21 5 -12 26q11 30 37.5 57t48.5 27z" />
    <glyph glyph-name="Uacute" unicode="&#xda;" horiz-adv-x="1312" 
d="M307 1178v-584q0 -125 23.5 -219t58.5 -147t86.5 -85.5t98.5 -42.5t102 -10q64 0 112.5 11t97.5 44t80.5 89.5t51.5 152.5t20 227v613q0 46 37 53q56 6 109 6q-6 -120 -6 -371v-297q0 -119 -18 -215.5t-47 -163t-72.5 -116.5t-88 -78.5t-99 -46.5t-101 -23.5t-99.5 -5.5
q-94 0 -169 18.5t-141.5 63t-110.5 115.5t-69.5 180t-25.5 252v410q0 200 -6 262q72 16 141 16q24 0 29.5 -17.5t5.5 -90.5zM815 1589q24 -6 46.5 -36.5t27.5 -55.5q9 -24 -25 -35q-145 -42 -329 -114q-20 20 -29 38q-15 30 14 48q61 46 161 100t134 55z" />
    <glyph glyph-name="Ucircumflex" unicode="&#xdb;" horiz-adv-x="1312" 
d="M307 1178v-584q0 -125 23.5 -219t58.5 -147t86.5 -85.5t98.5 -42.5t102 -10q64 0 112.5 11t97.5 44t80.5 89.5t51.5 152.5t20 227v613q0 46 37 53q56 6 109 6q-6 -120 -6 -371v-297q0 -119 -18 -215.5t-47 -163t-72.5 -116.5t-88 -78.5t-99 -46.5t-101 -23.5t-99.5 -5.5
q-94 0 -169 18.5t-141.5 63t-110.5 115.5t-69.5 180t-25.5 252v410q0 200 -6 262q72 16 141 16q24 0 29.5 -17.5t5.5 -90.5zM487 1364q-20 0 -44 14.5t-35 30.5q104 76 192 184q16 16 31 21q18 6 51 6q116 -130 217 -207q-8 -17 -31.5 -33t-42.5 -16q-23 0 -43 10
q-42 30 -131 113q-65 -68 -127 -111q-30 -12 -37 -12z" />
    <glyph glyph-name="Udieresis" unicode="&#xdc;" horiz-adv-x="1312" 
d="M307 1178v-584q0 -125 23.5 -219t58.5 -147t86.5 -85.5t98.5 -42.5t102 -10q64 0 112.5 11t97.5 44t80.5 89.5t51.5 152.5t20 227v613q0 46 37 53q56 6 109 6q-6 -120 -6 -371v-297q0 -119 -18 -215.5t-47 -163t-72.5 -116.5t-88 -78.5t-99 -46.5t-101 -23.5t-99.5 -5.5
q-94 0 -169 18.5t-141.5 63t-110.5 115.5t-69.5 180t-25.5 252v410q0 200 -6 262q72 16 141 16q24 0 29.5 -17.5t5.5 -90.5zM494 1554q36 0 60 -26.5t24 -63.5q0 -44 -25 -69t-66 -25q-35 0 -60.5 22.5t-25.5 65.5q0 41 25 68.5t68 27.5zM838 1554q36 0 59 -26t23 -64
q0 -44 -24.5 -69t-66.5 -25q-33 0 -58.5 23t-25.5 65t24.5 69t68.5 27z" />
    <glyph glyph-name="Yacute" unicode="&#xdd;" horiz-adv-x="1110" 
d="M475 25v501q0 65 -14 88q-73 119 -211 324t-219 317v5q93 26 145 26q21 0 35.5 -13.5t44.5 -62.5q43 -67 172 -264.5t154 -236.5q60 84 208.5 306.5t176.5 270.5q66 -4 102 -16q38 -14 -6 -76q-44 -64 -208.5 -300t-186.5 -265q-23 -36 -23 -82v-297q0 -123 6 -246
q-50 -16 -147 -16q-18 0 -23.5 7t-5.5 30zM762 1573q25 -5 47 -35t29 -57q7 -25 -27 -35q-147 -43 -330 -115q-17 17 -28 39q-12 29 14 47q62 46 161.5 100.5t133.5 55.5z" />
    <glyph glyph-name="Thorn" unicode="&#xde;" horiz-adv-x="931" 
d="M141 25v985q0 202 -6 260q83 16 144 16q20 0 26 -20.5t6 -91.5v-152q77 10 133 10q223 0 330 -110q100 -102 100 -273q0 -89 -28 -161t-70.5 -115.5t-96.5 -73t-102 -40.5t-90 -11q-49 0 -71 14q-47 26 -47 84q39 -2 57 -2q28 0 58.5 6.5t69 26t68 50t50 85t20.5 125.5
q0 145 -73.5 218t-202.5 71q-76 0 -105 -8v-662q0 -129 6 -252q-58 -16 -141 -16q-21 0 -28 7t-7 30z" />
    <glyph glyph-name="germandbls" unicode="&#xdf;" horiz-adv-x="1026" 
d="M578 1405q153 0 236 -89t83 -226q0 -61 -10 -91q-118 -46 -176 -109.5t-58 -135.5q0 -33 19.5 -66t46.5 -55q38 -29 137 -103q117 -93 117 -221q0 -150 -108.5 -241t-264.5 -91q-104 0 -170 39q-24 31 -16 58q11 37 37 47q80 -33 155 -33q89 0 148 49.5t59 128.5
q0 47 -18 81t-64 71q-40 32 -117 88q-114 76 -114 207q0 174 243 307q9 27 9 55q0 105 -50.5 168.5t-140.5 63.5q-254 0 -254 -473q-3 -448 6 -830q-59 -16 -143 -16q-29 0 -29 26q4 147 4 750q-108 0 -108 57q37 40 108 70q0 107 37 218.5t109 180.5q109 115 287 115z" />
    <glyph glyph-name="agrave" unicode="&#xe0;" horiz-adv-x="845" 
d="M803 98l2 -4q1 -57 -32.5 -88t-90.5 -31q-58 0 -92.5 38t-42.5 96q-48 -59 -118.5 -96.5t-145.5 -37.5q-102 0 -168 66t-66 160q0 36 11.5 68t27 56.5t45 47.5t51 37.5t61 30.5t58.5 23t60.5 18t50.5 13t43 9q43 10 90 18l2 76q0 83 -47 139t-135 56q-104 0 -226 -91
q-31 -5 -49 21.5t-18 56.5q68 56 156.5 98t177.5 42q147 0 223 -92.5t76 -243.5q0 -31 -4 -190t-3 -230q0 -33 18 -52.5t54 -19.5q16 0 31 6zM215 231q0 -60 40.5 -98.5t100.5 -38.5q100 0 174 96q15 22 15 64v182q-330 -58 -330 -205zM301 1372q23 -1 77 -99.5t81 -172.5
q10 -28 -6 -47q-27 -23 -50 -27q-99 151 -204 262q-17 17 8 39q52 45 94 45z" />
    <glyph glyph-name="aacute" unicode="&#xe1;" horiz-adv-x="845" 
d="M803 98l2 -4q1 -57 -32.5 -88t-90.5 -31q-58 0 -92.5 38t-42.5 96q-48 -59 -118.5 -96.5t-145.5 -37.5q-102 0 -168 66t-66 160q0 36 11.5 68t27 56.5t45 47.5t51 37.5t61 30.5t58.5 23t60.5 18t50.5 13t43 9q43 10 90 18l2 76q0 83 -47 139t-135 56q-104 0 -226 -91
q-31 -5 -49 21.5t-18 56.5q68 56 156.5 98t177.5 42q147 0 223 -92.5t76 -243.5q0 -31 -4 -190t-3 -230q0 -33 18 -52.5t54 -19.5q16 0 31 6zM215 231q0 -60 40.5 -98.5t100.5 -38.5q100 0 174 96q15 22 15 64v182q-330 -58 -330 -205zM481 1368q25 0 54 -13.5t47 -31.5
q17 -14 -4 -37q-76 -83 -205 -264q-30 9 -49 31q-13 13 2 53q38 85 86.5 173.5t68.5 88.5z" />
    <glyph glyph-name="acircumflex" unicode="&#xe2;" horiz-adv-x="845" 
d="M803 98l2 -4q1 -57 -32.5 -88t-90.5 -31q-58 0 -92.5 38t-42.5 96q-48 -59 -118.5 -96.5t-145.5 -37.5q-102 0 -168 66t-66 160q0 36 11.5 68t27 56.5t45 47.5t51 37.5t61 30.5t58.5 23t60.5 18t50.5 13t43 9q43 10 90 18l2 76q0 83 -47 139t-135 56q-104 0 -226 -91
q-31 -5 -49 21.5t-18 56.5q68 56 156.5 98t177.5 42q147 0 223 -92.5t76 -243.5q0 -31 -4 -190t-3 -230q0 -33 18 -52.5t54 -19.5q16 0 31 6zM215 231q0 -60 40.5 -98.5t100.5 -38.5q100 0 174 96q15 22 15 64v182q-330 -58 -330 -205zM268 1034q-41 0 -80 27
q16 26 51.5 84.5t59.5 100t45 83.5q16 26 35 31q31 8 61 8q24 -45 53 -96t64 -110.5t55 -94.5q-44 -33 -80 -33q-19 0 -30 19q-11 21 -44.5 79t-56.5 101q-85 -148 -106 -184q-15 -15 -27 -15z" />
    <glyph glyph-name="atilde" unicode="&#xe3;" horiz-adv-x="845" 
d="M803 98l2 -4q1 -57 -32.5 -88t-90.5 -31q-58 0 -92.5 38t-42.5 96q-48 -59 -118.5 -96.5t-145.5 -37.5q-102 0 -168 66t-66 160q0 36 11.5 68t27 56.5t45 47.5t51 37.5t61 30.5t58.5 23t60.5 18t50.5 13t43 9q43 10 90 18l2 76q0 83 -47 139t-135 56q-104 0 -226 -91
q-31 -5 -49 21.5t-18 56.5q68 56 156.5 98t177.5 42q147 0 223 -92.5t76 -243.5q0 -31 -4 -190t-3 -230q0 -33 18 -52.5t54 -19.5q16 0 31 6zM215 231q0 -60 40.5 -98.5t100.5 -38.5q100 0 174 96q15 22 15 64v182q-330 -58 -330 -205zM328 1303q58 0 112 -68q36 -49 56 -49
q35 0 51 96q6 21 20 21q28 0 64 -29q-22 -205 -139 -205q-10 0 -18.5 1.5t-18 7t-15 8t-16 12.5t-14 13.5t-16 17t-15.5 16.5q-21 26 -32 35.5t-25 9.5q-37 -3 -60 -92q-4 -21 -16 -21q-32 0 -72 17q4 39 13.5 73.5t27 66.5t46.5 50.5t67 18.5z" />
    <glyph glyph-name="adieresis" unicode="&#xe4;" horiz-adv-x="845" 
d="M803 98l2 -4q1 -57 -32.5 -88t-90.5 -31q-58 0 -92.5 38t-42.5 96q-48 -59 -118.5 -96.5t-145.5 -37.5q-102 0 -168 66t-66 160q0 36 11.5 68t27 56.5t45 47.5t51 37.5t61 30.5t58.5 23t60.5 18t50.5 13t43 9q43 10 90 18l2 76q0 83 -47 139t-135 56q-104 0 -226 -91
q-31 -5 -49 21.5t-18 56.5q68 56 156.5 98t177.5 42q147 0 223 -92.5t76 -243.5q0 -31 -4 -190t-3 -230q0 -33 18 -52.5t54 -19.5q16 0 31 6zM215 231q0 -60 40.5 -98.5t100.5 -38.5q100 0 174 96q15 22 15 64v182q-330 -58 -330 -205zM246 1274q37 0 61.5 -27t24.5 -65
q0 -44 -25.5 -70.5t-66.5 -26.5q-37 0 -63.5 24.5t-26.5 68.5q0 41 26 68.5t70 27.5zM567 1274q38 0 62 -26.5t24 -65.5q0 -44 -25.5 -70.5t-68.5 -26.5q-34 0 -60 24.5t-26 68.5q0 42 24.5 69t69.5 27z" />
    <glyph glyph-name="aring" unicode="&#xe5;" horiz-adv-x="845" 
d="M803 98l2 -4q1 -57 -32.5 -88t-90.5 -31q-58 0 -92.5 38t-42.5 96q-48 -59 -118.5 -96.5t-145.5 -37.5q-102 0 -168 66t-66 160q0 36 11.5 68t27 56.5t45 47.5t51 37.5t61 30.5t58.5 23t60.5 18t50.5 13t43 9q43 10 90 18l2 76q0 83 -47 139t-135 56q-104 0 -226 -91
q-31 -5 -49 21.5t-18 56.5q68 56 156.5 98t177.5 42q147 0 223 -92.5t76 -243.5q0 -31 -4 -190t-3 -230q0 -33 18 -52.5t54 -19.5q16 0 31 6zM215 231q0 -60 40.5 -98.5t100.5 -38.5q100 0 174 96q15 22 15 64v182q-330 -58 -330 -205zM410 1356q74 0 123 -48.5t49 -121.5
q0 -74 -50 -122t-126 -48q-71 0 -120.5 45.5t-49.5 120.5q0 73 47.5 123.5t126.5 50.5zM406 1274q-33 0 -53.5 -27t-20.5 -59q0 -40 23 -66t57 -26q35 1 53 26.5t18 61.5q0 39 -19.5 64.5t-57.5 25.5z" />
    <glyph glyph-name="ae" unicode="&#xe6;" horiz-adv-x="1331" 
d="M1233 145l2 -4q-1 -41 -29 -80t-55 -53q-20 -11 -76.5 -22t-109.5 -11q-115 0 -207 46t-135 129q-61 -71 -153 -123t-187 -52q-104 0 -169 65t-65 161q0 46 18 86.5t44.5 69.5t69 55t77.5 41.5t85 31t77 22t67 15.5q58 12 62 13v47q0 86 -50 148.5t-141 62.5
q-93 0 -200 -76q-38 -23 -59.5 -5t-24.5 70q55 57 145 97.5t182 40.5q95 0 161.5 -50.5t92.5 -121.5q49 75 127.5 123.5t178.5 48.5q66 0 120.5 -20t91 -52.5t62 -76.5t37 -90t12.5 -95q0 -40 -6 -64q-4 -23 -58.5 -42.5t-113.5 -28.5q-44 -5 -166.5 -7.5t-239.5 0.5
q-2 -154 84 -249t234 -95q57 0 118.5 15t96.5 30zM930 825q-88 0 -150 -78t-75 -208q123 -3 235.5 -1t142.5 5q20 0 31.5 13.5t11.5 35.5q2 100 -50.5 166.5t-145.5 66.5zM348 96q127 0 238 129q-16 40 -27.5 102.5t-11.5 112.5q-332 -59 -332 -217q0 -53 39 -90t94 -37z
" />
    <glyph glyph-name="ccedilla" unicode="&#xe7;" horiz-adv-x="829" 
d="M362 -164l101 141q-61 6 -115.5 22.5t-109 52t-93.5 85.5t-63.5 127t-24.5 172q0 211 139.5 347.5t350.5 136.5q85 0 153 -22.5t97 -53.5q2 -25 -12.5 -54t-39.5 -36q-95 49 -202 49q-138 0 -226 -94.5t-88 -253.5q0 -81 22 -144.5t56.5 -101.5t80.5 -63t89 -34.5
t88 -9.5q129 0 219 43l2 -4q-2 -34 -16 -66.5t-35 -49.5q-65 -38 -166 -48l-55 -77q60 -17 92.5 -56t32.5 -90q0 -77 -74 -129.5t-166 -62.5q-19 4 -32 21t-13 32t19 20q141 31 141 105q0 37 -45.5 56.5t-106.5 17.5v22z" />
    <glyph glyph-name="egrave" unicode="&#xe8;" horiz-adv-x="854" 
d="M752 145l4 -2q-1 -39 -22.5 -74.5t-45.5 -48.5q-26 -17 -83 -31t-113 -14q-210 0 -322.5 119.5t-112.5 335.5q0 132 48 242t145 179t225 69q82 0 147 -29t103 -77.5t58 -106.5t22 -121q0 -46 -6 -62q-12 -44 -170 -67q-43 -6 -168.5 -7t-239.5 3q0 -164 86 -258.5
t225 -94.5q60 0 123.5 14.5t96.5 30.5zM455 825q-86 0 -150 -71.5t-78 -202.5q68 -2 150.5 -2t153.5 1t73 1q20 1 31.5 13t11.5 30q2 102 -48 166.5t-144 64.5zM352 1372q23 -1 77 -99.5t81 -172.5q12 -29 -6 -47q-23 -23 -47 -27q-104 153 -205 262q-16 16 6 39
q52 45 94 45z" />
    <glyph glyph-name="eacute" unicode="&#xe9;" horiz-adv-x="854" 
d="M752 145l4 -2q-1 -39 -22.5 -74.5t-45.5 -48.5q-26 -17 -83 -31t-113 -14q-210 0 -322.5 119.5t-112.5 335.5q0 132 48 242t145 179t225 69q82 0 147 -29t103 -77.5t58 -106.5t22 -121q0 -46 -6 -62q-12 -44 -170 -67q-43 -6 -168.5 -7t-239.5 3q0 -164 86 -258.5
t225 -94.5q60 0 123.5 14.5t96.5 30.5zM455 825q-86 0 -150 -71.5t-78 -202.5q68 -2 150.5 -2t153.5 1t73 1q20 1 31.5 13t11.5 30q2 102 -48 166.5t-144 64.5zM535 1368q25 0 53.5 -13.5t46.5 -31.5q17 -14 -4 -37q-76 -83 -205 -264q-30 9 -49 31q-13 13 2 53
q37 83 86.5 172.5t69.5 89.5z" />
    <glyph glyph-name="ecircumflex" unicode="&#xea;" horiz-adv-x="854" 
d="M752 145l4 -2q-1 -39 -22.5 -74.5t-45.5 -48.5q-26 -17 -83 -31t-113 -14q-210 0 -322.5 119.5t-112.5 335.5q0 132 48 242t145 179t225 69q82 0 147 -29t103 -77.5t58 -106.5t22 -121q0 -46 -6 -62q-12 -44 -170 -67q-43 -6 -168.5 -7t-239.5 3q0 -164 86 -258.5
t225 -94.5q60 0 123.5 14.5t96.5 30.5zM455 825q-86 0 -150 -71.5t-78 -202.5q68 -2 150.5 -2t153.5 1t73 1q20 1 31.5 13t11.5 30q2 102 -48 166.5t-144 64.5zM324 1034q-41 0 -80 27q12 21 50.5 83.5t61 102t43.5 82.5q16 26 35 31q31 8 62 8q24 -45 53 -96t64 -110.5
t55 -94.5q-44 -33 -80 -33q-20 0 -31 19q-11 21 -44 79t-56 101q-37 -65 -107 -184q-15 -15 -26 -15z" />
    <glyph glyph-name="edieresis" unicode="&#xeb;" horiz-adv-x="854" 
d="M752 145l4 -2q-1 -39 -22.5 -74.5t-45.5 -48.5q-26 -17 -83 -31t-113 -14q-210 0 -322.5 119.5t-112.5 335.5q0 132 48 242t145 179t225 69q82 0 147 -29t103 -77.5t58 -106.5t22 -121q0 -46 -6 -62q-12 -44 -170 -67q-43 -6 -168.5 -7t-239.5 3q0 -164 86 -258.5
t225 -94.5q60 0 123.5 14.5t96.5 30.5zM455 825q-86 0 -150 -71.5t-78 -202.5q68 -2 150.5 -2t153.5 1t73 1q20 1 31.5 13t11.5 30q2 102 -48 166.5t-144 64.5zM297 1274q37 0 61.5 -27t24.5 -65q0 -44 -25.5 -70.5t-66.5 -26.5q-37 0 -63.5 24.5t-26.5 68.5q0 41 26 68.5
t70 27.5zM618 1274q38 0 62.5 -26.5t24.5 -65.5q0 -44 -26 -70.5t-69 -26.5q-34 0 -60 24.5t-26 68.5q0 42 24.5 69t69.5 27z" />
    <glyph glyph-name="igrave" unicode="&#xec;" horiz-adv-x="423" 
d="M293 780v-731q0 -27 -9 -37.5t-32 -13.5q-28 -6 -127 -10q6 246 6 321v346q0 142 -8 232q23 8 69 14t72 6q11 0 16.5 -7t9 -35t3.5 -85zM115 1372q23 -1 76.5 -99t80.5 -173q10 -29 -8 -47q-23 -23 -47 -27q-96 148 -205 262q-17 17 8 39q48 45 95 45z" />
    <glyph glyph-name="iacute" unicode="&#xed;" horiz-adv-x="423" 
d="M293 780v-731q0 -27 -9 -37.5t-32 -13.5q-28 -6 -127 -10q6 246 6 321v346q0 142 -8 232q23 8 69 14t72 6q11 0 16.5 -7t9 -35t3.5 -85zM291 1368q25 0 53.5 -13.5t46.5 -31.5q17 -14 -4 -37q-76 -83 -205 -264q-30 9 -49 31q-13 13 2 53q37 83 86.5 172.5t69.5 89.5z
" />
    <glyph glyph-name="icircumflex" unicode="&#xee;" horiz-adv-x="423" 
d="M293 780v-731q0 -27 -9 -37.5t-32 -13.5q-28 -6 -127 -10q6 246 6 321v346q0 142 -8 232q23 8 69 14t72 6q11 0 16.5 -7t9 -35t3.5 -85zM80 1034q-17 0 -42 8.5t-38 18.5q13 23 71 118t85 150q13 26 34 31q31 8 62 8q59 -110 172 -301q-44 -33 -82 -33q-18 0 -29 19
q-14 26 -47.5 84t-54.5 96q-34 -62 -105 -184q-15 -15 -26 -15z" />
    <glyph glyph-name="idieresis" unicode="&#xef;" horiz-adv-x="423" 
d="M293 780v-731q0 -27 -9 -37.5t-32 -13.5q-28 -6 -127 -10q6 246 6 321v346q0 142 -8 232q23 8 69 14t72 6q11 0 16.5 -7t9 -35t3.5 -85zM63 1274q37 0 62 -27t25 -65q0 -44 -25.5 -70.5t-67.5 -26.5q-37 0 -63.5 24.5t-26.5 68.5q0 41 26 68.5t70 27.5zM385 1274
q38 0 62 -26.5t24 -65.5q0 -44 -25.5 -70.5t-68.5 -26.5q-34 0 -60 24.5t-26 68.5q0 42 24.5 69t69.5 27z" />
    <glyph glyph-name="eth" unicode="&#xf0;" horiz-adv-x="978" 
d="M846 1255l-156 -79q113 -118 174.5 -285t61.5 -361q0 -269 -123 -412t-320 -143q-194 0 -310 124t-116 327q0 216 128 354t341 138q106 0 179 -50q-55 156 -150 244l-291 -143q-14 -7 -21.5 -8.5t-10.5 2.5t-3 14q0 26 8.5 51t18.5 37l223 109q-63 46 -154.5 83
t-164.5 46v6q6 10 14 26q15 33 31.5 45.5t46.5 12.5q63 0 171 -45.5t191 -108.5l232 119q25 11 31 8.5t6 -18.5q0 -69 -37 -93zM524 819q-59 0 -110.5 -22t-93.5 -66.5t-66.5 -119t-24.5 -171.5q0 -94 24 -167t63 -115t83.5 -63t89.5 -21q128 0 198.5 114.5t70.5 337.5
q0 115 -29 209q-32 39 -87 61.5t-118 22.5z" />
    <glyph glyph-name="ntilde" unicode="&#xf1;" horiz-adv-x="1011" 
d="M717 16l2 537q1 120 -50 181t-137 61q-131 0 -231 -131v-617q0 -31 -8 -39.5t-35 -11.5q-43 -8 -125 -8q6 105 6 379v348q0 102 -33 125v8q9 26 40 49t61 23q73 0 86 -152q148 152 295 152q295 0 295 -365v-299q0 -178 6 -252q-115 -16 -144 -16q-28 0 -28 28zM420 1303
q58 0 112 -68q36 -49 56 -49q35 0 51 96q6 21 20 21q28 0 64 -29q-22 -205 -139 -205q-22 0 -43.5 12.5t-32.5 23.5t-37 40q-23 27 -34 36t-23 9q-37 -3 -60 -92q-4 -21 -16 -21q-32 0 -72 17q4 39 13.5 73.5t27 66.5t46.5 50.5t67 18.5z" />
    <glyph glyph-name="ograve" unicode="&#xf2;" horiz-adv-x="995" 
d="M512 920q106 0 189.5 -37t135 -101.5t77.5 -146.5t26 -176q0 -209 -124 -346.5t-327 -137.5q-108 0 -192.5 38t-135.5 103t-77.5 146.5t-26.5 173.5q0 207 127 345.5t328 138.5zM492 821q-112 0 -187.5 -96.5t-75.5 -263.5q0 -185 80 -286t201 -101q48 0 91.5 21
t81.5 62.5t60.5 115t22.5 169.5q0 166 -71.5 272.5t-202.5 106.5zM408 1372q23 -1 76.5 -99t80.5 -173q12 -29 -6 -47q-23 -23 -49 -27q-94 145 -203 262q-17 16 6 39q52 45 95 45z" />
    <glyph glyph-name="oacute" unicode="&#xf3;" horiz-adv-x="995" 
d="M512 920q106 0 189.5 -37t135 -101.5t77.5 -146.5t26 -176q0 -209 -124 -346.5t-327 -137.5q-108 0 -192.5 38t-135.5 103t-77.5 146.5t-26.5 173.5q0 207 127 345.5t328 138.5zM492 821q-112 0 -187.5 -96.5t-75.5 -263.5q0 -185 80 -286t201 -101q48 0 91.5 21
t81.5 62.5t60.5 115t22.5 169.5q0 166 -71.5 272.5t-202.5 106.5zM565 1368q25 0 54 -13.5t47 -31.5q17 -14 -4 -37q-76 -83 -205 -264q-30 9 -49 31q-13 13 2 53q38 85 86.5 173.5t68.5 88.5z" />
    <glyph glyph-name="ocircumflex" unicode="&#xf4;" horiz-adv-x="995" 
d="M512 920q106 0 189.5 -37t135 -101.5t77.5 -146.5t26 -176q0 -209 -124 -346.5t-327 -137.5q-108 0 -192.5 38t-135.5 103t-77.5 146.5t-26.5 173.5q0 207 127 345.5t328 138.5zM492 821q-112 0 -187.5 -96.5t-75.5 -263.5q0 -185 80 -286t201 -101q48 0 91.5 21
t81.5 62.5t60.5 115t22.5 169.5q0 166 -71.5 272.5t-202.5 106.5zM383 1034q-41 0 -80 27q16 26 51.5 84.5t59.5 100t45 83.5q16 26 35 31q31 8 61 8q24 -45 53 -96t64 -110.5t55 -94.5q-44 -33 -80 -33q-20 0 -31 19q-11 21 -44 79t-56 101q-85 -148 -106 -184
q-15 -15 -27 -15z" />
    <glyph glyph-name="otilde" unicode="&#xf5;" horiz-adv-x="995" 
d="M512 920q106 0 189.5 -37t135 -101.5t77.5 -146.5t26 -176q0 -209 -124 -346.5t-327 -137.5q-108 0 -192.5 38t-135.5 103t-77.5 146.5t-26.5 173.5q0 207 127 345.5t328 138.5zM492 821q-112 0 -187.5 -96.5t-75.5 -263.5q0 -185 80 -286t201 -101q48 0 91.5 21
t81.5 62.5t60.5 115t22.5 169.5q0 166 -71.5 272.5t-202.5 106.5zM410 1303q58 0 112 -68q36 -49 56 -49q35 0 51 96q6 21 20 21q28 0 64 -29q-22 -205 -140 -205q-17 0 -30.5 4.5t-31 20t-22.5 21t-28 30.5q-23 26 -34 35.5t-24 9.5q-36 -3 -59 -92q-4 -21 -16 -21
q-32 0 -72 17q4 39 13.5 73.5t27 66.5t46.5 50.5t67 18.5z" />
    <glyph glyph-name="odieresis" unicode="&#xf6;" horiz-adv-x="995" 
d="M512 920q106 0 189.5 -37t135 -101.5t77.5 -146.5t26 -176q0 -209 -124 -346.5t-327 -137.5q-108 0 -192.5 38t-135.5 103t-77.5 146.5t-26.5 173.5q0 207 127 345.5t328 138.5zM492 821q-112 0 -187.5 -96.5t-75.5 -263.5q0 -185 80 -286t201 -101q48 0 91.5 21
t81.5 62.5t60.5 115t22.5 169.5q0 166 -71.5 272.5t-202.5 106.5zM332 1274q37 0 61.5 -27t24.5 -65q0 -44 -25.5 -70.5t-66.5 -26.5q-37 0 -63.5 24.5t-26.5 68.5q0 41 26 68.5t70 27.5zM653 1274q38 0 62 -26.5t24 -65.5q0 -44 -25.5 -70.5t-68.5 -26.5q-34 0 -60 24.5
t-26 68.5q0 42 24.5 69t69.5 27z" />
    <glyph glyph-name="divide" unicode="&#xf7;" horiz-adv-x="1120" 
d="M557 698q-31 0 -56.5 27t-25.5 61q0 37 26 65t58 28q37 0 62.5 -27.5t25.5 -65.5q0 -37 -26 -62.5t-64 -25.5zM936 436h-811q3 107 55 107h817q-2 -54 -15.5 -80.5t-45.5 -26.5zM557 279q35 0 60.5 -26.5t25.5 -62.5q0 -35 -26 -62.5t-60 -27.5q-35 0 -60.5 27t-25.5 63
q0 37 25.5 63t60.5 26z" />
    <glyph glyph-name="oslash" unicode="&#xf8;" horiz-adv-x="1024" 
d="M877 874l-50 -69q69 -62 104.5 -154t35.5 -200q0 -204 -125.5 -340t-323.5 -136q-152 0 -246 60l-55 -78q-13 -19 -23 -20.5t-20 12.5q-26 30 -35 59l60 80q-70 62 -106 156t-36 198q0 201 130.5 339.5t328.5 138.5q137 0 238 -62l49 70q14 20 21.5 20.5t17.5 -12.5
q31 -46 35 -62zM291 207l387 551q-78 65 -168 65q-123 0 -205 -98t-82 -274q0 -148 68 -244zM735 686l-389 -547q80 -67 176 -67q50 0 98 22t89.5 65t66.5 116t25 165q0 161 -66 246z" />
    <glyph glyph-name="ugrave" unicode="&#xf9;" horiz-adv-x="1005" 
d="M131 309v346q0 146 -8 232q55 20 141 20q11 0 16 -7t8 -34.5t3 -85.5q2 -135 2 -426q0 -65 13 -112.5t32.5 -73t48 -41t53 -19.5t54.5 -4q66 0 122.5 33t83.5 74v616q0 36 6.5 49t26.5 19q102 12 135 12q0 -6 -3 -133t-3 -233v-340q0 -75 17 -101t65 -32v-7
q-5 -30 -32.5 -58t-57.5 -28q-124 0 -137 146q-55 -63 -170 -117q-66 -29 -125 -29q-148 0 -219.5 89t-71.5 245zM395 1372q23 -1 77 -99.5t81 -172.5q12 -29 -6 -47q-23 -23 -47 -27q-104 153 -205 262q-17 16 6 39q52 45 94 45z" />
    <glyph glyph-name="uacute" unicode="&#xfa;" horiz-adv-x="1005" 
d="M131 309v346q0 146 -8 232q55 20 141 20q11 0 16 -7t8 -34.5t3 -85.5q2 -135 2 -426q0 -65 13 -112.5t32.5 -73t48 -41t53 -19.5t54.5 -4q66 0 122.5 33t83.5 74v616q0 36 6.5 49t26.5 19q102 12 135 12q0 -6 -3 -133t-3 -233v-340q0 -75 17 -101t65 -32v-7
q-5 -30 -32.5 -58t-57.5 -28q-124 0 -137 146q-55 -63 -170 -117q-66 -29 -125 -29q-148 0 -219.5 89t-71.5 245zM594 1368q25 0 53.5 -13.5t46.5 -31.5q17 -14 -4 -37q-76 -83 -205 -264q-30 9 -49 31q-13 13 2 53q37 83 86.5 172.5t69.5 89.5z" />
    <glyph glyph-name="ucircumflex" unicode="&#xfb;" horiz-adv-x="1005" 
d="M131 309v346q0 146 -8 232q55 20 141 20q11 0 16 -7t8 -34.5t3 -85.5q2 -135 2 -426q0 -65 13 -112.5t32.5 -73t48 -41t53 -19.5t54.5 -4q66 0 122.5 33t83.5 74v616q0 36 6.5 49t26.5 19q102 12 135 12q0 -6 -3 -133t-3 -233v-340q0 -75 17 -101t65 -32v-7
q-5 -30 -32.5 -58t-57.5 -28q-124 0 -137 146q-55 -63 -170 -117q-66 -29 -125 -29q-148 0 -219.5 89t-71.5 245zM365 1034q-43 0 -82 27q16 28 51.5 85.5t59.5 99t46 83.5q13 26 35 31q27 8 60 8q38 -71 174 -301q-44 -33 -82 -33q-18 0 -29 19q-11 22 -45.5 79.5
t-56.5 100.5q-37 -65 -107 -184q-15 -15 -24 -15z" />
    <glyph glyph-name="udieresis" unicode="&#xfc;" horiz-adv-x="1005" 
d="M131 309v346q0 146 -8 232q55 20 141 20q11 0 16 -7t8 -34.5t3 -85.5q2 -135 2 -426q0 -65 13 -112.5t32.5 -73t48 -41t53 -19.5t54.5 -4q66 0 122.5 33t83.5 74v616q0 36 6.5 49t26.5 19q102 12 135 12q0 -6 -3 -133t-3 -233v-340q0 -75 17 -101t65 -32v-7
q-5 -30 -32.5 -58t-57.5 -28q-124 0 -137 146q-55 -63 -170 -117q-66 -29 -125 -29q-148 0 -219.5 89t-71.5 245zM334 1274q37 0 61.5 -27t24.5 -65q0 -44 -25.5 -70.5t-66.5 -26.5q-37 0 -63.5 24.5t-26.5 68.5q0 41 26 68.5t70 27.5zM655 1274q38 0 62 -26.5t24 -65.5
q0 -44 -25.5 -70.5t-68.5 -26.5q-34 0 -60 24.5t-26 68.5q0 42 24.5 69t69.5 27z" />
    <glyph glyph-name="yacute" unicode="&#xfd;" horiz-adv-x="837" 
d="M90 -391v4q59 67 138.5 183.5t142.5 236.5q-8 9 -23 41.5t-24 58.5q-222 587 -297 741q29 18 69 32t64 14q28 0 45 -35q17 -36 65 -166.5t110 -305t77 -216.5q60 132 137.5 363t105.5 360q46 0 93 -19q34 -13 18 -74q-28 -114 -88.5 -294t-144.5 -365
q-72 -160 -156 -304.5t-143.5 -222t-79.5 -77.5q-32 0 -62.5 13.5t-46.5 31.5zM522 1368q25 0 54 -13.5t47 -31.5q16 -13 -5 -37q-71 -78 -204 -264q-30 9 -49 31q-13 13 2 53q38 85 86.5 173.5t68.5 88.5z" />
    <glyph glyph-name="thorn" unicode="&#xfe;" horiz-adv-x="1013" 
d="M293 27v-406q0 -24 -7 -32.5t-34 -16.5q-60 -8 -129 -8q6 89 6 360v797v418q0 145 -8 227q29 11 74.5 19t70.5 8q11 0 16 -7.5t8 -36t3 -89.5v-472q72 61 151 96.5t144 35.5q164 0 266 -114.5t102 -324.5q0 -137 -59.5 -252t-170.5 -184.5t-251 -69.5q-97 0 -182 52z
M293 688v-555q73 -49 174 -49q36 0 74 9.5t83 36.5t79.5 69t57.5 115t23 167q0 53 -16 105.5t-46.5 98t-81.5 73.5t-114 28q-135 0 -233 -98z" />
    <glyph glyph-name="ydieresis" unicode="&#xff;" horiz-adv-x="837" 
d="M90 -391v4q59 67 138.5 183.5t142.5 236.5q-8 9 -23 41.5t-24 58.5q-222 587 -297 741q29 18 69 32t64 14q28 0 45 -35q17 -36 65 -166.5t110 -305t77 -216.5q60 132 137.5 363t105.5 360q46 0 93 -19q34 -13 18 -74q-28 -114 -88.5 -294t-144.5 -365
q-72 -160 -156 -304.5t-143.5 -222t-79.5 -77.5q-32 0 -62.5 13.5t-46.5 31.5zM279 1274q37 0 61.5 -27t24.5 -65q0 -44 -25.5 -70.5t-67.5 -26.5q-37 0 -62.5 24t-25.5 69q0 41 25.5 68.5t69.5 27.5zM600 1274q38 0 63 -26.5t25 -65.5q0 -44 -26 -70.5t-68 -26.5
q-34 0 -61 24.5t-27 68.5q0 41 25 68.5t69 27.5z" />
    <glyph glyph-name="OE" unicode="&#x152;" horiz-adv-x="1898" 
d="M1339 711h457q-16 -74 -39.5 -90.5t-91.5 -16.5h-326v-493q61 -17 232 -17q204 0 299 10l4 -4q-20 -77 -94 -104q-54 -8 -234 -8q-258 0 -348 22l-24 31v166q-72 -115 -197 -176.5t-275 -61.5q-135 0 -244.5 39.5t-181 103.5t-119.5 150t-68.5 174t-20.5 180
q0 191 79.5 349t228.5 252t339 94q151 0 270 -57t189 -164v165q52 18 143 25h502q-13 -59 -43 -92q-16 -10 -45.5 -12t-108.5 -2h-283v-463zM252 635q0 -158 53 -283.5t160.5 -201.5t253.5 -76q98 0 179 31t145.5 96t100.5 176.5t36 261.5q0 131 -28.5 233t-74 163.5
t-108 101.5t-123.5 54.5t-129 14.5q-96 0 -181 -41t-148 -114t-99.5 -181t-36.5 -235z" />
    <glyph glyph-name="oe" unicode="&#x153;" horiz-adv-x="1564" 
d="M1464 141l2 -4q-1 -39 -30 -77t-58 -52q-23 -12 -74.5 -22.5t-101.5 -10.5q-115 0 -212.5 52.5t-143.5 148.5q-54 -97 -144 -149t-206 -52q-86 0 -158.5 24.5t-123.5 67t-87 101t-53 127t-17 143.5q0 133 54.5 242.5t158 174.5t236.5 65q237 0 350 -209q47 97 133 153
t199 56q81 0 144.5 -28.5t102 -76.5t59 -106t22.5 -123q0 -44 -5 -64q-4 -22 -57 -38.5t-113 -24.5q-184 -13 -411 -8q-3 -157 84.5 -255t230.5 -98q58 0 121.5 14t97.5 29zM1161 825q-84 0 -146.5 -73.5t-80.5 -202.5q239 -6 381 2q43 3 43 41q2 101 -49 167t-148 66z
M494 823q-110 0 -187.5 -96.5t-77.5 -273.5q0 -186 81 -282.5t198 -96.5q49 0 94.5 21t85 64t63 119t23.5 175q0 157 -73.5 263.5t-206.5 106.5z" />
    <glyph glyph-name="Ydieresis" unicode="&#x178;" horiz-adv-x="1110" 
d="M475 25v501q0 65 -14 88q-73 119 -211 324t-219 317v5q93 26 145 26q21 0 35.5 -13.5t44.5 -62.5q43 -67 172 -264.5t154 -236.5q60 84 208.5 306.5t176.5 270.5q66 -4 102 -16q38 -14 -6 -76q-44 -64 -208.5 -300t-186.5 -265q-23 -36 -23 -82v-297q0 -123 6 -246
q-50 -16 -147 -16q-18 0 -23.5 7t-5.5 30zM406 1546q36 0 59.5 -26t23.5 -62q0 -45 -24.5 -70.5t-65.5 -25.5q-37 0 -61.5 22.5t-24.5 67.5q0 41 25 67.5t68 26.5zM748 1546q37 0 60 -25t23 -63q0 -45 -24 -70.5t-66 -25.5q-33 0 -58.5 23t-25.5 67q0 41 24 67.5t67 26.5z
" />
    <glyph glyph-name="tilde" unicode="&#x2dc;" horiz-adv-x="819" 
d="M334 1303q58 0 112 -68q36 -49 56 -49q35 0 51 96q6 21 20 21q28 0 64 -29q-22 -205 -139 -205q-22 0 -43.5 12.5t-32.5 23.5t-37 40q-23 27 -34 36t-23 9q-37 -3 -60 -92q-4 -21 -16 -21q-32 0 -72 17q4 39 13.5 73.5t27 66.5t46.5 50.5t67 18.5z" />
    <glyph glyph-name="endash" unicode="&#x2013;" horiz-adv-x="1079" 
d="M156 555h831l-6 -47q-13 -76 -47 -76h-842l8 43q14 80 56 80z" />
    <glyph glyph-name="emdash" unicode="&#x2014;" horiz-adv-x="1837" 
d="M156 555h1589l-10 -66q-6 -36 -18 -46.5t-36 -10.5h-1589l6 47q7 44 21 60t37 16z" />
    <glyph glyph-name="quoteleft" unicode="&#x2018;" horiz-adv-x="348" 
d="M57 1067q0 77 41 168.5t86 134.5q40 40 117 37q-37 -67 -63.5 -152t-26.5 -163q0 -53 6 -76q-55 -41 -104 -41q-56 0 -56 92z" />
    <glyph glyph-name="quoteright" unicode="&#x2019;" horiz-adv-x="348" 
d="M297 1303q0 -76 -41.5 -168t-85.5 -134q-36 -39 -117 -36q37 65 63.5 151t26.5 164q0 42 -6 76q57 41 105 41q55 0 55 -94z" />
    <glyph glyph-name="quotedblleft" unicode="&#x201c;" horiz-adv-x="632" 
d="M57 1067q0 77 41 168.5t86 134.5q40 40 117 37q-37 -67 -63.5 -152t-26.5 -163q0 -53 6 -76q-55 -41 -104 -41q-56 0 -56 92zM342 1067q0 77 41 168.5t86 134.5q40 40 117 37q-92 -167 -92 -315q0 -30 8 -76q-55 -41 -105 -41q-55 0 -55 92z" />
    <glyph glyph-name="quotedblright" unicode="&#x201d;" horiz-adv-x="628" 
d="M297 1303q0 -77 -41 -168.5t-86 -133.5q-34 -39 -117 -36q37 65 63.5 151t26.5 164q0 42 -6 76q57 41 105 41q55 0 55 -94zM578 1303q0 -77 -41 -168.5t-86 -133.5q-34 -39 -117 -36q37 65 63.5 151t26.5 164q0 53 -6 76q57 41 104 41q56 0 56 -94z" />
    <glyph glyph-name="quotedblbase" unicode="&#x201e;" horiz-adv-x="608" 
d="M270 137q0 -83 -50 -180t-107 -137q-36 -26 -105 -23q45 72 75 157.5t30 162.5q0 41 -13 84q74 41 109 41q31 0 46 -33t15 -72zM547 137q0 -82 -50 -178.5t-106 -138.5q-36 -26 -106 -23q45 72 74.5 157.5t29.5 162.5q0 44 -12 84q74 41 110 41q29 0 44.5 -34t15.5 -71z
" />
    <glyph glyph-name="bullet" unicode="&#x2022;" horiz-adv-x="571" 
d="M289 670q79 0 129.5 -55.5t50.5 -133.5q0 -89 -51.5 -141.5t-136.5 -52.5q-69 0 -124 53t-55 139q0 82 51.5 136.5t135.5 54.5z" />
    <glyph glyph-name="ellipsis" unicode="&#x2026;" horiz-adv-x="1435" 
d="M229 193q42 0 68.5 -32t26.5 -73q0 -49 -29.5 -80t-75.5 -31q-38 0 -68 28.5t-30 78.5q0 46 29.5 77.5t78.5 31.5zM705 193q42 0 68 -32t26 -73q0 -50 -29 -80.5t-76 -30.5q-38 0 -68 28.5t-30 78.5q0 46 29 77.5t80 31.5zM1180 193q42 0 69 -32t27 -73q0 -49 -29.5 -80
t-75.5 -31q-38 0 -69 28.5t-31 78.5q0 46 29 77.5t80 31.5z" />
    <glyph glyph-name="guilsinglleft" unicode="&#x2039;" horiz-adv-x="776" 
d="M463 133q0 -23 -19 -45.5t-41 -30.5q-135 209 -292 375q-17 34 -17 51q167 154 326 389q19 -11 36 -34.5t17 -49.5q0 -15 -18.5 -48t-51 -77t-59 -78.5t-59 -75t-35.5 -44.5q57 -74 135 -187.5t78 -144.5z" />
    <glyph glyph-name="guilsinglright" unicode="&#x203a;" horiz-adv-x="776" 
d="M315 797q0 23 19 45t41 30q131 -202 293 -374q14 -28 14 -52q-166 -166 -326 -389q-18 11 -35 34t-18 50q0 18 31.5 67.5t67 96t77 99.5t47.5 61q-211 288 -211 332z" />
    <glyph glyph-name="Euro" unicode="&#x20ac;" horiz-adv-x="917" 
d="M856 135l4 -4q-5 -62 -41 -104q-25 -22 -80 -37t-121 -15q-201 0 -317.5 122.5t-144.5 355.5h-131q11 61 28.5 76.5t59.5 15.5h34q-3 61 3 117h-91q13 56 29 74t49 18h25q17 94 56.5 178t98.5 152.5t144.5 108.5t185.5 40q75 0 131 -20t86 -46q5 -9 4 -23t-6 -24
q-8 -26 -43 -35q-30 19 -76.5 29t-83.5 10q-131 0 -218 -95.5t-113 -274.5h442q-4 -33 -11.5 -52.5t-20.5 -27.5t-24 -10t-32 -2h-367q-3 -59 0 -117h400q-11 -61 -31 -76.5t-68 -15.5h-288q23 -181 109.5 -275t221.5 -94q48 0 105.5 16t91.5 35z" />
    <glyph glyph-name="trademark" unicode="&#x2122;" horiz-adv-x="794" 
d="M152 985v248h-101q-16 0 -10 14q7 24 20 37q8 -2 78 -2h201q0 -15 -9 -29.5t-20 -19.5h-90v-193q0 -19 1 -39t1 -22l-57 -4q-14 0 -14 10zM700 1268l25 -178q5 -29 12 -65.5t8 -45.5q-28 -8 -61 -8q-14 0 -14 14q-4 30 -11 84l-16 133q-68 -161 -94 -219q-16 -4 -43 -4
q-7 19 -42.5 105t-43.5 106q-2 -11 -13.5 -94t-17.5 -113q-2 -12 -10 -12q-27 0 -47 8q5 24 22.5 122t28.5 152l-6 21q23 10 65 10q2 0 4 -1t4 -5.5t4.5 -9.5t7.5 -15.5t11 -21.5l68 -146q55 124 88 185v6q24 8 63 8q5 0 8 -16z" />
    <glyph glyph-name="AE.sc" unicode="&#xe001;" horiz-adv-x="1282" 
d="M662 369h-308q-137 -273 -186 -357q-15 -24 -39 -24q-70 0 -111 18l-2 10q40 70 130 239t210 398.5t133 253.5q13 26 15 43q69 13 147 17h525q-7 -65 -39 -90q-19 -17 -121 -17h-228l25 -387h358q-16 -64 -43 -86t-77 -22h-230l15 -254q30 -15 188 -15q131 0 233 6l3 -4
q-19 -62 -78 -100q-47 -8 -199 -8q-218 0 -283 14l-20 25zM406 473h247l-20 389h-33q-34 -64 -72 -141t-74.5 -151.5t-47.5 -96.5z" />
    <glyph glyph-name="AEacute.sc" unicode="&#xe002;" horiz-adv-x="1282" 
d="M662 369h-308q-137 -273 -186 -357q-15 -24 -39 -24q-70 0 -111 18l-2 10q40 70 130 239t210 398.5t133 253.5q13 26 15 43q69 13 147 17h525q-7 -65 -39 -90q-19 -17 -121 -17h-228l25 -387h358q-16 -64 -43 -86t-77 -22h-230l15 -254q30 -15 188 -15q131 0 233 6l3 -4
q-19 -62 -78 -100q-47 -8 -199 -8q-218 0 -283 14l-20 25zM406 473h247l-20 389h-33q-34 -64 -72 -141t-74.5 -151.5t-47.5 -96.5zM852 1362q22 -6 48 -27.5t40 -44.5q6 -10 3 -18.5t-19 -16.5q-132 -89 -271 -206q-22 11 -41 45q-11 11 17 49q64 79 132 151t91 68z" />
    <glyph glyph-name="Aacute.sc" unicode="&#xe003;" horiz-adv-x="991" 
d="M682 283h-387q-20 -46 -47 -107.5t-44.5 -101t-25.5 -56.5q-11 -26 -41 -26q-73 0 -119 12l-2 6q74 154 222 483.5t184 419.5l-12 48q80 18 141 18q14 0 22.5 -8t18.5 -33q170 -430 248 -612q107 -252 135 -310v-8q-16 -8 -62 -12t-69 -4t-36.5 9t-23.5 34
q-9 22 -42 103.5t-60 144.5zM336 391h307q-109 296 -147 391q-52 -123 -160 -391zM662 1378q23 -7 48 -28t40 -43q7 -10 4 -18.5t-21 -18.5q-111 -75 -270 -205q-15 8 -41 43q-9 15 16 49q59 75 130 150t94 71z" />
    <glyph glyph-name="Abreve.sc" unicode="&#xe004;" horiz-adv-x="991" 
d="M682 283h-387q-20 -46 -47 -107.5t-44.5 -101t-25.5 -56.5q-11 -26 -41 -26q-73 0 -119 12l-2 6q74 154 222 483.5t184 419.5l-12 48q80 18 141 18q14 0 22.5 -8t18.5 -33q170 -430 248 -612q107 -252 135 -310v-8q-16 -8 -62 -12t-69 -4t-36.5 9t-23.5 34
q-9 22 -42 103.5t-60 144.5zM336 391h307q-109 296 -147 391q-52 -123 -160 -391zM371 1339q18 0 18 -18q10 -83 34 -117.5t62 -34.5q54 0 82 39.5t39 114.5q5 16 21 16q27 0 50.5 -11t22.5 -28q-13 -123 -70.5 -183t-150.5 -60q-85 0 -136.5 63.5t-51.5 171.5
q0 24 24.5 35.5t55.5 11.5z" />
    <glyph glyph-name="Adieresis.sc" unicode="&#xe006;" horiz-adv-x="991" 
d="M682 283h-387q-20 -46 -47 -107.5t-44.5 -101t-25.5 -56.5q-11 -26 -41 -26q-73 0 -119 12l-2 6q74 154 222 483.5t184 419.5l-12 48q80 18 141 18q14 0 22.5 -8t18.5 -33q170 -430 248 -612q107 -252 135 -310v-8q-16 -8 -62 -12t-69 -4t-36.5 9t-23.5 34
q-9 22 -42 103.5t-60 144.5zM336 391h307q-109 296 -147 391q-52 -123 -160 -391zM670 1284q37 0 61.5 -27t24.5 -65q0 -47 -26 -73.5t-71 -26.5q-35 0 -61.5 24t-26.5 70q0 43 25.5 70.5t73.5 27.5zM336 1284q38 0 64 -27.5t26 -64.5q0 -47 -26.5 -73.5t-69.5 -26.5
q-37 0 -63.5 24t-26.5 70q0 43 25.5 70.5t70.5 27.5z" />
    <glyph glyph-name="fraction" horiz-adv-x="139" 
d="M455 1171q-358 -608 -740 -1265q-14 -25 -26 -27.5t-23 12.5q-24 27 -39 58q57 97 217.5 371.5t294.5 504.5t232 404q15 25 39 4q38 -33 45 -62z" />
    <glyph glyph-name="zero.slash" horiz-adv-x="917" 
d="M262 287l344 768q-60 80 -147 80q-32 0 -62 -11.5t-64 -46t-58.5 -90t-41 -152t-16.5 -223.5q0 -198 45 -325zM659 936l-350 -770q60 -92 154 -92q37 0 67.5 11t63.5 45.5t55 92t36.5 158.5t14.5 237q0 196 -41 318zM469 1233q72 0 130.5 -23t98.5 -60.5t70 -91.5
t47 -108.5t27.5 -119.5t14 -117t3.5 -107q0 -319 -106 -475t-297 -156q-63 0 -118 17.5t-108.5 62t-91.5 114t-61 181t-23 254.5q0 84 11.5 166t41.5 167.5t75 149.5t119 105t167 41z" />
    <glyph glyph-name="i.dot" horiz-adv-x="423" 
d="M215 1315q41 0 65.5 -28.5t24.5 -69.5q0 -43 -26.5 -73t-69.5 -30q-41 0 -66.5 26.5t-25.5 71.5q0 49 30.5 76t67.5 27zM293 780v-731q0 -27 -9 -37.5t-32 -13.5q-28 -6 -127 -10q6 246 6 321v346q0 142 -8 232q23 8 69 14t72 6q11 0 16.5 -7t9 -35t3.5 -85z" />
    <glyph glyph-name="twodotenleader" horiz-adv-x="1024" 
d="M260 193q42 0 67 -32t25 -73q0 -51 -27.5 -81t-74.5 -30q-38 0 -67 27t-29 76t27.5 81t78.5 32zM780 193q43 0 68.5 -32t25.5 -73q0 -51 -27.5 -81t-74.5 -30q-38 0 -67 27t-29 76t27 81t77 32z" />
    <glyph glyph-name="onedotenleader" horiz-adv-x="1024" 
d="M520 193q43 0 68.5 -32t25.5 -73q0 -51 -28 -81t-74 -30q-38 0 -68 27t-30 76q0 48 28 80.5t78 32.5z" />
    <glyph glyph-name="s_t" horiz-adv-x="1335" 
d="M823 244v540q-41 0 -73 4t-48 9.5t-16 11.5q2 11 21 42t32 38q5 3 88 8q3 16 13.5 86t17.5 100h-65q-109 0 -161 -55.5t-69 -157.5q15 -10 21 -16q5 -22 -11.5 -51.5t-42.5 -36.5q-77 41 -151 41q-67 0 -109.5 -33.5t-42.5 -91.5q0 -47 25 -75.5t70 -53.5
q25 -14 84.5 -43.5t93.5 -48.5q127 -75 127 -203q0 -92 -49 -158t-121.5 -95.5t-157.5 -29.5q-77 0 -139.5 23t-96.5 57q-14 21 3 51q16 48 47 46q96 -62 198 -62q79 0 120.5 36.5t41.5 96.5q0 41 -23 70.5t-79 56.5q-10 5 -63.5 31.5t-82.5 42.5q-147 83 -147 227
q0 119 90 194t213 75q31 0 84 -11q6 55 30 104.5t65 91.5t107.5 66.5t149.5 24.5q55 0 195 -12q-8 -39 -16.5 -134t-8.5 -155h326q-6 -34 -16.5 -56t-26 -31t-27 -11.5t-29.5 -3.5q-84 -7 -229 -7q-4 -469 0 -534q12 -154 150 -154q96 0 153 41q12 -12 12 -41q0 -39 -38 -69
q-30 -24 -84 -39t-105 -15q-127 0 -188.5 73t-61.5 196z" />
    <glyph glyph-name="a.sc" horiz-adv-x="991" 
d="M682 283h-387q-20 -46 -47 -107.5t-44.5 -101t-25.5 -56.5q-11 -26 -41 -26q-73 0 -119 12l-2 6q74 154 222 483.5t184 419.5l-12 48q80 18 141 18q14 0 22.5 -8t18.5 -33q170 -430 248 -612q107 -252 135 -310v-8q-16 -8 -62 -12t-69 -4t-36.5 9t-23.5 34
q-9 22 -42 103.5t-60 144.5zM336 391h307q-109 296 -147 391q-52 -123 -160 -391z" />
    <glyph glyph-name="b.sc" horiz-adv-x="874" 
d="M137 14v736q0 124 -2 200q104 29 262 29q348 0 348 -254q0 -129 -133 -199q100 -32 150.5 -91.5t50.5 -139.5q0 -153 -118 -230t-318 -77q-138 0 -240 26zM297 870v-321q109 10 203 2q84 38 84 151q0 78 -51 128.5t-146 50.5q-35 0 -90 -11zM297 451v-353q45 -10 117 -10
q55 0 104 19t84 64t35 108q0 178 -240 178q-77 0 -100 -6z" />
    <glyph glyph-name="c.sc" horiz-adv-x="944" 
d="M891 133l2 -6q-7 -67 -49 -109q-79 -43 -234 -43q-260 0 -405.5 136t-145.5 358q0 120 43.5 219.5t118.5 165t176.5 101.5t218.5 36q98 0 183 -27t112 -59q-11 -54 -34 -71q-22 -19 -50 -5q-83 48 -223 48q-96 0 -177.5 -42t-135 -131t-53.5 -210q0 -186 108 -294
t307 -108q123 0 238 41z" />
    <glyph glyph-name="d.sc" horiz-adv-x="1083" 
d="M137 20v746q0 88 -4 178q43 11 147 23t177 12q100 0 182.5 -17t140 -44.5t101.5 -67.5t70 -82t42.5 -91.5t22.5 -92t6 -88.5q0 -129 -47 -228t-129 -159.5t-188 -90.5t-230 -30q-137 0 -291 32zM299 860v-758q66 -16 145 -16q64 0 121 12.5t109.5 42t90.5 75t60.5 116
t22.5 160.5q0 178 -104 279t-300 101q-67 0 -145 -12z" />
    <glyph glyph-name="e.sc" horiz-adv-x="768" 
d="M137 33v717q0 124 -4 194q9 1 38 7.5t55 10.5t50 5h410q-7 -81 -49 -99q-5 -3 -12 -4.5t-17.5 -2.5t-18.5 -2t-23.5 -1h-24h-29h-29.5h-184v-315h367q-12 -64 -39 -83.5t-74 -19.5h-254v-329q50 -13 193 -13q112 0 235 6v-4q-15 -69 -68 -96q-37 -12 -196 -12
q-214 0 -305 14z" />
    <glyph glyph-name="f.sc" horiz-adv-x="761" 
d="M137 18v764q0 38 -4 160q72 19 154 25h432q-7 -75 -47 -97q-20 -12 -135 -12h-238v-344h373q-7 -67 -33 -87.5t-78 -20.5h-262q0 -280 8 -402q-43 -12 -133 -12q-37 0 -37 26z" />
    <glyph glyph-name="g.sc" horiz-adv-x="1052" 
d="M788 111v219q0 62 -12 127q70 18 142 18q17 0 24.5 -10t7.5 -33v-356q-49 -41 -135 -74q-85 -27 -217 -27q-88 0 -165 16.5t-146.5 54.5t-119.5 95t-79 143t-29 193q0 154 74 272.5t197.5 180t275.5 61.5q127 0 216.5 -32t127.5 -70q0 -19 -8.5 -39t-19.5 -29
q-29 -18 -56 -6q-123 66 -252 66q-162 0 -269 -111t-107 -287q0 -100 32 -178t88 -126.5t127 -73.5t152 -25q96 0 151 31z" />
    <glyph glyph-name="h.sc" horiz-adv-x="1091" 
d="M299 553h494v377q0 24 8.5 33t29.5 12q29 4 132 4q-7 -107 -7 -281v-503q0 -69 7 -191q-44 -12 -142 -12q-28 0 -28 31v430q-51 -7 -203 -7h-291v-405q0 -26 -9.5 -34t-39.5 -11q-58 -4 -117 -4q4 63 4 284v492q0 164 -4 199q74 12 139 12q19 0 23 -14.5t4 -71.5v-340z
" />
    <glyph glyph-name="i.sc" horiz-adv-x="438" 
d="M137 23v747q0 166 -2 197q16 4 65.5 8t71.5 4q17 0 22 -15.5t5 -68.5v-700q0 -121 8 -191q-37 -12 -139 -12q-18 0 -24.5 6t-6.5 25z" />
    <glyph glyph-name="j.sc" horiz-adv-x="434" 
d="M137 223v539q0 129 -4 203q105 12 137 12q18 0 23.5 -17t5.5 -73v-651q0 -156 -21 -240.5t-73 -138.5q-79 -82 -170 -82q-28 0 -50.5 17.5t-29.5 51.5v4q68 16 107 55t57 115t18 205z" />
    <glyph glyph-name="k.sc" horiz-adv-x="923" 
d="M137 20v742q0 60 -1 128.5t-1 76.5q14 4 63.5 8t71.5 4q19 0 24 -16.5t5 -73.5v-400q103 106 281.5 294.5t189.5 199.5q66 -5 100 -14q16 -4 21.5 -11t1 -17.5t-20.5 -27.5q-38 -37 -180 -179.5t-227 -223.5q74 -90 216.5 -246t236.5 -254v-6q-43 -16 -150 -16
q-35 0 -74 47q-84 90 -230.5 252t-164.5 188v-282q0 -127 8 -189q-37 -12 -139 -12q-17 0 -24 5.5t-7 22.5z" />
    <glyph glyph-name="l.sc" horiz-adv-x="743" 
d="M137 33v735q0 144 -6 199q75 12 141 12q17 0 22 -16.5t5 -71.5v-780q72 -13 209 -13q130 0 207 6l2 -4q-7 -30 -29.5 -56.5t-46.5 -39.5q-28 -12 -190 -12q-215 0 -293 12z" />
    <glyph glyph-name="m.sc" horiz-adv-x="1366" 
d="M967 922l-4 32q20 10 66.5 17.5t72.5 7.5q23 0 31 -47l84 -570q7 -47 61 -352q-10 -6 -60.5 -12t-74.5 -6q-20 0 -28 8.5t-11 30.5q-28 200 -41 336l-51 399q-111 -303 -285 -731q-69 -27 -123 -27q-126 366 -276 768q-7 -86 -53.5 -394.5t-53.5 -363.5
q-1 -15 -7.5 -20.5t-20.5 -5.5q-75 0 -115 18q11 64 70.5 392t91.5 513l-11 39q52 25 133 25q20 0 30.5 -10.5t21.5 -40.5l266 -676q117 261 287 670z" />
    <glyph glyph-name="n.sc" horiz-adv-x="1116" 
d="M137 279v618l-45 61v7q23 4 83.5 9t78.5 5q21 0 45 -27q23 -25 157 -201.5t216 -277.5q139 -189 184 -260q-8 106 -8 295v422q0 25 6.5 33.5t24.5 11.5q33 4 102 4q-4 -132 -4 -285v-680q-12 -8 -51.5 -15t-61.5 -7q-28 0 -57 37q-10 12 -83 100.5t-139 172.5t-132 175
q-65 101 -193 293q8 -154 8 -324v-405q0 -25 -7.5 -32.5t-29.5 -12.5q-38 -7 -98 -4q4 66 4 287z" />
    <glyph glyph-name="o.sc" horiz-adv-x="1136" 
d="M575 991q223 0 361.5 -135t138.5 -358q0 -109 -33.5 -203t-96 -166t-160.5 -113t-220 -41q-107 0 -194.5 29.5t-144.5 78t-95.5 113.5t-55 133.5t-16.5 141.5q0 225 143.5 372.5t372.5 147.5zM555 885q-143 0 -231 -111t-88 -293q0 -185 98.5 -292t243.5 -107
q149 0 236 104t87 297q0 184 -95 293t-251 109z" />
    <glyph glyph-name="p.sc" horiz-adv-x="839" 
d="M137 20v730q0 149 -4 206q126 23 258 23q181 0 286 -76t105 -237q0 -67 -23 -121.5t-58 -87.5t-79.5 -55.5t-83.5 -31t-73 -8.5q-59 0 -80 19q-11 6 -22 31.5t-11 46.5q16 -4 45 -4q36 0 71 9.5t69.5 30.5t55.5 63t21 99q0 107 -65.5 159t-163.5 52q-56 0 -86 -6v-669
q0 -125 4 -191q-20 -10 -129 -10q-22 0 -29.5 5t-7.5 23z" />
    <glyph glyph-name="q.sc" horiz-adv-x="1136" 
d="M565 991q237 0 373.5 -136.5t136.5 -356.5q0 -78 -18 -150.5t-53.5 -137.5t-95 -116.5t-136.5 -79.5q48 -21 139 -88q98 -71 158 -103t125 -42l2 -6q-44 -70 -143 -70q-106 0 -283 135q-110 85 -145 103q-53 29 -129 37q-204 20 -320.5 154t-116.5 343q0 222 142 368
t364 146zM555 885q-142 0 -230.5 -110t-88.5 -294q0 -181 98.5 -290t243.5 -109q150 0 236.5 103t86.5 298q0 184 -94 293t-252 109z" />
    <glyph glyph-name="q.scalt" horiz-adv-x="1136" 
d="M567 991q237 0 372.5 -139t135.5 -356q0 -167 -76 -297t-233 -187q68 -24 233 -129q200 -126 284 -168q175 -88 312 -88q121 0 207 23t172 78l4 -2q3 -32 -11.5 -70t-35.5 -53q-75 -59 -165.5 -83t-221.5 -24q-70 0 -143.5 18t-137 45.5t-136.5 70.5t-131.5 83t-133.5 93
q-14 11 -22 16q-209 148 -322 158q-122 8 -213.5 52t-143.5 113.5t-77 152.5t-25 179q0 223 143.5 368.5t364.5 145.5zM551 885q-145 0 -230 -108t-85 -296q0 -179 98.5 -289t236.5 -110q156 0 243 102.5t87 296.5q0 181 -95 292.5t-255 111.5z" />
    <glyph glyph-name="r.sc" horiz-adv-x="903" 
d="M297 401v-358q0 -25 -6.5 -33.5t-22.5 -11.5q-38 -6 -135 -6q4 66 4 282v512q0 117 -2 170q129 23 260 23q172 0 267.5 -69.5t95.5 -211.5q0 -45 -14 -84t-32 -64t-47.5 -48t-48 -33.5t-45.5 -24.5q48 -39 144 -194q134 -198 182 -240v-4q-30 -18 -111 -18q-39 0 -67 15
t-55 52q-19 26 -40.5 58t-60.5 93t-67 103q-39 59 -75.5 75.5t-123.5 16.5zM297 870v-370q146 0 182 10q45 14 79 58.5t34 117.5q0 91 -60 141t-139 50q-56 0 -96 -7z" />
    <glyph glyph-name="s.sc" horiz-adv-x="737" 
d="M387 987q63 0 129.5 -20.5t101.5 -55.5q-4 -40 -28 -67q-19 -21 -47 -10q-92 40 -162 40q-65 0 -107.5 -31t-42.5 -95q0 -57 54.5 -105.5t169.5 -110.5q109 -60 161 -118.5t52 -153.5q0 -72 -30.5 -128.5t-81 -89.5t-110 -50t-124.5 -17q-77 0 -140 19t-100 45
q-33 21 -33 57q0 17 11 40.5t22 31.5q47 -33 115.5 -55.5t121.5 -22.5q179 0 179 133q0 56 -40 94.5t-165 110.5q-124 73 -171.5 136.5t-47.5 160.5q0 43 16 86t50 84t98 66.5t149 25.5z" />
    <glyph glyph-name="t.sc" horiz-adv-x="917" 
d="M375 16v840h-297q-20 0 -28 11t-1 28q13 43 55 80q39 -8 232 -8h549q-6 -46 -26.5 -74.5t-47.5 -36.5h-272v-666q0 -101 6 -188q-66 -12 -142 -12q-15 0 -21.5 5.5t-6.5 20.5z" />
    <glyph glyph-name="u.sc" horiz-adv-x="1110" 
d="M295 891v-420q0 -90 16.5 -160t42.5 -112t63 -68.5t73.5 -36.5t78.5 -10q135 0 204 88.5t69 306.5v451q0 24 9 32.5t26 10.5q29 6 114 6q-8 -84 -8 -285v-200q0 -128 -26 -224t-67 -151t-100.5 -88.5t-116 -44.5t-124.5 -11q-193 0 -304.5 116t-111.5 360v315
q0 129 -4 203q42 10 137 10q19 0 24 -16t5 -72z" />
    <glyph glyph-name="v.sc" horiz-adv-x="987" 
d="M29 954q63 25 151 25q14 0 30 -25t48 -104q12 -32 58 -149.5t98 -253.5t102 -271q73 173 215 533q34 82 65.5 166.5t39.5 103.5q76 0 104 -14q21 -9 23.5 -25.5t-11.5 -48.5q-13 -26 -131 -303q-42 -98 -221 -525q-23 -51 -51 -59q-28 -14 -121 -14q-102 270 -240 600
q-117 278 -159 364z" />
    <glyph glyph-name="w.sc" horiz-adv-x="1439" 
d="M354 -10q-12 34 -93.5 286.5t-127.5 389.5q-86 248 -104 292q72 21 141 21q21 0 32.5 -12.5t20.5 -46.5q17 -60 91 -295t128 -418q23 68 96.5 318t112.5 374q-1 15 -3.5 31t-2.5 20q56 29 119 29q17 0 26 -9t15 -30q11 -34 86.5 -285t132.5 -434q233 679 260 758
q50 0 96 -10q43 -9 27 -49q-8 -31 -88 -246q-34 -87 -112 -305t-113 -303q-17 -45 -41 -58q-10 -7 -49 -12.5t-68 -5.5q-45 179 -223 741q-10 -32 -54 -179.5t-86 -286t-63 -197.5q-15 -49 -39 -60q-56 -18 -117 -18z" />
    <glyph glyph-name="x.sc" horiz-adv-x="933" 
d="M51 952v6q97 21 156 21q15 0 24 -7.5t27 -33.5q45 -63 116 -172t101 -152q40 52 123 169.5t121 168.5q19 27 41 27q27 0 65 -6.5t56 -14.5v-6q-19 -25 -78 -104.5t-123.5 -166t-126.5 -167.5q296 -434 350 -502v-6q-13 -6 -62 -11t-89 -5q-36 0 -60 33q-33 51 -241 358
q-49 -70 -141 -201.5t-113 -161.5q-17 -28 -43 -28q-73 0 -123 20l-2 4q19 26 87.5 117.5t135.5 183t123 170.5q-33 47 -107 155t-132 192t-85 120z" />
    <glyph glyph-name="y.sc" horiz-adv-x="903" 
d="M369 20v398q0 31 -17 61q-30 54 -80 123q-192 281 -247 352v7q21 6 70.5 12t74.5 6q19 0 31 -9.5t35 -43.5q42 -62 237 -359q35 48 95.5 139.5t117 177.5t62.5 95q75 0 104 -10q16 -5 21 -12t2 -15t-13 -22q-34 -45 -162.5 -227.5t-144.5 -207.5q-23 -30 -23 -65v-227
q0 -109 5 -191q-58 -10 -134 -10q-19 0 -26.5 5t-7.5 23z" />
    <glyph glyph-name="z.sc" horiz-adv-x="890" 
d="M868 104l4 -6q-13 -33 -43 -62.5t-53 -35.5q-20 -8 -274 -8q-362 0 -430 12q-22 16 -25 41q146 189 326.5 452.5t232.5 360.5h-446q-58 0 -80.5 10t-16.5 31q4 17 23.5 43.5t32.5 36.5q25 -12 119 -12h575q-6 -64 -29 -111q-39 -69 -202.5 -318t-294.5 -434q87 -6 293 -6
q209 0 288 6z" />
    <glyph glyph-name="germandbls.sc" horiz-adv-x="1472" 
d="M387 987q63 0 129.5 -20.5t101.5 -55.5q-4 -40 -28 -67q-19 -21 -47 -10q-92 40 -162 40q-65 0 -107.5 -31t-42.5 -95q0 -57 54.5 -105.5t169.5 -110.5q109 -60 161 -118.5t52 -153.5q0 -72 -30.5 -128.5t-81 -89.5t-110 -50t-124.5 -17q-77 0 -140 19t-100 45
q-33 21 -33 57q0 17 11 40.5t22 31.5q47 -33 115.5 -55.5t121.5 -22.5q179 0 179 133q0 56 -40 94.5t-165 110.5q-124 73 -171.5 136.5t-47.5 160.5q0 43 16 86t50 84t98 66.5t149 25.5zM1124 987q62 0 128.5 -20.5t101.5 -55.5q-4 -38 -29 -67q-19 -22 -45 -10
q-100 40 -162 40q-67 0 -109 -31t-42 -95q0 -57 54 -105.5t169 -110.5q110 -59 161.5 -118t51.5 -154q0 -72 -30.5 -128.5t-81 -89.5t-110 -50t-124.5 -17q-76 0 -138.5 19t-99.5 45q-35 22 -35 57q0 17 12 40.5t23 31.5q47 -33 116 -55.5t122 -22.5q176 0 176 133
q0 57 -39.5 95.5t-163.5 109.5q-124 73 -171.5 136.5t-47.5 160.5q0 43 16 86t50 84t98 66.5t149 25.5z" />
    <glyph glyph-name="ae.sc" horiz-adv-x="1282" 
d="M662 369h-308q-137 -273 -186 -357q-15 -24 -39 -24q-70 0 -111 18l-2 10q40 70 130 239t210 398.5t133 253.5q13 26 15 43q69 13 147 17h525q-7 -65 -39 -90q-19 -17 -121 -17h-228l25 -387h358q-16 -64 -43 -86t-77 -22h-230l15 -254q30 -15 188 -15q131 0 233 6l3 -4
q-19 -62 -78 -100q-47 -8 -199 -8q-218 0 -283 14l-20 25zM406 473h247l-20 389h-33q-34 -64 -72 -141t-74.5 -151.5t-47.5 -96.5z" />
    <glyph glyph-name="oe.sc" horiz-adv-x="1554" 
d="M1075 549h359q-16 -69 -41 -89t-72 -20h-246v-327q47 -15 217 -15q121 0 203 6l2 -6q-20 -64 -76 -94q-41 -12 -198 -12q-207 0 -279 14l-22 27v117q-119 -175 -357 -175q-111 0 -200 31.5t-144.5 82t-92 118t-51 134t-14.5 136.5q0 224 144 369t364 145
q123 0 205.5 -43.5t145.5 -130.5v131q47 14 133 21h399q-7 -78 -49 -99q-25 -8 -148 -8h-182v-313zM240 479q0 -184 100.5 -290.5t247.5 -106.5q156 0 244 98t88 299q0 191 -86.5 298.5t-255.5 107.5q-155 0 -246.5 -113t-91.5 -293z" />
    <glyph glyph-name="eth.sc" horiz-adv-x="1097" 
d="M158 18v431h-138q4 33 12.5 54t21 30t23.5 11.5t29 2.5h52v221q0 45 -6 180q32 9 137 20t182 11q100 0 182.5 -17t140.5 -44.5t102 -67t70.5 -81.5t43 -91.5t22.5 -92t6 -87.5q0 -257 -180 -394q-149 -116 -414 -116q-127 0 -286 30zM322 866v-319h284q-8 -65 -30 -81.5
t-70 -16.5h-184v-343q62 -16 141 -16q59 0 113 11.5t107.5 40.5t92 73.5t62.5 115.5t24 161q0 179 -105.5 282t-310.5 103q-22 0 -124 -11z" />
    <glyph glyph-name="oslash.sc" horiz-adv-x="1140" 
d="M1008 956l-76 -100q72 -65 108.5 -164.5t36.5 -208.5q0 -225 -133 -366.5t-371 -141.5q-170 0 -278 68l-82 -106q-26 -37 -53 -7q-34 27 -41 60l88 112q-148 142 -148 373q0 105 36.5 199t101.5 164.5t162 111.5t212 41q158 0 275 -71l59 77q20 26 31 30t20 -7
q16 -13 32 -32t20 -32zM309 225l449 590q-87 71 -197 68q-98 -1 -173.5 -56.5t-115 -147t-39.5 -202.5q0 -147 76 -252zM829 735l-450 -585q40 -33 92.5 -50.5t101.5 -17.5q149 0 239.5 104.5t90.5 288.5q0 157 -74 260z" />
    <glyph glyph-name="thorn.sc" horiz-adv-x="804" 
d="M131 23v741q0 154 -6 203q46 12 135 12q22 0 27.5 -15t5.5 -71v-121q81 6 104 6q73 0 134.5 -16t111 -49t77.5 -90t28 -134q0 -81 -31 -143.5t-78 -95.5t-92.5 -48.5t-85.5 -15.5q-62 0 -84 11q-41 21 -41 90q18 -6 55 -6q77 0 135 50.5t58 149.5q0 92 -63 143.5
t-152 49.5q-49 0 -76 -4v-471q0 -65 2 -126.5t2 -68.5q-65 -12 -137 -12q-15 0 -22 6t-7 25z" />
    <glyph glyph-name="ampersand.sc" horiz-adv-x="1183" 
d="M1104 14v-8q-47 -33 -152 -33q-34 0 -67 33q-122 114 -144 133q-135 -164 -331 -164q-147 0 -241 77t-95 204q0 29 6 55.5t13.5 46t25 42t28 35t36.5 33.5t36.5 29t41 29t38.5 27q-58 56 -84.5 108.5t-26.5 118.5q0 118 82.5 188t194.5 70q117 0 188.5 -61.5t71.5 -167.5
q0 -45 -16 -83t-47 -68.5t-58 -50.5t-67 -46q-5 -3 -7 -4.5t-5.5 -3.5t-6.5 -4q64 -55 240 -213q19 33 80 142t92 159q20 32 35 46.5t36 14.5q68 0 113 -39v-6q-90 -104 -268 -395q226 -208 258 -244zM459 946q-55 0 -91 -41t-36 -106q0 -83 121 -187q65 47 99 92.5t34 98.5
q0 62 -35.5 102.5t-91.5 40.5zM453 94q120 0 211 121q-44 42 -168 151.5t-127 112.5q-63 -49 -93 -94t-30 -102q0 -83 58 -136t149 -53z" />
    <glyph glyph-name="exclam.sc" horiz-adv-x="374" 
d="M260 1049q19 0 25 -7.5t6 -29.5q0 -68 -41 -615q-2 -35 -33 -45q-54 -14 -80 -14q-2 78 -19 351t-16 302q10 17 70 37.5t88 20.5zM190 197q45 0 73 -34.5t28 -78.5q0 -51 -31.5 -80t-77.5 -29q-39 0 -69.5 28t-30.5 77q0 52 31 84.5t77 32.5z" />
    <glyph glyph-name="exclamdown.sc" horiz-adv-x="342" 
d="M172 829q-47 0 -73.5 32.5t-26.5 76.5q0 53 30.5 83t75.5 30q40 0 70.5 -29.5t30.5 -79.5q0 -52 -29.5 -82.5t-77.5 -30.5zM106 -25q-19 0 -27.5 8t-8.5 29q0 66 41 613q3 40 32 45q58 16 80 16q2 -62 12 -216.5t18 -282.5t7 -152q-3 -21 -61 -40.5t-93 -19.5z" />
    <glyph glyph-name="question.sc" horiz-adv-x="567" 
d="M295 1036q99 0 164 -56t65 -151q0 -66 -32 -120t-95 -119q-90 -96 -90 -152q0 -39 27 -78q-32 -28 -74 -28q-28 0 -59 38t-31 93q0 44 22 86.5t74 103.5q47 58 67.5 93t20.5 69q0 40 -27.5 65t-68.5 25q-66 0 -127 -33q-29 -16 -51 21q-13 32 -10 65q43 34 105 56t120 22
zM268 193q47 0 75 -32.5t28 -76.5q0 -53 -31.5 -81t-77.5 -28q-39 0 -69.5 29t-30.5 78q0 53 31 82t75 29z" />
    <glyph glyph-name="questiondown.sc" horiz-adv-x="575" 
d="M311 819q-45 0 -73.5 33t-28.5 74q0 53 31 81.5t75 28.5q40 0 70.5 -28.5t30.5 -77.5q0 -55 -30.5 -83t-74.5 -28zM281 -25q-107 0 -168.5 59t-61.5 148q0 65 32 119.5t95 120.5q92 102 92 151q0 41 -26 78q46 31 73 31t56.5 -39.5t29.5 -95.5q0 -45 -21.5 -87
t-72.5 -102q-47 -55 -68.5 -91t-21.5 -70q0 -41 28 -66t70 -25q63 0 127 33q34 19 50 -20q11 -33 8 -66q-42 -36 -103.5 -57t-117.5 -21z" />
    <glyph glyph-name="aacute.sc" horiz-adv-x="991" 
d="M682 283h-387q-20 -46 -47 -107.5t-44.5 -101t-25.5 -56.5q-11 -26 -41 -26q-73 0 -119 12l-2 6q74 154 222 483.5t184 419.5l-12 48q80 18 141 18q14 0 22.5 -8t18.5 -33q170 -430 248 -612q107 -252 135 -310v-8q-16 -8 -62 -12t-69 -4t-36.5 9t-23.5 34
q-9 22 -42 103.5t-60 144.5zM336 391h307q-109 296 -147 391q-52 -123 -160 -391zM662 1378q23 -7 48 -28t40 -43q7 -10 4 -18.5t-21 -18.5q-111 -75 -270 -205q-15 8 -41 43q-9 15 16 49q59 75 130 150t94 71z" />
    <glyph glyph-name="acircumflex.sc" horiz-adv-x="991" 
d="M682 283h-387q-20 -46 -47 -107.5t-44.5 -101t-25.5 -56.5q-11 -26 -41 -26q-73 0 -119 12l-2 6q74 154 222 483.5t184 419.5l-12 48q80 18 141 18q14 0 22.5 -8t18.5 -33q170 -430 248 -612q107 -252 135 -310v-8q-16 -8 -62 -12t-69 -4t-36.5 9t-23.5 34
q-9 22 -42 103.5t-60 144.5zM336 391h307q-109 296 -147 391q-52 -123 -160 -391zM360 1059q-44 0 -81 26q10 15 70 104.5t89 139.5q14 26 35 31q5 0 29 3t35 3q14 -23 176 -276q-41 -31 -84 -31q-20 0 -31 16q-65 99 -102 160q-77 -117 -109 -162q-14 -14 -27 -14z" />
    <glyph glyph-name="adieresis.sc" horiz-adv-x="991" 
d="M682 283h-387q-20 -46 -47 -107.5t-44.5 -101t-25.5 -56.5q-11 -26 -41 -26q-73 0 -119 12l-2 6q74 154 222 483.5t184 419.5l-12 48q80 18 141 18q14 0 22.5 -8t18.5 -33q170 -430 248 -612q107 -252 135 -310v-8q-16 -8 -62 -12t-69 -4t-36.5 9t-23.5 34
q-9 22 -42 103.5t-60 144.5zM336 391h307q-109 296 -147 391q-52 -123 -160 -391zM670 1284q37 0 61.5 -27t24.5 -65q0 -47 -26 -73.5t-71 -26.5q-35 0 -61.5 24t-26.5 70q0 43 25.5 70.5t73.5 27.5zM336 1284q38 0 64 -27.5t26 -64.5q0 -47 -26.5 -73.5t-69.5 -26.5
q-37 0 -63.5 24t-26.5 70q0 43 25.5 70.5t70.5 27.5z" />
    <glyph glyph-name="agrave.sc" horiz-adv-x="991" 
d="M682 283h-387q-20 -46 -47 -107.5t-44.5 -101t-25.5 -56.5q-11 -26 -41 -26q-73 0 -119 12l-2 6q74 154 222 483.5t184 419.5l-12 48q80 18 141 18q14 0 22.5 -8t18.5 -33q170 -430 248 -612q107 -252 135 -310v-8q-16 -8 -62 -12t-69 -4t-36.5 9t-23.5 34
q-9 22 -42 103.5t-60 144.5zM336 391h307q-109 296 -147 391q-52 -123 -160 -391zM326 1380q22 4 101.5 -79t123.5 -148q21 -29 6 -47q-23 -33 -41 -39q-193 156 -270 205q-20 10 -6 39q41 57 86 69z" />
    <glyph glyph-name="aring.sc" horiz-adv-x="991" 
d="M682 283h-387q-20 -46 -47 -107.5t-44.5 -101t-25.5 -56.5q-11 -26 -41 -26q-73 0 -119 12l-2 6q74 154 222 483.5t184 419.5l-12 48q80 18 141 18q14 0 22.5 -8t18.5 -33q170 -430 248 -612q107 -252 135 -310v-8q-16 -8 -62 -12t-69 -4t-36.5 9t-23.5 34
q-9 22 -42 103.5t-60 144.5zM336 391h307q-109 296 -147 391q-52 -123 -160 -391zM500 1384q74 0 124 -50t50 -122q0 -78 -51 -127t-134 -49q-68 0 -119 47t-51 123q0 74 48.5 126t132.5 52zM492 1300q-33 0 -53.5 -28t-20.5 -62q0 -39 23.5 -64.5t56.5 -25.5q36 0 56.5 26
t20.5 62q0 41 -21 66.5t-62 25.5z" />
    <glyph glyph-name="atilde.sc" horiz-adv-x="991" 
d="M682 283h-387q-20 -46 -47 -107.5t-44.5 -101t-25.5 -56.5q-11 -26 -41 -26q-73 0 -119 12l-2 6q74 154 222 483.5t184 419.5l-12 48q80 18 141 18q14 0 22.5 -8t18.5 -33q170 -430 248 -612q107 -252 135 -310v-8q-16 -8 -62 -12t-69 -4t-36.5 9t-23.5 34
q-9 22 -42 103.5t-60 144.5zM336 391h307q-109 296 -147 391q-52 -123 -160 -391zM422 1333q62 0 115 -67q36 -52 55 -52q30 0 47 99q6 20 23 20q31 0 71 -28q-22 -211 -143 -211q-8 0 -15 1t-14.5 4.5t-12.5 5.5t-13 8.5t-11.5 9t-12.5 12t-11 12t-12.5 14t-12.5 13.5
q-18 19 -24 25t-15.5 12t-19.5 6q-32 0 -56 -93q-3 -22 -16 -22q-17 0 -42 6t-36 12q4 41 13.5 75.5t27 67t47 51.5t68.5 19z" />
    <glyph glyph-name="ccedilla.sc" horiz-adv-x="944" 
d="M418 -168l104 148q-220 23 -341.5 155t-121.5 334q0 120 43.5 219.5t118.5 165t176.5 101.5t218.5 36q98 0 183 -27t112 -59q-11 -54 -34 -71q-22 -19 -50 -5q-83 48 -223 48q-96 0 -177.5 -42t-135 -131t-53.5 -210q0 -186 108 -294t307 -108q123 0 238 41l2 -6
q-7 -67 -49 -109q-74 -41 -223 -43l-54 -77q66 -14 100.5 -56t34.5 -96q0 -79 -76.5 -134t-168.5 -65q-19 4 -33 25t-14 37q0 17 18 22q145 35 145 101q0 39 -45 58.5t-110 19.5v22z" />
    <glyph glyph-name="eacute.sc" horiz-adv-x="768" 
d="M137 33v717q0 124 -4 194q9 1 38 7.5t55 10.5t50 5h410q-7 -81 -49 -99q-5 -3 -12 -4.5t-17.5 -2.5t-18.5 -2t-23.5 -1h-24h-29h-29.5h-184v-315h367q-12 -64 -39 -83.5t-74 -19.5h-254v-329q50 -13 193 -13q112 0 235 6v-4q-15 -69 -68 -96q-37 -12 -196 -12
q-214 0 -305 14zM567 1370q23 -7 48 -28.5t40 -43.5q7 -10 4.5 -18t-20.5 -16q-98 -66 -270 -207q-15 8 -41 43q-10 17 16 49q60 76 130 150.5t93 70.5z" />
    <glyph glyph-name="ecircumflex.sc" horiz-adv-x="768" 
d="M137 33v717q0 124 -4 194q9 1 38 7.5t55 10.5t50 5h410q-7 -81 -49 -99q-5 -3 -12 -4.5t-17.5 -2.5t-18.5 -2t-23.5 -1h-24h-29h-29.5h-184v-315h367q-12 -64 -39 -83.5t-74 -19.5h-254v-329q50 -13 193 -13q112 0 235 6v-4q-15 -69 -68 -96q-37 -12 -196 -12
q-214 0 -305 14zM266 1071q-45 0 -84 27q19 28 53.5 78.5t60 88.5t48.5 76q13 26 35 31q60 6 61 6q23 -38 178 -276q-46 -31 -83 -31q-20 0 -33 16q-13 21 -48 74.5t-55 85.5q-36 -58 -106 -162q-14 -14 -27 -14z" />
    <glyph glyph-name="edieresis.sc" horiz-adv-x="768" 
d="M137 33v717q0 124 -4 194q9 1 38 7.5t55 10.5t50 5h410q-7 -81 -49 -99q-5 -3 -12 -4.5t-17.5 -2.5t-18.5 -2t-23.5 -1h-24h-29h-29.5h-184v-315h367q-12 -64 -39 -83.5t-74 -19.5h-254v-329q50 -13 193 -13q112 0 235 6v-4q-15 -69 -68 -96q-37 -12 -196 -12
q-214 0 -305 14zM575 1311q39 0 64 -27.5t25 -66.5q0 -47 -27 -74t-70 -27q-34 0 -62 25t-28 69t26 72.5t72 28.5zM244 1311q38 0 63 -27.5t25 -66.5q0 -47 -26.5 -74t-69.5 -27q-36 0 -63.5 25t-27.5 69t26.5 72.5t72.5 28.5z" />
    <glyph glyph-name="egrave.sc" horiz-adv-x="768" 
d="M137 33v717q0 124 -4 194q9 1 38 7.5t55 10.5t50 5h410q-7 -81 -49 -99q-5 -3 -12 -4.5t-17.5 -2.5t-18.5 -2t-23.5 -1h-24h-29h-29.5h-184v-315h367q-12 -64 -39 -83.5t-74 -19.5h-254v-329q50 -13 193 -13q112 0 235 6v-4q-15 -69 -68 -96q-37 -12 -196 -12
q-214 0 -305 14zM250 1372q20 6 100.5 -78t124.5 -149q21 -30 4 -47q-17 -28 -39 -39q-157 132 -270 205q-20 10 -6 39q43 61 86 69z" />
    <glyph glyph-name="figuredash" horiz-adv-x="813" 
d="M154 657h577l-6 -36q-8 -55 -20.5 -70.5t-36.5 -15.5h-586l6 45q10 77 66 77z" />
    <glyph glyph-name="iacute.sc" horiz-adv-x="438" 
d="M137 23v747q0 166 -2 197q16 4 65.5 8t71.5 4q17 0 22 -15.5t5 -68.5v-700q0 -121 8 -191q-37 -12 -139 -12q-18 0 -24.5 6t-6.5 25zM397 1370q23 -7 48 -28.5t40 -43.5q7 -10 4.5 -18t-20.5 -16q-98 -66 -270 -207q-15 8 -41 43q-10 17 16 49q58 74 129.5 149.5
t93.5 71.5z" />
    <glyph glyph-name="icircumflex.sc" horiz-adv-x="438" 
d="M137 23v747q0 166 -2 197q16 4 65.5 8t71.5 4q17 0 22 -15.5t5 -68.5v-700q0 -121 8 -191q-37 -12 -139 -12q-18 0 -24.5 6t-6.5 25zM74 1059q-47 0 -84 26q147 219 162 244q15 27 34 31q60 6 62 6q71 -115 178 -276q-46 -31 -84 -31q-20 0 -33 16q-14 23 -49 77.5
t-53 82.5q-24 -38 -107 -162q-14 -14 -26 -14z" />
    <glyph glyph-name="idieresis.sc" horiz-adv-x="438" 
d="M137 23v747q0 166 -2 197q16 4 65.5 8t71.5 4q17 0 22 -15.5t5 -68.5v-700q0 -121 8 -191q-37 -12 -139 -12q-18 0 -24.5 6t-6.5 25zM391 1305q37 0 61.5 -27.5t24.5 -65.5q0 -47 -25.5 -73.5t-70.5 -26.5q-35 0 -61.5 24t-26.5 70q0 43 25.5 71t72.5 28zM57 1305
q38 0 64 -28t26 -65q0 -47 -26.5 -73.5t-69.5 -26.5q-37 0 -63.5 24t-26.5 70q0 43 26 71t70 28z" />
    <glyph glyph-name="igrave.sc" horiz-adv-x="438" 
d="M137 23v747q0 166 -2 197q16 4 65.5 8t71.5 4q17 0 22 -15.5t5 -68.5v-700q0 -121 8 -191q-37 -12 -139 -12q-18 0 -24.5 6t-6.5 25zM53 1372q22 6 102.5 -78t125.5 -149q20 -28 4 -47q-21 -31 -41 -39q-142 122 -269 205q-23 10 -6 39q43 61 84 69z" />
    <glyph glyph-name="oneeighth" horiz-adv-x="1269" 
d="M1018 1206q-215 -366 -766 -1253q-13 -22 -22.5 -24t-20.5 10q-33 26 -39 57q399 636 770 1261q10 14 17.5 13t21.5 -15q30 -20 39 -49zM373 1233l10 -4q0 -9 -1.5 -130t-2.5 -265t0 -228q0 -19 -8.5 -26.5t-34.5 -8.5l-90 -8q6 43 6 529q-30 -9 -88 -20.5t-84 -12.5
l-2 8l28 72q64 15 149 45t118 49zM952 653q85 0 146 -44.5t61 -125.5q0 -43 -30 -76.5t-85 -68.5q65 -32 102.5 -70t37.5 -98q0 -86 -67.5 -136t-172.5 -50q-101 0 -167 44.5t-66 129.5q0 47 30.5 80t106.5 77q-115 61 -115 160q0 78 64 128t155 50zM1049 483
q0 42 -26.5 69.5t-76.5 27.5q-43 0 -71.5 -24.5t-28.5 -68.5q0 -33 27 -59t100 -57q42 24 59 48t17 64zM952 55q49 0 81 25.5t32 69.5q0 21 -9.5 39t-20 29.5t-35 25t-36.5 19t-42 18.5q-93 -47 -93 -119q0 -40 33 -73.5t90 -33.5z" />
    <glyph glyph-name="threeeighths" horiz-adv-x="1269" 
d="M1049 1206q-215 -366 -766 -1253q-11 -22 -21 -24t-20 10q-30 21 -41 57q373 590 772 1261q10 14 17.5 13t21.5 -15q30 -20 37 -49zM160 846l-6 6q3 5 9 19.5t12.5 28t12.5 22.5q80 15 122 43t42 84q0 41 -31 66.5t-73 25.5q-32 0 -72 -18.5t-67 -43.5q-21 17 -21 45
q0 18 18 39q24 24 75 47t106 23q90 0 137 -46t47 -112q0 -58 -27 -92t-77 -61q149 -32 149 -172q0 -101 -88 -164.5t-207 -63.5q-86 0 -121 27q-28 33 -28 72l2 4q59 -19 121 -19q90 0 137 37.5t47 93.5q0 117 -135 117q-43 0 -84 -8zM958 653q85 0 146 -44.5t61 -125.5
q0 -43 -30 -76.5t-84 -68.5q65 -32 102 -70t37 -98q0 -86 -67.5 -136t-172.5 -50q-101 0 -167 44.5t-66 129.5q0 47 30.5 80t106.5 77q-115 61 -115 160q0 78 64 128t155 50zM1055 483q0 42 -26.5 69.5t-76.5 27.5q-43 0 -71.5 -24.5t-28.5 -68.5q0 -33 27.5 -59t101.5 -57
q40 25 57 48.5t17 63.5zM958 55q49 0 81 25.5t32 69.5q0 21 -9.5 39t-20 29.5t-35 25t-36.5 19t-42 18.5q-92 -46 -92 -119q0 -40 32.5 -73.5t89.5 -33.5z" />
    <glyph glyph-name="fiveeighths" horiz-adv-x="1269" 
d="M1053 1206q-215 -366 -766 -1253q-11 -22 -21 -24t-20 10q-34 24 -41 57q399 636 770 1261q10 14 18.5 13t22.5 -15q31 -23 37 -49zM72 629q78 -23 141 -23q174 4 174 133q0 76 -88 107q-69 24 -199 37l-10 12q5 45 30 163t38 152q199 20 327 23q3 -34 -14 -76
q-17 -31 -59 -31q-39 -3 -102.5 -4.5t-84.5 -3.5q-3 -9 -30 -141q10 -2 44.5 -7.5t55.5 -9.5t51 -11.5t51 -16.5q62 -26 92.5 -66.5t30.5 -109.5q0 -77 -45.5 -131.5t-112 -78.5t-143.5 -24q-37 0 -72 8t-47 19q-11 8 -21 33.5t-7 46.5zM961 653q86 0 147 -44.5t61 -125.5
q0 -43 -30.5 -77t-85.5 -68q66 -31 103.5 -69.5t37.5 -98.5q0 -86 -67.5 -136t-172.5 -50q-103 0 -168 44.5t-65 129.5q0 48 30 81t107 76q-115 59 -115 160q0 78 64 128t154 50zM1059 483q0 42 -26.5 69.5t-76.5 27.5q-45 0 -73.5 -24.5t-28.5 -68.5q0 -33 28 -58.5
t101 -57.5q41 25 58.5 49t17.5 63zM963 55q49 0 80.5 25.5t31.5 69.5q0 21 -9.5 39t-20 29.5t-35 25t-36.5 19t-42 18.5q-92 -46 -92 -119q0 -40 32.5 -73.5t90.5 -33.5z" />
    <glyph glyph-name="seveneighths" horiz-adv-x="1269" 
d="M1012 1212q-277 -473 -766 -1259q-13 -22 -22 -24t-19 10q-34 24 -41 57q399 636 770 1261q10 14 17.5 13t23.5 -15q1 -1 8.5 -6.5t9.5 -7t6.5 -6.5t7.5 -10.5t5 -12.5zM567 1219l4 -9q-38 -153 -101 -300t-107.5 -221t-65.5 -95q-24 -27 -64 -37q-41 -10 -86 -10l-2 4
q84 98 165.5 249.5t131.5 317.5q-8 0 -95.5 -1t-178.5 -1q-47 0 -61.5 10.5t-6.5 30.5q7 19 24 40t32 32q36 -10 114 -10h297zM940 653q86 0 147.5 -44.5t61.5 -125.5q0 -43 -30.5 -76.5t-86.5 -68.5q67 -31 104.5 -69.5t37.5 -98.5q0 -86 -67.5 -136t-172.5 -50
q-103 0 -168.5 44.5t-65.5 129.5q0 47 30.5 80t107.5 77q-115 61 -115 160q0 78 63.5 128t153.5 50zM1038 483q0 42 -26 69.5t-76 27.5q-45 0 -73.5 -24.5t-28.5 -68.5q0 -33 28 -58.5t101 -57.5q41 25 58 49t17 63zM942 55q49 0 81 25.5t32 69.5q0 21 -9.5 39t-20 29.5
t-35.5 25t-36.5 19t-42.5 18.5q-92 -46 -92 -119q0 -40 33 -73.5t90 -33.5z" />
    <glyph glyph-name="onethird" horiz-adv-x="1269" 
d="M1030 1206q-215 -366 -766 -1253q-11 -22 -21 -24t-20 10q-30 21 -41 57q399 636 770 1261q10 14 18.5 13t22.5 -15q30 -20 37 -49zM379 1233l8 -4q0 -9 -1.5 -130t-2.5 -265t0 -228q0 -19 -8.5 -26.5t-34.5 -8.5l-88 -8q1 10 6 529q-29 -9 -88 -20t-84 -13l-4 8l29 72
q63 15 148 45t120 49zM834 268l-7 6q2 5 8.5 20t13 28t13.5 22q80 15 122 43t42 84q0 41 -31 66.5t-73 25.5q-32 0 -72.5 -18t-67.5 -43q-20 17 -20 45q0 18 18 39q24 24 75 46.5t106 22.5q90 0 137 -46t47 -111q0 -58 -28 -92.5t-79 -61.5q152 -32 152 -172
q0 -100 -89 -163.5t-208 -63.5q-86 0 -119 26q-29 34 -29 72l3 4q56 -18 120 -18q90 0 137.5 37.5t47.5 93.5q0 116 -135 116q-43 0 -84 -8z" />
    <glyph glyph-name="twothirds" horiz-adv-x="1269" 
d="M1077 1206q-215 -366 -766 -1253q-13 -22 -22.5 -24t-20.5 10q-33 26 -39 57q399 636 770 1261q10 14 17.5 13t21.5 -15q30 -20 39 -49zM70 1055h-4q-3 54 20 92q35 38 88.5 62t114.5 24q99 0 158 -55t59 -150q0 -27 -8 -54.5t-19 -50t-32.5 -49.5t-37.5 -44.5
t-44.5 -43.5t-44 -39t-46.5 -38t-41 -33q144 -7 320 4q-15 -63 -61 -94q-49 -15 -168 -15q-206 0 -265 13l-4 8q27 52 35 70q51 42 81.5 68t71.5 66.5t63.5 71t39 68.5t16.5 72q0 57 -32.5 88.5t-87.5 31.5q-44 0 -91 -19.5t-81 -53.5zM848 268l-6 6q2 5 8.5 20t13 28
t13.5 22q80 15 121.5 43t41.5 84q0 41 -31.5 66.5t-74.5 25.5q-30 0 -70 -18t-67 -43q-21 18 -21 45q0 17 19 39q24 24 74 46.5t106 22.5q90 0 137 -46t47 -111q0 -58 -27.5 -92.5t-78.5 -61.5q151 -32 151 -172q0 -100 -89 -163.5t-208 -63.5q-86 0 -119 26q-28 28 -28 72
l2 4q56 -18 121 -18q90 0 137 37.5t47 93.5q0 116 -135 116q-43 0 -84 -8z" />
    <glyph glyph-name="ntilde.sc" horiz-adv-x="1116" 
d="M137 279v618l-45 61v7q23 4 83.5 9t78.5 5q21 0 45 -27q23 -25 157 -201.5t216 -277.5q139 -189 184 -260q-8 106 -8 295v422q0 25 6.5 33.5t24.5 11.5q33 4 102 4q-4 -132 -4 -285v-680q-12 -8 -51.5 -15t-61.5 -7q-28 0 -57 37q-10 12 -83 100.5t-139 172.5t-132 175
q-65 101 -193 293q8 -154 8 -324v-405q0 -25 -7.5 -32.5t-29.5 -12.5q-38 -7 -98 -4q4 66 4 287zM485 1309q64 0 115 -68q3 -4 9.5 -11.5t9.5 -10.5t8 -9t8 -8.5t7 -6t7 -4.5t6 -1q34 0 50 98q6 21 20 21q13 0 35.5 -8.5t36.5 -20.5q-22 -211 -142 -211q-9 0 -18 2t-15 4
t-15 8.5t-13.5 9t-14 12.5t-12.5 13t-14.5 15.5t-13.5 15.5q-36 45 -58 45q-30 -2 -57 -94q-3 -23 -16 -23q-40 0 -78 19q26 213 155 213z" />
    <glyph glyph-name="oacute.sc" horiz-adv-x="1136" 
d="M575 991q223 0 361.5 -135t138.5 -358q0 -109 -33.5 -203t-96 -166t-160.5 -113t-220 -41q-107 0 -194.5 29.5t-144.5 78t-95.5 113.5t-55 133.5t-16.5 141.5q0 225 143.5 372.5t372.5 147.5zM555 885q-143 0 -231 -111t-88 -293q0 -185 98.5 -292t243.5 -107
q149 0 236 104t87 297q0 184 -95 293t-251 109zM741 1378q23 -7 48 -28t40 -43q12 -20 -16 -37q-111 -75 -270 -205q-21 10 -41 43q-9 15 16 49q60 76 130 150.5t93 70.5z" />
    <glyph glyph-name="ocircumflex.sc" horiz-adv-x="1136" 
d="M575 991q223 0 361.5 -135t138.5 -358q0 -109 -33.5 -203t-96 -166t-160.5 -113t-220 -41q-107 0 -194.5 29.5t-144.5 78t-95.5 113.5t-55 133.5t-16.5 141.5q0 225 143.5 372.5t372.5 147.5zM555 885q-143 0 -231 -111t-88 -293q0 -185 98.5 -292t243.5 -107
q149 0 236 104t87 297q0 184 -95 293t-251 109zM424 1079q-45 0 -84 27q15 23 42 62t43 62.5t37 57t38 62.5q17 26 37 30q60 6 61 6q71 -115 178 -276q-47 -31 -84 -31q-19 0 -33 17q-13 22 -47.5 75t-54.5 84q-28 -45 -106 -161q-15 -15 -27 -15z" />
    <glyph glyph-name="odieresis.sc" horiz-adv-x="1136" 
d="M575 991q223 0 361.5 -135t138.5 -358q0 -109 -33.5 -203t-96 -166t-160.5 -113t-220 -41q-107 0 -194.5 29.5t-144.5 78t-95.5 113.5t-55 133.5t-16.5 141.5q0 225 143.5 372.5t372.5 147.5zM555 885q-143 0 -231 -111t-88 -293q0 -185 98.5 -292t243.5 -107
q149 0 236 104t87 297q0 184 -95 293t-251 109zM739 1298q39 0 63.5 -27.5t24.5 -66.5q0 -47 -26.5 -73.5t-69.5 -26.5q-35 0 -62.5 24t-27.5 70q0 43 26 71.5t72 28.5zM408 1298q38 0 63 -27.5t25 -66.5q0 -46 -27 -73t-70 -27q-36 0 -63 24t-27 70q0 43 26.5 71.5
t72.5 28.5z" />
    <glyph glyph-name="ograve.sc" horiz-adv-x="1136" 
d="M575 991q223 0 361.5 -135t138.5 -358q0 -109 -33.5 -203t-96 -166t-160.5 -113t-220 -41q-107 0 -194.5 29.5t-144.5 78t-95.5 113.5t-55 133.5t-16.5 141.5q0 225 143.5 372.5t372.5 147.5zM555 885q-143 0 -231 -111t-88 -293q0 -185 98.5 -292t243.5 -107
q149 0 236 104t87 297q0 184 -95 293t-251 109zM420 1393q22 6 102.5 -78.5t122.5 -149.5q22 -28 6 -47q-20 -28 -41 -39q-165 138 -270 205q-21 11 -4 39q40 62 84 70z" />
    <glyph glyph-name="otilde.sc" horiz-adv-x="1136" 
d="M575 991q223 0 361.5 -135t138.5 -358q0 -109 -33.5 -203t-96 -166t-160.5 -113t-220 -41q-107 0 -194.5 29.5t-144.5 78t-95.5 113.5t-55 133.5t-16.5 141.5q0 225 143.5 372.5t372.5 147.5zM555 885q-143 0 -231 -111t-88 -293q0 -185 98.5 -292t243.5 -107
q149 0 236 104t87 297q0 184 -95 293t-251 109zM479 1319q63 0 115 -70q42 -49 55 -49q33 0 49 96q6 23 21 23q13 0 35.5 -9t36.5 -22q-21 -209 -142 -209q-23 0 -45 12.5t-33.5 24t-38.5 41.5q-36 45 -57 45q-30 -2 -57 -94q-4 -21 -17 -21q-32 0 -77 17q7 56 21.5 100.5
t49 79.5t84.5 35z" />
    <glyph glyph-name="uacute.sc" horiz-adv-x="1110" 
d="M295 891v-420q0 -90 16.5 -160t42.5 -112t63 -68.5t73.5 -36.5t78.5 -10q135 0 204 88.5t69 306.5v451q0 24 9 32.5t26 10.5q29 6 114 6q-8 -84 -8 -285v-200q0 -128 -26 -224t-67 -151t-100.5 -88.5t-116 -44.5t-124.5 -11q-193 0 -304.5 116t-111.5 360v315
q0 129 -4 203q42 10 137 10q19 0 24 -16t5 -72zM725 1362q22 -6 48 -27.5t40 -44.5q6 -10 3 -18.5t-19 -16.5q-132 -89 -271 -206q-22 11 -41 45q-11 11 17 49q64 79 132 151t91 68z" />
    <glyph glyph-name="ucircumflex.sc" horiz-adv-x="1110" 
d="M295 891v-420q0 -90 16.5 -160t42.5 -112t63 -68.5t73.5 -36.5t78.5 -10q135 0 204 88.5t69 306.5v451q0 24 9 32.5t26 10.5q29 6 114 6q-8 -84 -8 -285v-200q0 -128 -26 -224t-67 -151t-100.5 -88.5t-116 -44.5t-124.5 -11q-193 0 -304.5 116t-111.5 360v315
q0 129 -4 203q42 10 137 10q19 0 24 -16t5 -72zM420 1081q-45 0 -84 27q15 23 42 62t43 62.5t37 57t38 62.5q9 15 16 21t20 9q5 0 28 3.5t34 3.5q37 -60 178 -277q-46 -31 -84 -31q-19 0 -33 17q-13 22 -47.5 75t-54.5 84q-15 -25 -107 -161q-15 -15 -26 -15z" />
    <glyph glyph-name="udieresis.sc" horiz-adv-x="1110" 
d="M295 891v-420q0 -90 16.5 -160t42.5 -112t63 -68.5t73.5 -36.5t78.5 -10q135 0 204 88.5t69 306.5v451q0 24 9 32.5t26 10.5q29 6 114 6q-8 -84 -8 -285v-200q0 -128 -26 -224t-67 -151t-100.5 -88.5t-116 -44.5t-124.5 -11q-193 0 -304.5 116t-111.5 360v315
q0 129 -4 203q42 10 137 10q19 0 24 -16t5 -72zM743 1298q38 0 62 -27.5t24 -66.5q0 -47 -25.5 -73.5t-70.5 -26.5q-35 0 -61.5 24t-26.5 70q0 44 25.5 72t72.5 28zM410 1298q38 0 64 -27.5t26 -66.5q0 -46 -27 -73t-70 -27q-37 0 -63.5 24t-26.5 70q0 43 26.5 71.5
t70.5 28.5z" />
    <glyph glyph-name="ugrave.sc" horiz-adv-x="1110" 
d="M295 891v-420q0 -90 16.5 -160t42.5 -112t63 -68.5t73.5 -36.5t78.5 -10q135 0 204 88.5t69 306.5v451q0 24 9 32.5t26 10.5q29 6 114 6q-8 -84 -8 -285v-200q0 -128 -26 -224t-67 -151t-100.5 -88.5t-116 -44.5t-124.5 -11q-193 0 -304.5 116t-111.5 360v315
q0 129 -4 203q42 10 137 10q19 0 24 -16t5 -72zM406 1401q22 6 102 -77.5t125 -149.5q19 -27 4 -48q-21 -30 -39 -39q-169 141 -270 205q-23 10 -6 39q44 62 84 70z" />
    <glyph glyph-name="yacute.sc" horiz-adv-x="903" 
d="M369 20v398q0 31 -17 61q-30 54 -80 123q-192 281 -247 352v7q21 6 70.5 12t74.5 6q19 0 31 -9.5t35 -43.5q42 -62 237 -359q35 48 95.5 139.5t117 177.5t62.5 95q75 0 104 -10q16 -5 21 -12t2 -15t-13 -22q-34 -45 -162.5 -227.5t-144.5 -207.5q-23 -30 -23 -65v-227
q0 -109 5 -191q-58 -10 -134 -10q-19 0 -26.5 5t-7.5 23zM645 1350q22 -7 48 -29t40 -43q6 -10 3 -18.5t-19 -16.5q-126 -85 -271 -207q-19 10 -40 43q-12 15 16 49q61 77 130.5 151.5t92.5 70.5z" />
    <glyph glyph-name="ydieresis.sc" horiz-adv-x="903" 
d="M369 20v398q0 31 -17 61q-30 54 -80 123q-192 281 -247 352v7q21 6 70.5 12t74.5 6q19 0 31 -9.5t35 -43.5q42 -62 237 -359q35 48 95.5 139.5t117 177.5t62.5 95q75 0 104 -10q16 -5 21 -12t2 -15t-13 -22q-34 -45 -162.5 -227.5t-144.5 -207.5q-23 -30 -23 -65v-227
q0 -109 5 -191q-58 -10 -134 -10q-19 0 -26.5 5t-7.5 23zM629 1292q38 0 62 -27.5t24 -66.5q0 -46 -26.5 -72t-70.5 -26q-35 0 -61.5 24t-26.5 70q0 43 25.5 70.5t73.5 27.5zM295 1292q38 0 64 -27.5t26 -66.5q0 -45 -26.5 -71.5t-69.5 -26.5q-37 0 -63.5 24t-26.5 70
q0 43 25 70.5t71 27.5z" />
    <glyph glyph-name="longs" horiz-adv-x="440" 
d="M305 850q-1 -184 2.5 -487.5t3.5 -358.5q-56 -16 -145 -16q-15 0 -20 5.5t-5 24.5q2 97 2 217t-1 284.5t-1 266.5q-61 3 -83.5 12t-22.5 29q23 32 106 68q0 161 35.5 261t106.5 165q92 84 229 84q38 0 74 -11.5t53 -29.5q8 -30 -14.5 -62.5t-51.5 -21.5q-27 12 -69 12
q-60 0 -99.5 -29.5t-61 -91t-29.5 -136.5t-9 -185z" />
    <glyph glyph-name="acute.sc" horiz-adv-x="819" 
d="M594 1362q23 -6 48 -27t40 -45q7 -10 4.5 -18.5t-20.5 -16.5q-110 -74 -271 -206q-17 10 -41 45q-10 13 17 49q62 76 131.5 149.5t91.5 69.5z" />
    <glyph glyph-name="cedilla.sc" horiz-adv-x="843" 
d="M418 8h100l-76 -110q66 -14 102 -56t36 -96q0 -79 -77 -134t-171 -65q-19 4 -32 25t-13 37q0 17 18 22q144 35 144 101q0 39 -45.5 58.5t-108.5 19.5v22z" />
    <glyph glyph-name="dieresis.sc" horiz-adv-x="819" 
d="M582 1298q38 0 62 -27.5t24 -66.5q0 -47 -26 -73.5t-71 -26.5q-35 0 -61.5 24t-26.5 70q0 43 25.5 71.5t73.5 28.5zM248 1298q38 0 64 -27.5t26 -66.5q0 -47 -26.5 -73.5t-69.5 -26.5q-37 0 -63.5 24t-26.5 70q0 43 25.5 71.5t70.5 28.5z" />
    <glyph glyph-name="grave.sc" horiz-adv-x="819" 
d="M229 1364q20 6 101 -78t125 -149q20 -28 4 -47q-17 -28 -39 -39q-164 137 -270 204q-21 11 -7 39q44 62 86 70z" />
    <glyph glyph-name="macron.sc" horiz-adv-x="819" 
d="M586 1124h-365q-24 0 -24 25q0 24 11 54.5t19 37.5h371q23 0 23 -18q0 -20 -12 -53.5t-23 -45.5z" />
    <glyph glyph-name="tilde.sc" horiz-adv-x="819" 
d="M332 1325q60 0 114 -68q38 -51 56 -51q30 0 47 99q3 11 7.5 15.5t14.5 4.5q12 0 33.5 -8.5t36.5 -20.5q-18 -211 -141 -211q-22 0 -44.5 13.5t-33.5 25t-39 41.5q-21 26 -32 35.5t-25 9.5q-33 -3 -56 -94q-3 -22 -16 -22q-17 0 -42 6t-36 12q4 41 13.5 75.5t27 67
t47 51.5t68.5 19z" />
    <glyph glyph-name="zero.oldstyle" horiz-adv-x="1073" 
d="M551 920q78 0 152.5 -27t140.5 -81t106.5 -148t40.5 -215q0 -96 -25 -175t-68 -133.5t-101.5 -92.5t-123.5 -55.5t-136 -17.5q-128 0 -229 51.5t-163.5 159t-62.5 256.5q0 135 56 243t164 171.5t249 63.5zM539 809q-137 0 -215 -98.5t-78 -251.5q0 -164 81 -268.5
t216 -104.5q139 0 211.5 100t72.5 263q0 170 -84 265t-204 95z" />
    <glyph glyph-name="egrave.superior" horiz-adv-x="624" 
d="M236 1520q19 3 77 -77t90 -143q13 -25 -2 -40q-20 -23 -36 -29q-136 146 -207 207q-17 10 -2 35q44 44 80 47zM547 698l4 -4q-4 -31 -21 -58.5t-34 -39.5q-60 -33 -144 -33q-141 0 -220 78.5t-79 220.5q0 128 75 218.5t212 90.5q106 0 169.5 -66t65.5 -157q0 -3 -6 -45
q-6 -25 -104 -43q-53 -6 -279 -6q0 -87 54 -137.5t147 -50.5q90 0 160 32zM328 1090q-59 0 -95 -42t-45 -116q58 -1 97 -0.5t81 1.5t50 1q35 0 35 31q2 53 -33 89t-90 36z" />
    <glyph glyph-name="g.superior" horiz-adv-x="679" 
d="M324 1176q53 0 110 -13q66 -16 98 -16q62 0 109 14q2 -6 2 -24q0 -64 -61 -70q-33 0 -56 -2q27 -37 27 -92q0 -95 -70 -148t-168 -53q-39 0 -55 4q-31 -22 -31 -39q0 -36 70 -41q159 -5 184 -8q85 -6 123.5 -48.5t38.5 -104.5q0 -70 -49 -124t-123 -81t-158 -27
q-130 0 -201 50.5t-71 121.5q0 76 135 139q-39 12 -60.5 41.5t-23.5 59.5q0 9 10 14q62 37 82 62q-118 48 -118 174q0 92 73.5 151.5t182.5 59.5zM313 1106q-53 0 -84.5 -34.5t-31.5 -96.5q0 -61 31 -95t87 -34q57 0 86 35.5t29 91.5q0 59 -27.5 96t-89.5 37zM168 496
q0 -48 51 -76.5t127 -28.5q84 0 134 31.5t50 81.5q0 33 -22.5 53.5t-83.5 26.5q-84 9 -145 6q-19 0 -39 -8q-31 -15 -51.5 -37.5t-20.5 -48.5z" />
    <glyph glyph-name="one.oldstyle" horiz-adv-x="638" 
d="M475 920l6 -9v-864q0 -31 -13 -41.5t-52 -13.5l-103 -6q6 246 6 311v442q-38 -13 -136 -34.5t-138 -24.5l-4 8l53 96q101 28 222.5 71.5t158.5 64.5z" />
    <glyph glyph-name="two.oldstyle" horiz-adv-x="813" 
d="M68 8l-7 12q28 58 52 82q210 164 302.5 287.5t92.5 226.5q0 80 -46.5 124t-123.5 44q-95 0 -188 -73q-26 -21 -43.5 -19.5t-32.5 25.5q-6 12 -12 29l-5 16q36 51 132 104.5t192 53.5q140 0 215.5 -78t75.5 -203q0 -55 -19 -108t-46.5 -95.5t-77 -94t-92.5 -90t-110 -96.5
q-27 -22 -40 -34q93 -5 491 0q-9 -40 -32.5 -71.5t-47.5 -39.5q-46 -16 -194 -16h-60.5h-60h-54t-54.5 0.5t-48 1t-47 1.5t-40.5 2.5t-39.5 3.5t-32 5z" />
    <glyph glyph-name="three.oldstyle" horiz-adv-x="790" 
d="M186 297l-2 6q1 18 16.5 50.5t26.5 43.5q125 22 188.5 84t63.5 158q0 67 -45.5 110.5t-118.5 43.5q-39 0 -85.5 -17.5t-79.5 -42.5q-49 -36 -74 12q-10 19 -13 43q48 55 132.5 93.5t169.5 38.5q125 0 196.5 -71.5t71.5 -172.5q0 -172 -182 -273q128 -29 195 -107t67 -177
q0 -158 -123 -258.5t-305 -100.5q-66 0 -122.5 13.5t-80.5 36.5q-17 16 -26 45t-9 55l4 2q110 -43 207 -43q130 0 205.5 63.5t75.5 176.5q0 95 -64.5 146.5t-183.5 51.5q-57 0 -105 -10z" />
    <glyph glyph-name="four.oldstyle" horiz-adv-x="980" 
d="M739 920l4 -7v-700q114 0 179 10l2 -4q-13 -54 -54 -92q-40 -15 -127 -21v-280q0 -20 -8.5 -29.5t-29.5 -17.5q-50 -14 -121 -19l-4 2q10 190 10 344q-119 -2 -264 4.5t-211 16.5q-14 8 -30.5 31.5t-16.5 36.5q86 149 246.5 368t234.5 293q34 19 88 38t102 26zM592 213
q0 51 4 281t4 276q-49 -53 -157 -203t-220 -336q77 -18 369 -18z" />
    <glyph glyph-name="five.oldstyle" horiz-adv-x="788" 
d="M100 360l-12 21q13 108 47.5 279t54.5 231q62 -2 249 8.5t235 20.5l2 -5q-15 -72 -45 -100q-30 -29 -100.5 -40t-251.5 -17q-35 -125 -54 -281q7 -1 42 -8t58 -11.5t59 -14t67 -19.5q123 -41 187 -115t64 -192q0 -104 -57.5 -186.5t-153.5 -126.5t-210 -44
q-117 0 -175 35q-16 9 -33 39t-18 64l4 4q27 -11 85.5 -23t107.5 -12q134 0 210.5 62t76.5 167q0 84 -51 134.5t-148 80.5q-46 13 -91.5 22.5t-91.5 17t-57 9.5z" />
    <glyph glyph-name="six.oldstyle" horiz-adv-x="960" 
d="M356 545l-8 8q4 24 20 54t40 46q68 37 159 37q142 0 227 -95t85 -228q0 -180 -115.5 -286t-278.5 -106q-103 0 -182.5 37.5t-126.5 102.5t-70.5 145t-23.5 172q0 134 47.5 261.5t146.5 228.5q102 104 242.5 160.5t274.5 56.5q35 0 53 -6q13 -4 28.5 -25.5t18.5 -56.5
l-2 -4h-39q-68 0 -144 -19t-157.5 -65t-146 -113.5t-106.5 -175t-42 -238.5q0 -81 16 -145.5t41.5 -103.5t59 -64.5t65.5 -35t64 -9.5q90 0 152.5 65t62.5 195q0 115 -66 176t-151 61q-69 0 -144 -30z" />
    <glyph glyph-name="seven.oldstyle" horiz-adv-x="892" 
d="M815 897l4 -6q-12 -114 -80 -286t-155 -330.5t-174.5 -291t-141.5 -184.5q-25 -22 -44 -30.5t-48 -8.5q-61 0 -78 25q155 163 329.5 470.5t231.5 518.5q-96 -2 -464 -2q-70 0 -97.5 7t-27.5 24t23.5 54t45.5 54q23 -10 55.5 -12t131.5 -2h489z" />
    <glyph glyph-name="eight.oldstyle" horiz-adv-x="903" 
d="M467 1139q76 0 137 -25t97.5 -65t55.5 -87t19 -96t-16 -91.5t-46.5 -76.5t-60.5 -58t-73 -52q130 -71 184.5 -141t54.5 -162q0 -95 -55 -167.5t-139 -107.5t-181 -35q-80 0 -144 19t-103 48.5t-65 69t-36 77.5t-10 77q0 51 18 94t55.5 79.5t66.5 58t79 54.5q9 6 14 9
q-91 53 -138.5 124.5t-47.5 148.5q0 135 97.5 220t236.5 85zM457 1040q-74 0 -123 -50t-49 -122q0 -75 53 -126.5t160 -106.5q137 100 137 219q0 84 -54 135t-124 51zM457 78q89 0 143.5 47t54.5 133q0 63 -52 121t-197 131q-89 -57 -126.5 -111.5t-37.5 -119.5
q0 -84 61.5 -142.5t153.5 -58.5z" />
    <glyph glyph-name="nine.oldstyle" horiz-adv-x="940" 
d="M76 -154l2 4q93 6 178.5 31.5t165 76t138 120.5t93.5 173.5t35 227.5q0 144 -58.5 242t-170.5 98q-94 0 -152.5 -75t-58.5 -187q0 -100 58 -169t165 -69q65 0 125 27q-3 -87 -68 -117q-41 -20 -125 -20q-147 0 -235 89t-88 239q0 163 114 273t281 110q96 0 171 -35.5
t121 -97.5t69.5 -141t23.5 -171q0 -358 -260 -559q-108 -85 -217 -120.5t-195 -35.5q-36 0 -68.5 22.5t-43.5 63.5z" />
    <glyph glyph-name="dollar.oldstyle" horiz-adv-x="845" 
d="M530 1092l-18 -138q54 -6 109 -29t81 -46q-5 -43 -24 -66q-26 -33 -72 -12q-92 43 -172 43q-72 0 -116 -33t-44 -82q0 -56 43 -92t162 -92q33 -15 52 -24t49 -25.5t47.5 -30.5t38.5 -34.5t32 -42t19 -49.5t8 -60q0 -63 -26 -113.5t-68 -80.5t-88 -47t-94 -22l-13 -120
q-3 -27 -33 -33q-56 -9 -100 -6l19 155q-63 5 -133 33t-115 68q0 29 24 69q10 19 28 24.5t32 -3.5q131 -74 235 -74q78 0 124 30.5t46 90.5q1 51 -45 91t-149 85q-137 60 -193.5 120t-56.5 154q0 62 26 111t68 77.5t85.5 44.5t88.5 21l10 88q6 32 33 41q44 12 100 9z" />
    <glyph glyph-name="cent.oldstyle" horiz-adv-x="851" 
d="M592 1047l-19 -150q132 -9 189 -66q0 -32 -25 -63q-24 -29 -67 -12q-67 26 -125 26q-63 0 -113 -19.5t-80.5 -49t-51 -68.5t-28.5 -75t-8 -70q0 -62 16 -112t43 -83.5t63.5 -55.5t75.5 -32t81 -10q110 0 205 39q0 -38 -18.5 -76.5t-41.5 -50.5q-72 -35 -172 -35l-14 -127
q-3 -27 -14 -39.5t-37 -13.5l-84 -6l24 196q-26 6 -51 15.5t-61.5 27.5t-66.5 47t-57.5 68t-43 96.5t-15.5 126.5q0 86 28 157.5t68 115t92.5 76.5t92.5 47.5t76 21.5l10 102q3 24 19.5 34.5t58.5 14.5z" />
    <glyph glyph-name="percent.oldstyle" horiz-adv-x="1349" 
d="M1098 1073q-95 -134 -353.5 -514.5t-408.5 -605.5q-9 -14 -16 -19t-12 -3.5t-13 8.5q-34 26 -41 59q155 226 435.5 640t330.5 492q8 14 15.5 13t23.5 -15q31 -24 39 -55zM332 1098q129 0 196.5 -94.5t67.5 -243.5q0 -139 -70 -239.5t-198 -100.5q-117 0 -192 84.5
t-75 247.5q0 62 16 121.5t47.5 110.5t85.5 82.5t122 31.5zM328 1016q-70 0 -105 -72.5t-35 -187.5q0 -107 36 -182.5t106 -75.5t103.5 71.5t33.5 194.5q0 44 -7 86t-22.5 80.5t-43.5 62t-66 23.5zM1032 653q127 0 191.5 -96.5t64.5 -245.5q0 -138 -70 -237t-194 -99
q-54 0 -100.5 18t-85 55.5t-60.5 102.5t-22 152q0 65 17 126t49.5 112t87 81.5t122.5 30.5zM1022 573q-66 0 -101.5 -76.5t-35.5 -189.5q0 -107 34.5 -179.5t104.5 -72.5q137 0 137 258q0 260 -139 260z" />
    <glyph glyph-name="zero.fitted" horiz-adv-x="917" 
d="M469 1233q72 0 130.5 -23t98.5 -60.5t70 -91.5t47 -108.5t27.5 -119.5t14 -117t3.5 -107q0 -319 -106 -475t-297 -156q-63 0 -118 17.5t-108.5 62t-91.5 114t-61 181t-23 254.5q0 84 11.5 166t41.5 167.5t75 149.5t119 105t167 41zM455 1135q-33 0 -62.5 -12.5t-60.5 -48
t-53.5 -92t-37 -151.5t-14.5 -219q0 -121 14.5 -216t37.5 -154.5t55.5 -98t65 -54t69.5 -15.5q33 0 60.5 10.5t58.5 45t51.5 92t34.5 159t14 237.5q0 98 -11 183.5t-36 164t-72.5 124t-113.5 45.5z" />
    <glyph glyph-name="one.fitted" horiz-adv-x="917" 
d="M610 1233l21 -12q0 -65 3 -575t3 -597q0 -29 -10.5 -38.5t-36.5 -14.5q-78 -8 -127 -8q0 1 1 380.5t1 700.5q-139 -58 -322 -108l-4 6l45 98q355 133 426 168z" />
    <glyph glyph-name="two.fitted" horiz-adv-x="917" 
d="M82 27l37 69q278 297 381.5 456.5t103.5 303.5q0 118 -59 182t-154 64q-69 0 -132 -31.5t-103 -71.5q-23 -17 -35 -15.5t-23 17.5q-4 5 -6.5 15.5t-5.5 24.5t-4 18q60 85 158 129.5t200 44.5q84 0 150.5 -29t106.5 -79.5t60.5 -113t20.5 -134.5q0 -152 -110 -312
q-117 -171 -379 -438q244 -15 569 0q-6 -32 -31 -67t-47 -44q-39 -24 -209 -24q-381 0 -483 20z" />
    <glyph glyph-name="three.fitted" horiz-adv-x="917" 
d="M86 92l4 4q115 -47 238 -47q90 0 155 23t100.5 64t51.5 89t16 107q0 111 -76.5 172t-220.5 61q-27 0 -71 -4t-47 -4l-3 2q4 24 25 59t35 44q289 49 289 258q0 81 -51 133.5t-142 52.5q-51 0 -104.5 -22t-91.5 -54q-50 -33 -66 -10t-16 67q41 55 132.5 100.5t180.5 45.5
q75 0 134 -20t94 -49.5t58 -68t31.5 -71.5t8.5 -63q0 -199 -222 -297q157 -32 230 -115.5t73 -204.5q0 -186 -134.5 -295.5t-350.5 -109.5q-75 0 -135 15t-80 32q-20 20 -32.5 49.5t-12.5 56.5z" />
    <glyph glyph-name="four.fitted" horiz-adv-x="917" 
d="M772 1270l4 -10q-154 -175 -309 -388t-266 -405q178 -24 366 -21l8 349q23 14 71.5 27t82.5 16l6 -7v-385q73 0 144 9l2 -4q-15 -63 -70 -101q-13 -5 -42 -8t-34 -4v-289q0 -26 -9.5 -36t-35.5 -15q-51 -10 -133 -10q8 320 8 350q-140 0 -283 8t-200 21q-12 7 -26 27
t-17 38q88 154 275 417.5t257 332.5q41 32 99 57t102 31z" />
    <glyph glyph-name="five.fitted" horiz-adv-x="917" 
d="M127 631l-6 8q16 113 58.5 317.5t62.5 253.5q67 0 271 11t247 18l2 -4q-17 -77 -51 -107q-25 -23 -93 -31t-290 -18q-11 -37 -36.5 -159t-31.5 -168q134 -19 260 -52q160 -44 238 -125.5t78 -216.5q0 -187 -140 -303t-348 -116q-131 0 -180 34q-18 15 -29.5 43t-11.5 56
l2 2q85 -29 195 -29q150 0 244 72.5t94 214.5q-1 98 -59 152.5t-167 86.5q-134 41 -309 60z" />
    <glyph glyph-name="six.fitted" horiz-adv-x="917" 
d="M846 1208l-2 -6q-291 -54 -449 -235q-81 -90 -124.5 -217t-43.5 -271q0 -201 73 -303t185 -102q94 0 155.5 71t61.5 205q0 61 -14 107.5t-35.5 74t-51.5 45t-58 23.5t-58 6q-91 0 -192 -71q-3 21 7 54.5t28 47.5q46 42 110 66t123 24q69 0 124 -22.5t88.5 -57.5t55.5 -81
t30.5 -89.5t8.5 -85.5q0 -111 -47 -204.5t-140.5 -152.5t-217.5 -59q-65 0 -123.5 16t-112.5 53.5t-93 93.5t-62 143t-23 196q0 294 191 516q63 75 143 132.5t151.5 87t125 43.5t85.5 14q78 0 101 -62z" />
    <glyph glyph-name="seven.fitted" horiz-adv-x="917" 
d="M848 1208l6 -4q-12 -133 -122 -401t-226.5 -490t-165.5 -278q-23 -26 -43 -37.5t-51 -17.5q-56 -9 -90 -9l-2 6q132 174 306.5 527.5t233.5 572.5h-491q-82 0 -112 9.5t-25 33.5q5 22 29 55.5t50 51.5q31 -19 168 -19h535z" />
    <glyph glyph-name="eight.fitted" horiz-adv-x="917" 
d="M473 1233q148 0 239 -83t91 -204q0 -55 -16 -100t-50.5 -83t-68.5 -64.5t-88 -61.5q60 -34 89 -51.5t71.5 -50t62 -61t34.5 -71.5t15 -94q0 -140 -112 -237t-289 -97q-88 0 -157.5 20.5t-111 52.5t-69 74t-37.5 80.5t-10 76.5q0 46 15 86.5t36.5 70.5t59.5 61.5
t70.5 52.5t82.5 50q-114 61 -163.5 136t-49.5 175q0 129 99.5 225.5t256.5 96.5zM457 1135q-81 0 -137 -52t-56 -145q0 -87 55 -141t179 -115q155 114 155 248q0 92 -52.5 148.5t-143.5 56.5zM465 74q99 0 162 55.5t63 155.5q0 75 -61 132t-215 132q-94 -58 -141.5 -117.5
t-47.5 -136.5q0 -100 70 -160.5t170 -60.5z" />
    <glyph glyph-name="nine.fitted" horiz-adv-x="917" 
d="M117 6l2 4q57 11 118 31t139.5 64t129.5 100q172 183 172 508q0 187 -61.5 304.5t-178.5 117.5q-95 0 -152 -79.5t-57 -199.5q0 -132 66.5 -199t167.5 -67q50 0 135 37q2 -20 -6.5 -49.5t-24.5 -45.5q-22 -22 -73 -37.5t-111 -15.5q-152 0 -238 99.5t-86 250.5
q0 76 27 148t76 129.5t126 92t169 34.5q84 0 152.5 -29.5t114 -78.5t76 -116t43.5 -139.5t13 -150.5q0 -357 -240 -586q-73 -70 -163 -117.5t-147 -62t-91 -14.5q-44 0 -59 10q-25 20 -39 57z" />
    <glyph glyph-name="zero.taboldstyle" horiz-adv-x="909" 
d="M465 920q71 0 137 -27t122 -81.5t90 -148t34 -214.5q0 -119 -31.5 -211.5t-86.5 -149t-124.5 -85t-150.5 -28.5q-183 0 -289.5 120t-106.5 345q0 135 45 242t138.5 172.5t222.5 65.5zM455 809q-118 0 -176 -97.5t-58 -252.5q0 -166 62 -269.5t178 -103.5q60 0 104.5 27.5
t70.5 77.5t38 114t12 144q0 165 -65 262.5t-166 97.5z" />
    <glyph glyph-name="one.taboldstyle" horiz-adv-x="909" 
d="M580 920l8 -9v-864q0 -31 -14 -41.5t-54 -13.5l-102 -6q6 246 6 311v442q-36 -13 -134 -34.5t-140 -24.5l-5 8l54 96q101 28 222.5 71.5t158.5 64.5z" />
    <glyph glyph-name="two.taboldstyle" horiz-adv-x="909" 
d="M111 8l-7 12q26 54 50 82q211 164 304 287.5t93 226.5q0 80 -46.5 124t-123.5 44q-95 0 -188 -73q-28 -21 -44.5 -19.5t-31.5 25.5q-13 27 -17 45q36 51 131.5 104.5t192.5 53.5q138 0 214.5 -78.5t76.5 -202.5q0 -68 -25 -130t-80 -125t-106 -110t-139 -122
q-8 -7 -12.5 -10.5t-11.5 -9.5t-13 -11q94 -5 493 0q-9 -40 -32.5 -71.5t-47.5 -39.5q-46 -16 -194 -16h-60.5h-60h-54t-54.5 0.5t-48 1t-47 1.5t-40.5 2.5t-39.5 3.5t-32 5z" />
    <glyph glyph-name="three.taboldstyle" horiz-adv-x="909" 
d="M238 297l-2 6q1 18 16.5 50.5t26.5 43.5q123 22 186 84t63 158q0 67 -44.5 110.5t-116.5 43.5q-41 0 -87 -17.5t-79 -42.5q-50 -37 -76 12q-2 7 -6.5 23t-5.5 20q48 55 133 93.5t168 38.5q125 0 197.5 -71.5t72.5 -172.5q0 -172 -182 -273q127 -30 193.5 -107.5
t66.5 -176.5q0 -158 -122 -258.5t-304 -100.5q-66 0 -122.5 13.5t-80.5 36.5q-17 16 -26 45t-9 55l2 2q114 -43 209 -43q129 0 204 63.5t75 176.5q0 95 -64 146.5t-184 51.5q-57 0 -102 -10z" />
    <glyph glyph-name="four.taboldstyle" horiz-adv-x="909" 
d="M705 920l4 -7v-700q112 0 180 10l2 -4q-17 -57 -55 -92q-40 -15 -127 -21v-280q0 -21 -8.5 -30t-30.5 -17q-50 -14 -121 -19l-4 2q10 190 10 344q-119 -2 -261 4.5t-208 16.5q-13 7 -29 30.5t-18 37.5q89 150 248.5 371t228.5 290q32 19 86.5 38t102.5 26zM557 213
q0 51 4 281t4 276q-42 -45 -149.5 -200t-218.5 -339q74 -18 360 -18z" />
    <glyph glyph-name="five.taboldstyle" horiz-adv-x="909" 
d="M160 360l-13 21q13 108 48 279t55 231q62 -2 248.5 8.5t234.5 20.5l2 -5q-15 -70 -47 -100q-29 -29 -100 -40t-250 -17q-37 -131 -55 -281q163 -32 227 -53q123 -41 186.5 -115t63.5 -192q0 -156 -123 -256.5t-299 -100.5q-114 0 -172 35q-16 9 -33.5 39.5t-17.5 63.5
l2 4q30 -11 87 -23t105 -12q135 0 212 62t77 167q0 84 -51.5 134.5t-147.5 80.5q-46 13 -91 22.5t-91 17t-57 9.5z" />
    <glyph glyph-name="six.taboldstyle" horiz-adv-x="909" 
d="M340 545l-8 8q2 23 18.5 53.5t40.5 46.5q65 37 152 37q142 0 226.5 -95t84.5 -228q0 -180 -113 -286t-276 -106q-104 0 -183.5 37t-126 101.5t-69.5 144.5t-23 174q0 134 48 262.5t147 229.5q102 103 237 159t269 56q37 0 53 -6q13 -4 29 -25.5t20 -56.5l-2 -4h-39
q-48 0 -100.5 -9.5t-110 -32t-111 -55.5t-102 -83t-84.5 -111t-57.5 -143.5t-21.5 -176.5q0 -101 23 -174.5t60.5 -111.5t77 -55t80.5 -17q91 0 152 64.5t61 195.5q0 116 -63 176.5t-148 60.5q-66 0 -141 -30z" />
    <glyph glyph-name="seven.taboldstyle" horiz-adv-x="909" 
d="M821 897l4 -6q-15 -150 -123.5 -390t-230.5 -435t-197 -267q-24 -22 -43.5 -30.5t-48.5 -8.5q-61 0 -78 25q155 162 330 470t234 519q-98 -2 -465 -2q-72 0 -99.5 7t-27.5 24t23.5 54t45.5 54q23 -10 55.5 -12t131.5 -2q27 0 140.5 -0.5t209 -0.5t139.5 1z" />
    <glyph glyph-name="eight.taboldstyle" horiz-adv-x="909" 
d="M467 1139q76 0 137 -25t98 -65t56.5 -87.5t19.5 -95.5q0 -49 -16 -91.5t-47.5 -76.5t-61.5 -58t-73 -52q130 -71 184.5 -141t54.5 -162q0 -95 -55 -167.5t-139 -107.5t-181 -35q-80 0 -143.5 19t-102.5 48.5t-64.5 69t-35.5 77.5t-10 77q0 66 38 125t72 85.5t105 73.5
q11 7 16 11q-91 52 -137.5 123.5t-46.5 149.5q0 135 96.5 220t235.5 85zM457 1040q-74 0 -123 -50t-49 -122q0 -75 53 -126.5t160 -106.5q139 102 139 219q0 83 -54.5 134.5t-125.5 51.5zM457 78q89 0 144.5 47.5t55.5 132.5q0 63 -53 121t-198 131q-88 -57 -125 -111.5
t-37 -119.5q0 -84 61 -142.5t152 -58.5z" />
    <glyph glyph-name="nine.taboldstyle" horiz-adv-x="909" 
d="M61 -154l2 4q93 6 178 31.5t164 76t136.5 120.5t92 173.5t34.5 227.5q0 93 -22.5 167.5t-75 123.5t-128.5 49q-95 0 -152 -74.5t-57 -187.5q0 -101 56.5 -169.5t163.5 -68.5q65 0 125 27q-3 -87 -68 -117q-41 -20 -119 -20q-147 0 -236 89t-89 239q0 163 112 273t279 110
q96 0 170.5 -35.5t120.5 -97.5t69 -141.5t23 -172.5q0 -356 -260 -557q-108 -86 -214.5 -121t-189.5 -35q-37 0 -70.5 23t-44.5 63z" />
    <glyph glyph-name="a.superior" horiz-adv-x="628" 
d="M600 662v-7q0 -47 -27 -69.5t-69 -22.5q-85 0 -111 74q-64 -71 -168 -74q-76 -1 -123 42t-47 112q0 35 13.5 64t38.5 49.5t50 35t60 25.5t54.5 16t47.5 11q53 10 70 12v31q0 55 -27.5 84.5t-80.5 29.5q-66 0 -140 -57q-21 -13 -40 -7t-25 33l-6 25q32 36 102.5 69
t136.5 33q105 0 156 -57.5t51 -152.5q0 -29 -1 -127t-1 -127q3 -23 17.5 -37.5t29.5 -14.5t39 7zM186 737q0 -34 25.5 -57t60.5 -23q36 0 64.5 16t40.5 42q10 23 10 51v92q-49 -6 -90.5 -17.5t-76 -39t-34.5 -64.5z" />
    <glyph glyph-name="b.superior" horiz-adv-x="727" 
d="M102 629v688q0 102 -10 147q83 19 115 19q18 0 23.5 -14t5.5 -72v-273q89 47 161 47q54 0 102.5 -17.5t87.5 -51t62 -88.5t23 -125q0 -96 -45 -165t-111 -108q-89 -53 -203 -53q-96 0 -182 35q-29 13 -29 31zM236 1042v-370q55 -19 102 -19q24 0 48.5 6.5t51 23t46.5 41
t33 65t13 90.5q0 93 -47 145.5t-127 52.5q-57 0 -120 -35z" />
    <glyph glyph-name="d.superior" horiz-adv-x="768" 
d="M494 1153v186q0 31 -7 125q69 19 117 19q14 0 18.5 -16t4.5 -70v-678q0 -62 80 -70v-6q-9 -35 -33 -56.5t-53 -21.5q-39 0 -71.5 24t-43.5 50q-87 -76 -191 -76q-103 0 -181.5 76.5t-78.5 208.5q0 166 135 262q86 61 203 61q56 0 101 -18zM494 713v346q-34 24 -107 24
t-131.5 -55t-58.5 -162q0 -93 50 -147.5t122 -54.5q68 0 125 49z" />
    <glyph glyph-name="e.superior" horiz-adv-x="624" 
d="M547 698l4 -4q-4 -31 -21 -58.5t-34 -39.5q-60 -33 -144 -33q-141 0 -220 78.5t-79 220.5q0 128 75 218.5t212 90.5q106 0 169.5 -66t65.5 -157q0 -3 -6 -45q-6 -25 -104 -43q-53 -6 -279 -6q0 -87 54 -137.5t147 -50.5q90 0 160 32zM328 1090q-59 0 -95 -42t-45 -116
q58 -1 97 -0.5t81 1.5t50 1q35 0 35 31q2 53 -33 89t-90 36z" />
    <glyph glyph-name="h.superior" horiz-adv-x="743" 
d="M246 985v-381q0 -20 -5 -25t-24 -8q-39 -4 -108 -4q4 90 4 248v500q0 97 -11 147q20 7 62.5 14t58.5 7q9 0 13.5 -4.5t7 -23.5t2.5 -58v-320q81 94 194 94q105 0 153 -66.5t48 -164.5v-192q0 -118 6 -170q-96 -11 -119 -11q-11 1 -14 4.5t-6 16.5v340q0 143 -115 143
q-45 0 -84.5 -24.5t-62.5 -61.5z" />
    <glyph glyph-name="i.superior" horiz-adv-x="337" 
d="M170 1466q33 0 51.5 -20.5t18.5 -52.5q0 -31 -19 -52.5t-53 -21.5q-31 0 -51.5 19.5t-20.5 52.5q0 35 23 55t51 20zM238 1081v-473q0 -17 -9 -24.5t-30 -10.5q-60 -8 -99 -8q4 110 4 211v223q0 77 -10 150q20 7 60.5 12.5t58.5 5.5q15 0 20 -15t5 -71z" />
    <glyph glyph-name="l.superior" horiz-adv-x="337" 
d="M236 1397v-789q0 -18 -6.5 -25t-26.5 -10q-60 -8 -105 -8q4 110 4 211v539q0 93 -8 147q20 7 62 14t57 7q9 0 13.5 -4.5t7 -23.5t2.5 -58z" />
    <glyph glyph-name="m.superior" horiz-adv-x="1114" 
d="M248 981v-371q0 -20 -7 -28t-26 -11q-21 -1 -41.5 -2t-34 -1.5t-28.5 -0.5q4 90 4 248v221q0 54 -41 68v8q39 59 86 59q32 0 55 -27t27 -73q39 45 91.5 72.5t108.5 27.5q126 0 174 -104q108 104 213 104q55 0 95.5 -19t62 -52t31.5 -71.5t10 -84.5v-196q0 -135 4 -170
q-102 -11 -117 -11q-12 1 -15 5t-5 16v340q0 145 -113 145q-42 0 -80.5 -27t-62.5 -65v-369q0 -19 -4.5 -27.5t-20.5 -11.5q-105 -6 -112 -6q2 66 2 232v127q0 147 -111 147q-43 0 -82 -27t-63 -65z" />
    <glyph glyph-name="n.superior" horiz-adv-x="743" 
d="M508 588v340q0 143 -115 143q-45 0 -84.5 -24.5t-62.5 -61.5v-381q0 -20 -5 -25t-24 -8q-39 -4 -108 -4q4 90 4 248v221q0 56 -41 70v4q33 61 84 61q31 0 56 -25.5t28 -68.5q37 41 91 67.5t109 26.5q105 0 153 -65.5t48 -163.5v-194q0 -118 6 -170q-96 -11 -119 -11
q-11 1 -14 4.5t-6 16.5z" />
    <glyph glyph-name="o.superior" horiz-adv-x="698" 
d="M356 1171q143 0 222 -84t79 -215q0 -138 -86.5 -223.5t-226.5 -85.5q-73 0 -132.5 25.5t-95.5 68t-55.5 94t-19.5 107.5q0 139 89.5 226t225.5 87zM346 1081q-69 0 -115.5 -57.5t-46.5 -155.5q0 -104 50.5 -159.5t115.5 -55.5q71 0 117.5 56.5t46.5 164.5q0 89 -43.5 148
t-124.5 59z" />
    <glyph glyph-name="r.superior" horiz-adv-x="507" 
d="M70 1106v4q11 28 32.5 44.5t47.5 16.5q31 0 58 -35.5t28 -93.5q72 129 167 129q22 0 43.5 -10t32.5 -24q2 -14 -5.5 -39t-20.5 -43q-19 -19 -37 -11q-39 13 -47 13q-58 0 -109 -84q-14 -32 -14 -80v-283q0 -19 -9 -27.5t-32 -11.5q-74 -4 -96 -4q4 90 4 248v215
q0 25 -14 48t-29 28z" />
    <glyph glyph-name="s.superior" horiz-adv-x="493" 
d="M268 1171q46 0 87.5 -13t62.5 -30q0 -30 -15 -57q-16 -24 -43 -10q-44 22 -98 22q-34 0 -58 -16t-24 -49q0 -50 60 -78q4 -2 47.5 -22t72.5 -35q89 -49 89 -138q0 -86 -66.5 -134t-165.5 -48q-52 0 -102 18t-74 44q0 34 18 55q19 22 45 6q54 -33 121 -33q51 0 77 19
t26 51q0 24 -15.5 43t-54.5 39q-62 25 -113 53q-86 53 -86 141q0 77 60 124.5t149 47.5z" />
    <glyph glyph-name="t.superior" horiz-adv-x="471" 
d="M444 690l5 -4q0 -53 -19 -74q-49 -49 -149 -49q-86 0 -126 46.5t-42 123.5v334q-31 1 -51.5 11.5t-20.5 21.5q8 15 35 41.5t58 53.5t34 30q37 33 86 37q0 -35 -4 -105q19 0 112 1t101 1q-10 -47 -29 -66.5t-49 -21.5q-27 -2 -137 -2q-8 -232 2 -328q7 -82 86 -82
q62 0 108 31z" />
    <glyph glyph-name="zero.superior" 
d="M289 1536q69 0 119 -29.5t76.5 -81.5t38.5 -111t12 -128q0 -46 -7 -88.5t-25.5 -85.5t-46 -74.5t-71.5 -51.5t-100 -20q-53 0 -96 21t-70 54.5t-45 77.5t-25.5 88t-7.5 89q0 67 14.5 126t43 108t77.5 77.5t113 28.5zM287 1450q-35 0 -60.5 -23.5t-38 -62.5t-18.5 -78.5
t-6 -81.5q0 -113 35.5 -182.5t93.5 -69.5q119 0 119 254q0 114 -34.5 179t-90.5 65z" />
    <glyph glyph-name="four.superior" 
d="M494 1571l2 -4q-194 -197 -351 -439q63 -8 193 -8l4 146q10 10 50 23.5t65 15.5h4v-183q52 0 96 8l2 -4q-3 -15 -17 -40t-26 -35q-10 -4 -55 -13v-151q-26 -4 -53.5 -9t-44.5 -8t-25 -4l-4 4q4 86 4 166q-205 0 -281 13q-8 5 -22.5 26.5t-14.5 28.5q56 91 157 222.5
t153 180.5q18 17 75.5 39t88.5 25z" />
    <glyph glyph-name="five.superior" 
d="M68 932q78 -23 141 -23q174 4 174 133q0 76 -88 107q-69 24 -199 37l-12 12q5 47 30.5 164.5t39.5 150.5q199 20 327 23q3 -37 -16 -76q-13 -30 -57 -30q-39 -3 -102.5 -5t-84.5 -4q-6 -18 -31 -141q4 -1 56 -9.5t85 -16.5t60 -19q63 -26 94 -66.5t31 -109.5
q0 -77 -46 -132t-112.5 -78.5t-142.5 -23.5q-38 0 -73 8t-46 19q-11 8 -21 33.5t-7 46.5z" />
    <glyph glyph-name="six.superior" 
d="M535 1522v-4q-142 -28 -232 -95q-127 -100 -127 -290q0 -97 36 -142t85 -45q47 0 75.5 34.5t28.5 94.5q0 62 -28 93.5t-74 31.5q-36 0 -88 -31q0 14 6 36.5t16 31.5q15 17 48.5 32t74.5 15q85 0 127.5 -55.5t42.5 -134.5q0 -96 -64 -162t-177 -66q-102 0 -171 66.5
t-69 197.5q0 197 139 324q52 47 116 75t100.5 34t66.5 6q15 0 38 -13.5t30 -33.5z" />
    <glyph glyph-name="seven.superior" 
d="M526 1522l4 -9q-38 -153 -101 -300t-107.5 -221t-65.5 -95q-24 -27 -63 -37q-41 -10 -87 -10v4q83 98 164 250t131 317q-8 0 -95 -1t-177 -1q-48 0 -63 10.5t-7 30.5q8 19 24.5 40.5t33.5 31.5q34 -10 112 -10h297z" />
    <glyph glyph-name="eight.superior" 
d="M293 1536q85 0 146 -44.5t61 -125.5q0 -43 -30 -76.5t-85 -68.5q65 -32 102 -70t37 -98q0 -86 -67 -136.5t-172 -50.5q-103 0 -168.5 44.5t-65.5 129.5q0 48 30.5 81.5t106.5 76.5q-114 60 -114 160q0 78 64 128t155 50zM389 1366q0 42 -26 69t-76 27q-44 0 -73.5 -24
t-29.5 -68q0 -33 28 -59.5t101 -57.5q41 25 58.5 49.5t17.5 63.5zM293 938q49 0 81 25t32 69q0 21 -9.5 39t-20 29.5t-35.5 25t-36.5 19t-42.5 18.5q-92 -46 -92 -119q0 -40 33 -73t90 -33z" />
    <glyph glyph-name="nine.superior" 
d="M51 899l2 4q165 32 238 98q104 89 104 277q0 83 -34 130.5t-82 47.5q-47 0 -78 -33.5t-31 -95.5q0 -57 34 -90t81 -33q36 0 69 10q-1 -4 -4 -18.5t-7.5 -25.5t-12.5 -21q-33 -33 -105 -33q-82 0 -131 55t-49 136q0 93 67.5 161t176.5 68q121 0 182 -74.5t61 -191.5
q0 -193 -135 -320q-62 -58 -138.5 -85t-133.5 -27q-22 0 -43.5 17.5t-30.5 43.5z" />
    <glyph glyph-name="period.superior" horiz-adv-x="270" 
d="M141 1049q36 0 58 -27.5t22 -63.5q0 -41 -24.5 -66.5t-63.5 -25.5q-32 0 -57 22.5t-25 67.5q0 40 23.5 66.5t66.5 26.5z" />
    <glyph glyph-name="comma.superior" horiz-adv-x="270" 
d="M182 1108q49 0 49 -96q0 -64 -46 -144t-93 -114q-38 -26 -100 -23q49 59 76.5 133.5t27.5 141.5q0 37 -10 67q3 2 16 8t20.5 9.5t19 8.5t21.5 7t19 2z" />
    <glyph glyph-name="dollar.superior" 
d="M381 1630l-12 -90q32 -1 73 -18.5t60 -36.5q-4 -30 -15 -43q-21 -28 -41 -19q-59 33 -127 33q-47 0 -76.5 -21.5t-29.5 -58.5q0 -33 25.5 -55t99.5 -53q46 -21 72.5 -35.5t56.5 -38t43.5 -54t13.5 -69.5q0 -85 -58 -135t-126 -57l-8 -78q-3 -24 -31 -27q-62 -8 -76 -8
l15 111q-108 9 -177 69q-3 19 19 49q18 30 47 17q86 -47 162 -47q49 0 79.5 21.5t30.5 60.5q0 35 -32.5 59.5t-108.5 56.5q-87 35 -127.5 78.5t-40.5 110.5q0 46 17.5 82t47 56.5t58 32t59.5 15.5l7 57q3 23 30 29q24 6 70 6z" />
    <glyph glyph-name="cent.superior" 
d="M408 1581l-13 -98q87 -9 123 -45q0 -26 -16 -45q-20 -27 -49 -13q-47 19 -88 19q-88 0 -132.5 -56t-44.5 -122q0 -96 54.5 -141.5t130.5 -45.5q65 0 135 25q-1 -31 -13 -56t-28 -34q-46 -23 -113 -23l-12 -84q-2 -18 -9.5 -26t-27.5 -9l-61 -4l20 129q-23 5 -45 13
t-53 27.5t-53 45.5t-38 69.5t-16 96.5q0 55 18 101t44 75.5t61 51.5t64 33t57 16l8 65q2 15 14 22.5t42 10.5z" />
    <glyph glyph-name="hyphen.superior" horiz-adv-x="436" 
d="M393 1272l2 -4q-7 -36 -26.5 -70.5t-44.5 -42.5q-80 -33 -275 -61l-4 4q4 32 20 64.5t29 43.5q203 37 299 66z" />
    <glyph glyph-name="parenleft.superior" horiz-adv-x="458" 
d="M70 1229q0 186 70 338.5t188 244.5q24 -3 44 -20.5t17 -36.5q-108 -98 -159.5 -228t-51.5 -272q0 -146 53 -280.5t158 -224.5q-11 -24 -33 -41t-39 -13q-39 23 -80.5 70t-79.5 113.5t-62.5 159t-24.5 190.5z" />
    <glyph glyph-name="parenright.superior" horiz-adv-x="458" 
d="M389 1276q0 -186 -70 -336.5t-188 -243.5q-24 2 -44 20t-17 38q211 194 211 501q0 141 -52 277t-159 225q11 25 32.5 42t38.5 13q39 -23 80.5 -70.5t80 -114.5t63 -160t24.5 -191z" />
    <glyph glyph-name="zero.inferior" 
d="M289 406q69 0 119 -30t76.5 -82t38.5 -111t12 -128q0 -46 -7 -88.5t-25.5 -85.5t-46 -74.5t-71.5 -51t-100 -19.5q-53 0 -96 21t-70 54.5t-45 77.5t-25.5 88t-7.5 89q0 67 14.5 126t43 108t77.5 77.5t113 28.5zM287 319q-35 0 -60.5 -23.5t-38 -62t-18.5 -78t-6 -81.5
q0 -113 35.5 -182.5t93.5 -69.5q119 0 119 254q0 114 -34.5 178.5t-90.5 64.5z" />
    <glyph glyph-name="one.inferior" 
d="M399 406l9 -5q0 -10 -1.5 -130t-3 -264t-0.5 -228q0 -19 -8.5 -26.5t-34.5 -8.5l-88 -8q2 27 7 528q-29 -9 -88.5 -20t-84.5 -13l-4 9l29 71q63 15 148 45.5t120 49.5z" />
    <glyph glyph-name="two.inferior" 
d="M55 227h-4q-3 52 21 92q34 39 87 63t115 24q99 0 157 -55t58 -150q0 -24 -5 -47.5t-18 -47t-23.5 -42.5t-33 -43.5t-34.5 -38t-41 -38.5t-39 -33t-41.5 -33.5t-36.5 -29.5q136 -6 320 5q-11 -63 -60 -95q-46 -14 -170 -14q-210 0 -264 12l-4 8q27 53 35 70q51 42 81.5 68
t71.5 66.5t63.5 71t39 68.5t16.5 72q0 57 -32.5 89t-86.5 32q-44 0 -90.5 -19.5t-81.5 -54.5z" />
    <glyph glyph-name="three.inferior" 
d="M154 18l-9 7q33 67 35 69q80 15 122 43t42 84q0 41 -31 66.5t-73 25.5q-31 0 -72.5 -18t-67.5 -43q-20 20 -20 45q0 18 18 39q27 25 76.5 47.5t104.5 22.5q90 0 138 -46.5t48 -111.5q0 -58 -28 -92.5t-79 -61.5q150 -32 150 -172q0 -101 -88 -164t-207 -63q-89 0 -119 26
q-28 28 -28 72l2 4q52 -18 120 -18q89 0 137 37.5t48 93.5q0 117 -135 117q-38 0 -84 -9z" />
    <glyph glyph-name="four.inferior" 
d="M494 440l2 -4q-196 -199 -351 -438q63 -8 193 -8l4 145q10 10 50 23.5t65 15.5h4v-182q52 0 96 8l2 -4q-3 -15 -17 -40.5t-26 -35.5q-5 -2 -55 -12v-152q-25 -4 -53.5 -9t-44.5 -7.5t-25 -3.5l-4 4q4 86 4 166q-211 0 -281 12q-8 5 -22.5 26.5t-14.5 28.5q56 91 157 223
t153 181q18 17 75 38.5t89 24.5z" />
    <glyph glyph-name="five.inferior" 
d="M68 -199q74 -22 141 -22q174 4 174 133q0 75 -88 106q-69 24 -199 37l-12 13q5 47 30.5 164.5t39.5 150.5q199 20 327 23q3 -37 -16 -76q-14 -31 -57 -31q-39 -3 -102.5 -4.5t-84.5 -3.5q-6 -18 -31 -141q10 -2 44 -7.5t55.5 -10t51 -12t50.5 -16.5q63 -26 94 -66.5
t31 -109.5q0 -77 -46 -131.5t-112 -78t-143 -23.5q-38 0 -73 7.5t-46 18.5q-11 8 -21 33.5t-7 46.5z" />
    <glyph glyph-name="six.inferior" 
d="M535 391v-4q-144 -28 -232 -94q-127 -100 -127 -291q0 -97 36 -141.5t85 -44.5q47 0 75.5 34.5t28.5 94.5q0 62 -28 93.5t-74 31.5q-36 0 -88 -31q0 13 5.5 35.5t16.5 31.5q15 17 48.5 32.5t74.5 15.5q85 0 127.5 -56t42.5 -135q0 -96 -64 -161.5t-177 -65.5
q-102 0 -171 66.5t-69 197.5q0 197 139 324q52 47 116 75t100 33.5t67 5.5q15 0 38 -13.5t30 -33.5z" />
    <glyph glyph-name="seven.inferior" 
d="M526 391l4 -8q-38 -153 -101 -300t-107.5 -221t-65.5 -95q-24 -27 -63 -37q-45 -11 -87 -11v5q83 98 164 250t131 317q-8 0 -95 -1t-177 -1q-48 0 -63 10.5t-7 30.5q19 47 58 71q34 -10 112 -10h297z" />
    <glyph glyph-name="eight.inferior" 
d="M293 406q85 0 146 -44.5t61 -125.5q0 -43 -30.5 -77t-84.5 -69q65 -32 102 -70t37 -98q0 -86 -67 -136t-172 -50q-103 0 -168.5 44.5t-65.5 129.5q0 48 30.5 81.5t106.5 76.5q-114 60 -114 159q0 78 64 128.5t155 50.5zM389 236q0 42 -26 69t-76 27q-44 0 -73.5 -24
t-29.5 -68q0 -33 28 -59.5t101 -57.5q41 25 58.5 49.5t17.5 63.5zM293 -193q49 0 81 25.5t32 69.5q0 21 -9.5 39t-20 29.5t-35.5 25t-36.5 19t-42.5 18.5q-92 -46 -92 -119q0 -40 33 -73.5t90 -33.5z" />
    <glyph glyph-name="nine.inferior" 
d="M51 -231l2 4q165 32 238 98q104 89 104 276q0 83 -34 131t-82 48q-47 0 -78 -33.5t-31 -95.5q0 -57 34 -90t81 -33q36 0 69 10q-1 -5 -4 -19.5t-7.5 -25.5t-12.5 -21q-32 -32 -105 -32q-82 0 -131 54.5t-49 135.5q0 93 68 161.5t176 68.5q121 0 182 -75t61 -192
q0 -192 -135 -319q-62 -58 -138.5 -85.5t-133.5 -27.5q-22 0 -43.5 18t-30.5 44z" />
    <glyph glyph-name="period.inferior" horiz-adv-x="270" 
d="M141 -82q36 0 58 -27t22 -63q0 -41 -24.5 -66.5t-63.5 -25.5q-32 0 -57 22.5t-25 67.5q0 40 23.5 66t66.5 26z" />
    <glyph glyph-name="comma.inferior" horiz-adv-x="270" 
d="M182 -23q49 0 49 -96q0 -64 -46 -144t-93 -114q-36 -25 -100 -22q49 59 76.5 133t27.5 141q0 38 -10 68q71 34 96 34z" />
    <glyph glyph-name="dollar.inferior" 
d="M381 500l-12 -90q32 -1 73 -19t60 -37q-4 -30 -15 -43q-20 -27 -41 -18q-59 33 -127 33q-47 0 -76.5 -21.5t-29.5 -58.5q0 -34 25.5 -56t99.5 -53q47 -21 73 -35t56 -38t43.5 -54t13.5 -69q0 -85 -58 -135.5t-126 -57.5l-8 -78q-3 -23 -31 -26q-70 -9 -76 -9l15 111
q-44 3 -93 21t-84 49q-3 19 19 49q18 29 47 16q86 -47 162 -47q49 0 79.5 21.5t30.5 60.5q0 35 -32.5 60.5t-108.5 56.5q-87 35 -127.5 78t-40.5 110q0 46 17.5 82.5t47 57t58.5 32t59 15.5l7 57q3 23 30 29q24 6 70 6z" />
    <glyph glyph-name="cent.inferior" 
d="M408 451l-13 -99q87 -9 123 -45q0 -26 -16 -45q-9 -12 -23 -15t-26 3q-45 18 -88 18q-88 0 -132.5 -56t-44.5 -122q0 -96 54.5 -141t130.5 -45q67 0 135 24q-1 -31 -13 -56t-28 -34q-44 -22 -113 -22l-12 -84q-2 -18 -9.5 -26t-27.5 -9l-61 -4l20 129q-23 5 -45 13
t-53 27.5t-53 45.5t-38 69.5t-16 96.5q0 55 18 101t44 75t61 51t64 32.5t57 16.5l8 66q2 15 14 22.5t42 10.5z" />
    <glyph glyph-name="hyphen.inferior" horiz-adv-x="436" 
d="M393 141l2 -4q-7 -36 -26.5 -70t-44.5 -42q-84 -35 -275 -62l-4 4q4 32 20.5 65t28.5 44q211 38 299 65z" />
    <glyph glyph-name="parenleft.inferior" horiz-adv-x="458" 
d="M70 98q0 187 70 339.5t188 244.5q24 -3 44 -20.5t17 -36.5q-108 -98 -159.5 -228t-51.5 -272q0 -146 53 -281t158 -225q-11 -24 -33 -40.5t-39 -12.5q-39 23 -80.5 69.5t-79.5 113t-62.5 159t-24.5 190.5z" />
    <glyph glyph-name="parenright.inferior" horiz-adv-x="458" 
d="M389 145q0 -186 -70 -336t-188 -243q-24 2 -44 19.5t-17 37.5q211 194 211 502q0 141 -52 277t-159 225q11 25 32.5 42t38.5 13q39 -23 80.5 -70.5t80 -115t63 -160.5t24.5 -191z" />
    <glyph glyph-name="zero.numerator" 
d="M289 1233q69 0 119 -29.5t76.5 -81.5t38.5 -111t12 -128q0 -46 -7 -88.5t-25.5 -85.5t-46 -74.5t-71.5 -51.5t-100 -20q-53 0 -96 21t-70 54.5t-45 77.5t-25.5 88t-7.5 89q0 67 14.5 126t43 108t77.5 77.5t113 28.5zM287 1147q-35 0 -60.5 -23.5t-38 -62.5t-18.5 -78.5
t-6 -81.5q0 -113 35.5 -182.5t93.5 -69.5q119 0 119 254q0 114 -34.5 179t-90.5 65z" />
    <glyph glyph-name="one.numerator" 
d="M399 1233l9 -4q0 -10 -1.5 -130.5t-3 -264.5t-0.5 -228q0 -19 -8.5 -26.5t-34.5 -8.5l-88 -8q2 27 7 529q-29 -9 -88.5 -20t-84.5 -13l-4 8l29 72q63 15 148 45t120 49z" />
    <glyph glyph-name="two.numerator" 
d="M55 1055h-4q-3 52 21 92q34 39 87 62.5t115 23.5q99 0 157 -55t58 -150q0 -24 -5 -47.5t-17.5 -47t-23.5 -42.5t-33 -42.5t-35 -38t-41 -38.5t-39.5 -33.5t-41 -33.5t-36.5 -29q146 -6 320 4q-11 -61 -60 -94q-49 -15 -170 -15q-205 0 -264 13l-4 8q27 52 35 70
q51 42 81.5 68t71.5 66.5t63.5 71t39 68.5t16.5 72q0 57 -32.5 88.5t-86.5 31.5q-44 0 -91 -19.5t-81 -53.5z" />
    <glyph glyph-name="three.numerator" 
d="M154 846l-9 6q2 5 8.5 20t13.5 28t13 22q80 15 122 43t42 84q0 41 -31 66.5t-73 25.5q-30 0 -72 -18.5t-68 -43.5q-20 20 -20 45q0 18 18 39q27 25 76.5 47.5t104.5 22.5q90 0 138 -46.5t48 -111.5q0 -58 -27.5 -92t-79.5 -61q150 -32 150 -172q0 -101 -88 -164.5
t-207 -63.5q-88 0 -119 27q-28 28 -28 72l2 4q55 -19 120 -19q89 0 137 37.5t48 93.5q0 117 -135 117q-43 0 -84 -8z" />
    <glyph glyph-name="four.numerator" 
d="M494 1268l2 -4q-194 -197 -351 -439q63 -8 193 -8l4 146q10 10 50 23t65 15h4v-182q52 0 96 8l2 -4q-3 -15 -17 -40t-26 -35q-10 -4 -55 -13v-151q-26 -4 -53.5 -9t-44.5 -8t-25 -4l-4 4q4 86 4 166q-211 0 -281 12q-8 5 -22.5 27t-14.5 29q56 91 157 222.5t153 180.5
q18 17 75.5 39t88.5 25z" />
    <glyph glyph-name="five.numerator" 
d="M68 629q78 -23 141 -23q174 4 174 133q0 76 -88 107q-69 24 -199 37l-12 12q5 47 30.5 164.5t39.5 150.5q199 20 327 23q3 -37 -16 -76q-14 -31 -57 -31q-39 -3 -102.5 -4.5t-84.5 -3.5q-6 -18 -31 -141q4 -1 56 -9.5t85 -16.5t60 -19q63 -26 94 -66.5t31 -109.5
q0 -77 -46 -132t-112.5 -78.5t-142.5 -23.5q-38 0 -73 8t-46 19q-11 8 -21 33.5t-7 46.5z" />
    <glyph glyph-name="six.numerator" 
d="M535 1219v-5q-144 -28 -232 -94q-127 -100 -127 -291q0 -97 36 -141.5t85 -44.5q47 0 75.5 34.5t28.5 94.5q0 62 -28 93.5t-74 31.5q-36 0 -88 -31q0 14 6 36.5t16 31.5q15 17 48.5 32t74.5 15q85 0 127.5 -55.5t42.5 -134.5q0 -96 -64 -162t-177 -66q-102 0 -171 66.5
t-69 197.5q0 197 139 324q52 47 116 75t100.5 34t66.5 6q15 0 38 -13.5t30 -33.5z" />
    <glyph glyph-name="seven.numerator" 
d="M526 1219l4 -9q-38 -153 -101 -300t-107.5 -221t-65.5 -95q-24 -27 -63 -37q-41 -10 -87 -10v4q83 98 164 250t131 317q-8 0 -95 -1t-177 -1q-48 0 -63 10.5t-7 30.5q8 19 24.5 40.5t33.5 31.5q34 -10 112 -10h297z" />
    <glyph glyph-name="eight.numerator" 
d="M293 1233q85 0 146 -44.5t61 -125.5q0 -43 -30 -76.5t-85 -68.5q65 -32 102 -70t37 -98q0 -86 -67 -136.5t-172 -50.5q-103 0 -168.5 44.5t-65.5 129.5q0 48 30.5 81.5t106.5 76.5q-114 60 -114 160q0 78 64 128t155 50zM389 1063q0 42 -26 69t-76 27q-44 0 -73.5 -24
t-29.5 -68q0 -33 28 -59.5t101 -57.5q41 25 58.5 49.5t17.5 63.5zM293 635q49 0 81 25t32 69q0 21 -9.5 39t-20 29.5t-35.5 25t-36.5 19t-42.5 18.5q-92 -46 -92 -119q0 -40 33 -73t90 -33z" />
    <glyph glyph-name="nine.numerator" 
d="M51 596l2 4q165 32 238 98q104 89 104 277q0 83 -34 130.5t-82 47.5q-47 0 -78 -33.5t-31 -95.5q0 -57 34 -90t81 -33q36 0 69 10q-1 -4 -4 -18.5t-7.5 -25.5t-12.5 -21q-33 -33 -105 -33q-82 0 -131 55t-49 136q0 93 67.5 161t176.5 68q121 0 182 -74.5t61 -191.5
q0 -193 -135 -320q-62 -58 -138.5 -85t-133.5 -27q-22 0 -43.5 17.5t-30.5 43.5z" />
    <glyph glyph-name="period.numerator" horiz-adv-x="270" 
d="M141 745q36 0 58 -27t22 -63q0 -41 -24.5 -66.5t-63.5 -25.5q-32 0 -57 22.5t-25 67.5q0 40 23.5 66t66.5 26z" />
    <glyph glyph-name="comma.numerator" horiz-adv-x="270" 
d="M182 805q49 0 49 -96q0 -64 -46 -144t-93 -114q-38 -26 -100 -23q49 59 76.5 133t27.5 141q0 38 -10 68q3 2 16 8t20.5 9.5t19 8.5t21.5 7t19 2z" />
    <glyph glyph-name="dollar.numerator" 
d="M381 1327l-12 -90q32 -1 73 -18.5t60 -36.5q-4 -30 -15 -43q-21 -28 -41 -19q-59 33 -127 33q-47 0 -76.5 -21.5t-29.5 -58.5q0 -33 25.5 -55t99.5 -53q46 -21 72.5 -35.5t56.5 -38t43.5 -54t13.5 -69.5q0 -85 -58 -135.5t-126 -57.5l-8 -77q-3 -24 -31 -27
q-62 -8 -76 -8l15 110q-44 3 -93 21t-84 49q-3 19 19 49q18 30 47 17q86 -47 162 -47q49 0 79.5 21t30.5 60q0 35 -32.5 60.5t-108.5 56.5q-87 35 -127.5 78.5t-40.5 110.5q0 46 17.5 82t47 56.5t58 32t59.5 15.5l7 57q3 23 30 29q24 6 70 6z" />
    <glyph glyph-name="cent.numerator" 
d="M408 1278l-13 -98q87 -9 123 -45q0 -26 -16 -45q-20 -27 -49 -13q-47 19 -88 19q-88 0 -132.5 -56t-44.5 -122q0 -96 54.5 -141.5t130.5 -45.5q65 0 135 25q-1 -31 -13 -56t-28 -34q-46 -23 -113 -23l-12 -84q-2 -18 -9.5 -26t-27.5 -9l-61 -4l20 129q-23 5 -45 13
t-53 27.5t-53 45.5t-38 69.5t-16 96.5q0 55 18 101t44 75.5t61 51.5t64 33t57 16l8 65q2 15 14 22.5t42 10.5z" />
    <glyph glyph-name="hyphen.numerator" horiz-adv-x="436" 
d="M393 969l2 -4q-7 -36 -26.5 -70.5t-44.5 -42.5q-80 -33 -275 -61l-4 4q4 32 20 64.5t29 43.5q203 37 299 66z" />
    <glyph glyph-name="parenleft.numerator" horiz-adv-x="458" 
d="M70 926q0 186 70 338.5t188 244.5q24 -3 44 -20.5t17 -36.5q-108 -98 -159.5 -228t-51.5 -272q0 -146 53 -281t158 -225q-11 -24 -33 -40.5t-39 -12.5q-39 23 -80.5 70t-79.5 113.5t-62.5 159t-24.5 190.5z" />
    <glyph glyph-name="parenright.numerator" horiz-adv-x="458" 
d="M389 973q0 -186 -70 -336.5t-188 -243.5q-24 2 -44 20t-17 38q211 194 211 501q0 141 -52 277t-159 225q11 25 32.5 42t38.5 13q39 -23 80.5 -70.5t80 -114.5t63 -160t24.5 -191z" />
    <glyph glyph-name="zero.denominator" 
d="M289 662q69 0 119 -30t76.5 -82t38.5 -111t12 -128q0 -46 -7 -88.5t-25.5 -85.5t-46 -74.5t-71.5 -51t-100 -19.5q-53 0 -96 21t-70 54.5t-45 77.5t-25.5 88t-7.5 89q0 67 14.5 126t43 108t77.5 77.5t113 28.5zM287 575q-35 0 -60.5 -23.5t-38 -62t-18.5 -78t-6 -81.5
q0 -113 35.5 -182.5t93.5 -69.5q119 0 119 254q0 114 -34.5 178.5t-90.5 64.5z" />
    <glyph glyph-name="one.denominator" 
d="M399 662l9 -5q0 -10 -1.5 -130t-3 -264t-0.5 -228q0 -19 -8.5 -26.5t-34.5 -8.5l-88 -8q2 27 7 528q-29 -9 -88.5 -20t-84.5 -13l-4 9l29 71q63 15 148 45.5t120 49.5z" />
    <glyph glyph-name="two.denominator" 
d="M55 483h-4q-3 52 21 92q34 39 87 63t115 24q99 0 157 -55t58 -150q0 -24 -5 -47.5t-18 -47t-23.5 -42.5t-33 -43.5t-34.5 -38t-41 -38.5t-39 -33t-41.5 -33.5t-36.5 -29.5q136 -6 320 5q-11 -63 -60 -95q-46 -14 -170 -14q-210 0 -264 12l-4 8q27 53 35 70q51 42 81.5 68
t71.5 66.5t63.5 71t39 68.5t16.5 72q0 57 -32.5 89t-86.5 32q-44 0 -90.5 -19.5t-81.5 -54.5z" />
    <glyph glyph-name="three.denominator" 
d="M154 274l-9 7q2 4 9 19t13.5 28t12.5 22q80 15 122 43t42 84q0 41 -31 66.5t-73 25.5q-31 0 -72.5 -18t-67.5 -43q-20 20 -20 45q0 18 18 39q27 25 76.5 47.5t104.5 22.5q90 0 138 -46.5t48 -111.5q0 -58 -28 -92.5t-79 -61.5q150 -32 150 -172q0 -101 -88 -164t-207 -63
q-89 0 -119 26q-28 28 -28 72l2 4q52 -18 120 -18q89 0 137 37.5t48 93.5q0 117 -135 117q-38 0 -84 -9z" />
    <glyph glyph-name="four.denominator" 
d="M494 696l2 -4q-196 -199 -351 -438q63 -8 193 -8l4 145q10 10 50 23.5t65 15.5h4v-182q52 0 96 8l2 -4q-3 -15 -17 -40.5t-26 -35.5q-5 -2 -55 -12v-152q-25 -4 -53.5 -9t-44.5 -7.5t-25 -3.5l-4 4q4 86 4 166q-211 0 -281 12q-8 5 -22.5 26.5t-14.5 28.5q56 91 157 223
t153 181q18 17 75 38.5t89 24.5z" />
    <glyph glyph-name="five.denominator" 
d="M68 57q74 -22 141 -22q174 4 174 133q0 75 -88 106q-69 24 -199 37l-12 13q5 47 30.5 164.5t39.5 150.5q199 20 327 23q3 -37 -16 -76q-14 -31 -57 -31q-39 -3 -102.5 -4.5t-84.5 -3.5q-6 -18 -31 -141q10 -2 44 -7.5t55.5 -10t51 -12t50.5 -16.5q63 -26 94 -66.5
t31 -109.5q0 -77 -46 -131.5t-112 -78t-143 -23.5q-38 0 -73 7.5t-46 18.5q-11 8 -21 33.5t-7 46.5z" />
    <glyph glyph-name="six.denominator" 
d="M535 647v-4q-144 -28 -232 -94q-127 -100 -127 -291q0 -97 36 -141.5t85 -44.5q47 0 75.5 34.5t28.5 94.5q0 62 -28 93.5t-74 31.5q-36 0 -88 -31q0 13 5.5 35.5t16.5 31.5q15 17 48.5 32.5t74.5 15.5q85 0 127.5 -56t42.5 -135q0 -96 -64 -161.5t-177 -65.5
q-102 0 -171 66.5t-69 197.5q0 197 139 324q52 47 116 75t100 33.5t67 5.5q15 0 38 -13.5t30 -33.5z" />
    <glyph glyph-name="seven.denominator" 
d="M526 647l4 -8q-38 -153 -101 -300t-107.5 -221t-65.5 -95q-24 -27 -63 -37q-45 -11 -87 -11v5q83 98 164 250t131 317q-8 0 -95 -1t-177 -1q-48 0 -63 10.5t-7 30.5q19 47 58 71q34 -10 112 -10h297z" />
    <glyph glyph-name="eight.denominator" 
d="M293 662q85 0 146 -44.5t61 -125.5q0 -43 -30.5 -77t-84.5 -69q65 -32 102 -70t37 -98q0 -86 -67 -136t-172 -50q-103 0 -168.5 44.5t-65.5 129.5q0 48 30.5 81.5t106.5 76.5q-114 60 -114 159q0 78 64 128.5t155 50.5zM389 492q0 42 -26 69t-76 27q-44 0 -73.5 -24
t-29.5 -68q0 -33 28 -59.5t101 -57.5q41 25 58.5 49.5t17.5 63.5zM293 63q49 0 81 25.5t32 69.5q0 21 -9.5 39t-20 29.5t-35.5 25t-36.5 19t-42.5 18.5q-92 -46 -92 -119q0 -40 33 -73.5t90 -33.5z" />
    <glyph glyph-name="nine.denominator" 
d="M51 25l2 4q165 32 238 98q104 89 104 276q0 83 -34 131t-82 48q-47 0 -78 -33.5t-31 -95.5q0 -57 34 -90t81 -33q36 0 69 10q-1 -5 -4 -19.5t-7.5 -25.5t-12.5 -21q-32 -32 -105 -32q-82 0 -131 54.5t-49 135.5q0 93 68 161.5t176 68.5q121 0 182 -75t61 -192
q0 -192 -135 -319q-62 -58 -138.5 -85.5t-133.5 -27.5q-22 0 -43.5 18t-30.5 44z" />
    <glyph glyph-name="period.denominator" horiz-adv-x="270" 
d="M141 174q36 0 58 -27t22 -63q0 -41 -24.5 -66.5t-63.5 -25.5q-32 0 -57 22.5t-25 67.5q0 40 23.5 66t66.5 26z" />
    <glyph glyph-name="comma.denominator" horiz-adv-x="270" 
d="M182 233q49 0 49 -96q0 -64 -46 -144t-93 -114q-36 -25 -100 -22q49 59 76.5 133t27.5 141q0 38 -10 68q71 34 96 34z" />
    <glyph glyph-name="dollar.denominator" 
d="M381 756l-12 -90q32 -1 73 -19t60 -37q-4 -30 -15 -43q-20 -27 -41 -18q-59 33 -127 33q-47 0 -76.5 -21.5t-29.5 -58.5q0 -34 25.5 -56t99.5 -53q47 -21 73 -35t56 -38t43.5 -54t13.5 -69q0 -85 -58 -135.5t-126 -57.5l-8 -78q-3 -23 -31 -26q-70 -9 -76 -9l15 111
q-44 3 -93 21t-84 49q-3 19 19 49q18 29 47 16q86 -47 162 -47q49 0 79.5 21.5t30.5 60.5q0 35 -32.5 60.5t-108.5 56.5q-87 35 -127.5 78t-40.5 110q0 46 17.5 82.5t47 57t58.5 32t59 15.5l7 57q3 23 30 29q24 6 70 6z" />
    <glyph glyph-name="cent.denominator" 
d="M408 707l-13 -99q87 -9 123 -45q0 -26 -16 -45q-9 -12 -23 -15t-26 3q-45 18 -88 18q-88 0 -132.5 -56t-44.5 -122q0 -96 54.5 -141t130.5 -45q67 0 135 24q-1 -31 -13 -56t-28 -34q-44 -22 -113 -22l-12 -84q-2 -18 -9.5 -26t-27.5 -9l-61 -4l20 129q-23 5 -45 13
t-53 27.5t-53 45.5t-38 69.5t-16 96.5q0 55 18 101t44 75t61 51t64 32.5t57 16.5l8 66q2 15 14 22.5t42 10.5z" />
    <glyph glyph-name="hyphen.denominator" horiz-adv-x="436" 
d="M393 397l2 -4q-7 -36 -26.5 -70t-44.5 -42q-84 -35 -275 -62l-4 4q4 32 20.5 65t28.5 44q211 38 299 65z" />
    <glyph glyph-name="parenleft.denominator" horiz-adv-x="458" 
d="M70 354q0 187 70 339.5t188 244.5q24 -3 44 -20.5t17 -36.5q-108 -98 -159.5 -228t-51.5 -272q0 -146 53 -281t158 -225q-11 -24 -33 -40.5t-39 -12.5q-39 23 -80.5 69.5t-79.5 113t-62.5 159t-24.5 190.5z" />
    <glyph glyph-name="parenright.denominator" horiz-adv-x="458" 
d="M389 401q0 -186 -70 -336t-188 -243q-24 2 -44 19.5t-17 37.5q211 194 211 502q0 141 -52 277t-159 225q11 25 32.5 42t38.5 13q39 -23 80.5 -70.5t80 -115t63 -160.5t24.5 -191z" />
    <glyph glyph-name="at.cap" horiz-adv-x="1478" 
d="M1094 184l6 -2q11 -13 8 -47.5t-18 -46.5q-150 -147 -422 -147q-122 0 -228.5 42t-186 120t-125.5 198.5t-46 267.5q0 174 56 320.5t154.5 247t237 157t299.5 56.5q255 0 413.5 -154t158.5 -403q0 -215 -120.5 -359.5t-287.5 -144.5q-30 0 -53 5.5t-44.5 20.5t-30.5 41.5
t-12.5 67.5t9.5 98q-51 -82 -110 -136t-111.5 -75.5t-103.5 -21.5q-62 0 -100 59t-38 158q0 100 31 193.5t87 167.5t144 118.5t193 44.5q18 0 35 -1t35.5 -3t30.5 -4t32.5 -6t29 -6t33 -7.5t31.5 -7.5q-21 -76 -54.5 -223.5t-43.5 -214.5q-13 -100 1.5 -138t62.5 -38
q27 0 58 13.5t64 46.5t59 80t43 121t17 163q0 134 -63.5 238.5t-168.5 159t-231 54.5q-142 0 -259.5 -52t-195.5 -142t-120.5 -212t-42.5 -263q0 -240 139 -391.5t373 -151.5q100 0 199.5 38t175.5 101zM604 399q67 0 151 92.5t124 219.5q31 91 61 219q-27 16 -100 16
q-76 0 -136 -40.5t-95 -105t-52.5 -136t-17.5 -142.5q0 -59 18 -91t47 -32z" />
    <glyph glyph-name="emdash.cap" horiz-adv-x="1837" 
d="M156 698h1589l-10 -65q-6 -36 -18 -47t-36 -11h-1589l6 48q7 44 21 59.5t37 15.5z" />
    <glyph glyph-name="endash.cap" horiz-adv-x="1079" 
d="M156 698h831l-6 -47q-13 -76 -47 -76h-842l8 43q14 80 56 80z" />
    <glyph glyph-name="exclamdown.cap" horiz-adv-x="358" 
d="M174 1028q-41 0 -66.5 32t-25.5 73q0 50 28.5 80t75.5 30q38 0 68.5 -28t30.5 -78q0 -47 -30 -78t-81 -31zM117 -23q-19 0 -27 11.5t-8 42.5q0 64 19.5 362t25.5 363q2 38 29 53q57 22 67 22q38 -639 41 -804q-4 -15 -58 -32.5t-89 -17.5z" />
    <glyph glyph-name="guillemotleft.cap" horiz-adv-x="1095" 
d="M782 281q0 -25 -19 -47.5t-42 -30.5q-121 213 -270 375q-17 24 -17 49q159 159 305 389q51 -36 54 -86q0 -47 -205 -322q41 -53 117.5 -174.5t76.5 -152.5zM434 913q0 -45 -186 -305q172 -251 172 -311q1 -24 -16 -45.5t-37 -26.5q-120 207 -261 355q-12 21 -12 47
q161 155 289 362q17 -9 34 -31.5t17 -44.5z" />
    <glyph glyph-name="guillemotright.cap" horiz-adv-x="1091" 
d="M313 938q0 24 19.5 47t42.5 31q119 -214 272 -377q17 -27 17 -51q-167 -167 -308 -389q-18 11 -35 35t-18 49q0 25 48 101t86 128t71 94q-41 53 -118 176.5t-77 155.5zM653 299q0 51 191 307l-20 30q-20 30 -30.5 46.5t-32 50t-34.5 57t-28 51t-22 47.5t-7 32
q-1 24 16 46t37 25q129 -219 262 -354q12 -24 12 -49q-156 -150 -290 -365q-17 10 -35.5 33.5t-18.5 42.5z" />
    <glyph glyph-name="guilsinglleft.cap" horiz-adv-x="776" 
d="M463 276q0 -23 -19 -45t-41 -30q-133 206 -292 374q-17 34 -17 52q167 154 326 389q19 -11 36 -34.5t17 -49.5q0 -15 -18.5 -48t-51 -77.5t-58.5 -78.5t-59.5 -75.5t-35.5 -44.5q57 -74 135 -187.5t78 -144.5z" />
    <glyph glyph-name="guilsinglright.cap" horiz-adv-x="776" 
d="M315 940q0 23 19 45.5t41 30.5q133 -205 293 -375q14 -28 14 -51q-166 -166 -326 -389q-18 11 -35 34t-18 50q0 18 31 67.5t67 96t77.5 99t47.5 60.5q-211 288 -211 332z" />
    <glyph glyph-name="hyphen.cap" horiz-adv-x="583" 
d="M520 725q-10 -62 -33.5 -98t-74.5 -49q-57 -19 -175.5 -39t-173.5 -19l-2 4q10 54 30 92t38 41q215 27 391 68z" />
    <glyph glyph-name="questiondown.cap" horiz-adv-x="651" 
d="M336 1028q-41 0 -67.5 33t-26.5 72q0 49 30 79.5t76 30.5q38 0 68 -28t30 -78q0 -47 -29.5 -78t-80.5 -31zM330 -23q-118 0 -187 71.5t-69 176.5q0 70 35 137t102 150q106 133 106 219q0 52 -22 98q7 10 26 16.5t35 6.5q36 0 65.5 -36t29.5 -103q0 -58 -22 -113.5
t-71 -126.5q-2 -3 -20.5 -27t-24 -32.5t-21 -30.5t-21.5 -35.5t-15 -33t-12.5 -37.5t-3.5 -35q0 -58 35 -94.5t94 -36.5q99 0 182 65h4q22 -15 30 -44.5t-5 -53.5q-107 -101 -250 -101z" />
    <glyph glyph-name="braceleft.cap" horiz-adv-x="610" 
d="M524 -221q0 -17 -6 -41t-12 -33q-133 3 -210 75.5t-77 211.5q0 57 20.5 202.5t20.5 204.5q0 91 -34 134.5t-122 50.5q-12 2 -19.5 26t-4.5 52q107 20 143.5 65t36.5 121q0 50 -17.5 175t-17.5 177q0 163 111 242q73 55 176 59q12 -15 12 -63q0 -22 -28 -33
q-77 -31 -110.5 -78t-33.5 -127q0 -48 19.5 -162.5t19.5 -173.5q0 -91 -35 -144t-102 -83q37 -15 63 -37t40 -44t22 -53.5t10 -57.5t2 -64q0 -75 -21.5 -203.5t-21.5 -181.5q0 -150 148 -191q28 -7 28 -26z" />
    <glyph glyph-name="braceright.cap" horiz-adv-x="610" 
d="M86 1430q0 46 18 73q132 -3 208.5 -75.5t76.5 -210.5q0 -60 -20.5 -197t-20.5 -180q0 -90 34.5 -132t123.5 -49q11 -2 19 -26.5t5 -50.5q-108 -20 -145 -66t-37 -121q0 -48 17.5 -187t17.5 -198q0 -163 -107 -241q-81 -59 -178 -62q-12 18 -12 64q0 21 25 30
q78 31 111.5 79t33.5 130q0 46 -18.5 168.5t-18.5 188.5q0 174 137 239q-44 19 -72.5 46t-42 61.5t-18 67t-4.5 75.5q0 61 20.5 182.5t20.5 180.5q0 72 -32.5 117t-114.5 67q-27 11 -27 27z" />
    <glyph glyph-name="bracketleft.cap" horiz-adv-x="610" 
d="M172 528q0 164 6 483.5t12 430.5q6 6 132 20.5t182 14.5q20 -33 20 -76q0 -11 -26 -17q-126 -17 -158 -22q-17 -4 -24 -15t-9 -34q-13 -96 -16 -799q-4 -520 4 -629q3 -22 13.5 -32t31.5 -13q38 -10 145 -22q24 -3 21 -23q-3 -38 -21 -67q-77 0 -151.5 7t-115 15
t-44.5 14q-5 53 -5.5 167t1.5 305t2 292z" />
    <glyph glyph-name="bracketright.cap" horiz-adv-x="610" 
d="M438 676q0 -573 -18 -914q-6 -6 -131.5 -20t-182.5 -14q-20 33 -20 77q0 12 27 17q36 4 95.5 13t61.5 9q17 4 24 15.5t9 34.5q10 75 16 796q2 575 -6 631q-3 22 -13.5 32t-31.5 13q-52 10 -139 20q-12 2 -19 8t-6 15q3 39 21 68q78 0 151.5 -7t114.5 -15.5t45 -14.5
q5 -53 5.5 -167t-1.5 -305t-2 -292z" />
    <glyph glyph-name="parenleft.cap" horiz-adv-x="622" 
d="M96 578q0 306 103.5 537.5t281.5 387.5q25 -6 43.5 -32t12.5 -50q-312 -324 -312 -829q0 -266 82 -472.5t230 -344.5q-9 -36 -27.5 -59t-38.5 -23q-167 110 -271 351.5t-104 533.5z" />
    <glyph glyph-name="parenright.cap" horiz-adv-x="622" 
d="M545 618q0 -299 -100.5 -532t-282.5 -393q-24 7 -42.5 30t-13.5 52q156 162 233 365t77 464q0 528 -310 815q7 37 25.5 60.5t38.5 23.5q72 -50 136.5 -130t119.5 -189.5t87 -256.5t32 -309z" />
    <glyph glyph-name="periodcentered.cap" horiz-adv-x="315" 
d="M164 748q45 0 70.5 -32t25.5 -75q0 -51 -28.5 -82t-75.5 -31q-38 0 -68.5 27.5t-30.5 77.5t28 82.5t79 32.5z" />
    <glyph glyph-name="acute.cap" horiz-adv-x="819" 
d="M598 1597q24 -7 46.5 -37t27.5 -55q10 -25 -25 -35q-85 -25 -330 -114q-17 17 -28 39q-14 28 14 47q61 46 161 100t134 55z" />
    <glyph glyph-name="cedilla.cap" horiz-adv-x="819" 
d="M406 8h106l-76 -108q60 -17 92.5 -56t32.5 -90q0 -53 -38 -96t-91 -66.5t-110 -29.5q-19 4 -32.5 24t-13.5 35q0 14 19 21q141 39 141 98q0 37 -45 56.5t-106 17.5v22z" />
    <glyph glyph-name="dieresis.cap" horiz-adv-x="819" 
d="M244 1546q36 0 60 -26t24 -62q0 -45 -24.5 -70.5t-65.5 -25.5q-37 0 -62.5 23t-25.5 67q0 41 25.5 67.5t68.5 26.5zM586 1546q36 0 60 -25.5t24 -62.5q0 -45 -25 -70.5t-67 -25.5q-33 0 -58.5 23t-25.5 67q0 41 24.5 67.5t67.5 26.5z" />
    <glyph glyph-name="grave.cap" horiz-adv-x="819" 
d="M250 1606q27 0 118.5 -57.5t147.5 -106.5q23 -20 6 -49q-14 -21 -30 -37q-183 94 -316 139q-22 6 -10 27q9 29 35.5 56.5t48.5 27.5z" />
    <glyph glyph-name="macron.cap" horiz-adv-x="819" 
d="M590 1356h-363q-14 0 -20 5.5t-6 20.5q0 24 11 53.5t19 37.5h373q23 0 23 -19q0 -20 -12.5 -52t-24.5 -46z" />
    <glyph glyph-name="tilde.cap" horiz-adv-x="819" 
d="M334 1593q58 0 112 -65q34 -49 54 -49q31 0 47 94q6 20 20 20q13 0 34.5 -8.5t35.5 -19.5q-22 -205 -139 -205q-22 0 -43 12.5t-33 24.5t-37 41q-14 15 -18.5 19.5t-13 12t-13.5 9.5t-12 2q-33 0 -56 -92q-4 -21 -16 -21q-39 0 -76 16q4 39 13.5 73.5t27 66.5t46.5 50.5
t67 18.5z" />
    <glyph glyph-name="c_t" horiz-adv-x="1523" 
d="M784 143l4 -4q-9 -82 -61 -119q-71 -45 -213 -45q-61 0 -120 12t-121.5 44.5t-109 82.5t-76.5 132.5t-30 187.5q0 142 65.5 254t175 172t241.5 60q60 0 114 -13q6 55 29.5 105t64.5 92t107.5 67t149.5 25q52 0 196 -12q-8 -36 -15 -128t-7 -163h323q-6 -34 -17 -55.5
t-26.5 -31t-27 -12t-29.5 -3.5q-82 -7 -227 -7q-14 -376 0 -532q13 -158 147 -158q42 0 85.5 13t70.5 32q12 -24 12 -41q0 -35 -45 -71q-29 -23 -80 -37.5t-104 -14.5q-126 0 -187 72.5t-61 196.5v538q-42 0 -74.5 4t-49 10t-16.5 13q6 15 23.5 43.5t32.5 36.5q4 1 18.5 2
t37 2t32.5 2q4 19 13.5 90.5t14.5 97.5h-63q-108 0 -159.5 -54t-67.5 -155q30 -15 37 -24q2 -27 -13 -57t-41 -37q-84 47 -190 47q-142 0 -230 -95.5t-88 -252.5q0 -81 22 -144.5t56.5 -101.5t80.5 -63t89 -34.5t88 -9.5q41 0 79 5t55 9.5t49 15t36 11.5z" />
    <glyph glyph-name="s_p" horiz-adv-x="1693" 
d="M821 1094h-30q-111 0 -162 -59t-66 -165q3 -3 8.5 -8t8.5 -8q5 -22 -12 -51.5t-44 -36.5q-72 41 -151 41q-64 0 -105 -33.5t-41 -93.5q0 -77 90 -127q23 -12 86 -42t97 -50q127 -75 127 -203q0 -92 -49 -158t-121.5 -95.5t-157.5 -29.5q-77 0 -138.5 22.5t-94.5 55.5
q-16 24 0 53q16 48 47 46q96 -62 198 -62q78 0 120 37.5t42 95.5q0 77 -102 127q-19 10 -48.5 24t-53 26t-44.5 24q-147 81 -147 227q0 120 90 194.5t213 74.5q31 0 84 -11q5 57 27.5 108.5t63 94.5t107 68.5t150.5 25.5q32 0 176 -12q-18 -153 -18 -414q164 140 309 140
q65 0 126 -25.5t113.5 -75.5t84.5 -137t32 -199q0 -212 -135.5 -360t-341.5 -148q-43 0 -81 9.5t-56.5 18.5t-50.5 28v-408q0 -25 -7 -34.5t-32 -16.5q-63 -8 -129 -8q6 82 6 358v807q0 263 12 365zM971 684v-551q26 -20 74 -34.5t102 -14.5q53 0 104.5 19t100.5 60.5
t79.5 120.5t30.5 185q0 142 -71 230.5t-185 88.5q-109 0 -235 -104z" />
    <glyph glyph-name="aacute.end" horiz-adv-x="1179" 
d="M547 522v76q0 86 -46 140.5t-134 54.5q-104 0 -226 -91q-31 -5 -49 21.5t-18 56.5q68 56 156.5 98t177.5 42q147 0 223 -92.5t76 -243.5q0 -41 -2.5 -195t-2.5 -221q0 -49 35 -64q46 -16 99 -16q124 0 181.5 52.5t57.5 189.5q21 4 60.5 -6t40.5 -31q1 -53 -7 -96.5
t-34 -87t-68.5 -73t-115 -47.5t-169.5 -18q-134 0 -192 39q-38 21 -41 101q-48 -55 -116 -95.5t-150 -40.5q-102 0 -168 66t-66 160q0 36 11.5 68t27 56.5t45 47.5t51 37.5t61 30.5t58.5 23t60.5 18t50.5 13t43 9q43 10 90 18zM545 254v182q-330 -58 -330 -203
q0 -63 39.5 -102t101.5 -39q95 0 174 98q15 22 15 64zM500 1368q25 0 53.5 -13.5t46.5 -31.5q17 -14 -6 -37q-73 -83 -203 -264q-30 9 -49 31q-13 13 2 53q37 83 86.5 172.5t69.5 89.5z" />
    <glyph glyph-name="acircumflex.end" horiz-adv-x="1179" 
d="M547 522v76q0 86 -46 140.5t-134 54.5q-104 0 -226 -91q-31 -5 -49 21.5t-18 56.5q68 56 156.5 98t177.5 42q147 0 223 -92.5t76 -243.5q0 -41 -2.5 -195t-2.5 -221q0 -49 35 -64q46 -16 99 -16q124 0 181.5 52.5t57.5 189.5q21 4 60.5 -6t40.5 -31q1 -53 -7 -96.5
t-34 -87t-68.5 -73t-115 -47.5t-169.5 -18q-134 0 -192 39q-38 21 -41 101q-48 -55 -116 -95.5t-150 -40.5q-102 0 -168 66t-66 160q0 36 11.5 68t27 56.5t45 47.5t51 37.5t61 30.5t58.5 23t60.5 18t50.5 13t43 9q43 10 90 18zM545 254v182q-330 -58 -330 -203
q0 -63 39.5 -102t101.5 -39q95 0 174 98q15 22 15 64zM268 1034q-41 0 -80 27q18 31 52 86t59 97.5t47 84.5q13 26 35 31q27 8 59 8q38 -71 174 -301q-50 -33 -82 -33q-19 0 -30 19q-13 26 -47 83.5t-54 96.5q-85 -148 -106 -184q-15 -15 -27 -15z" />
    <glyph glyph-name="adieresis.end" horiz-adv-x="1179" 
d="M547 522v76q0 86 -46 140.5t-134 54.5q-104 0 -226 -91q-31 -5 -49 21.5t-18 56.5q68 56 156.5 98t177.5 42q147 0 223 -92.5t76 -243.5q0 -41 -2.5 -195t-2.5 -221q0 -49 35 -64q46 -16 99 -16q124 0 181.5 52.5t57.5 189.5q21 4 60.5 -6t40.5 -31q1 -53 -7 -96.5
t-34 -87t-68.5 -73t-115 -47.5t-169.5 -18q-134 0 -192 39q-38 21 -41 101q-48 -55 -116 -95.5t-150 -40.5q-102 0 -168 66t-66 160q0 36 11.5 68t27 56.5t45 47.5t51 37.5t61 30.5t58.5 23t60.5 18t50.5 13t43 9q43 10 90 18zM545 254v182q-330 -58 -330 -203
q0 -63 39.5 -102t101.5 -39q95 0 174 98q15 22 15 64zM246 1274q37 0 61.5 -27t24.5 -65q0 -44 -25.5 -70.5t-66.5 -26.5q-37 0 -63.5 24.5t-26.5 68.5q0 41 26 68.5t70 27.5zM567 1274q38 0 62 -26.5t24 -65.5q0 -44 -25.5 -70.5t-68.5 -26.5q-34 0 -60 24.5t-26 68.5
q0 42 24.5 69t69.5 27z" />
    <glyph glyph-name="agrave.end" horiz-adv-x="1179" 
d="M547 522v76q0 86 -46 140.5t-134 54.5q-104 0 -226 -91q-31 -5 -49 21.5t-18 56.5q68 56 156.5 98t177.5 42q147 0 223 -92.5t76 -243.5q0 -41 -2.5 -195t-2.5 -221q0 -49 35 -64q46 -16 99 -16q124 0 181.5 52.5t57.5 189.5q21 4 60.5 -6t40.5 -31q1 -53 -7 -96.5
t-34 -87t-68.5 -73t-115 -47.5t-169.5 -18q-134 0 -192 39q-38 21 -41 101q-48 -55 -116 -95.5t-150 -40.5q-102 0 -168 66t-66 160q0 36 11.5 68t27 56.5t45 47.5t51 37.5t61 30.5t58.5 23t60.5 18t50.5 13t43 9q43 10 90 18zM545 254v182q-330 -58 -330 -203
q0 -63 39.5 -102t101.5 -39q95 0 174 98q15 22 15 64zM297 1372q23 -1 77 -99.5t81 -172.5q12 -29 -6 -47q-23 -23 -48 -27q-113 167 -204 262q-17 16 6 39q52 45 94 45z" />
    <glyph glyph-name="aring.end" horiz-adv-x="1179" 
d="M547 522v76q0 86 -46 140.5t-134 54.5q-104 0 -226 -91q-31 -5 -49 21.5t-18 56.5q68 56 156.5 98t177.5 42q147 0 223 -92.5t76 -243.5q0 -41 -2.5 -195t-2.5 -221q0 -49 35 -64q46 -16 99 -16q124 0 181.5 52.5t57.5 189.5q21 4 60.5 -6t40.5 -31q1 -53 -7 -96.5
t-34 -87t-68.5 -73t-115 -47.5t-169.5 -18q-134 0 -192 39q-38 21 -41 101q-48 -55 -116 -95.5t-150 -40.5q-102 0 -168 66t-66 160q0 36 11.5 68t27 56.5t45 47.5t51 37.5t61 30.5t58.5 23t60.5 18t50.5 13t43 9q43 10 90 18zM545 254v182q-330 -58 -330 -203
q0 -63 39.5 -102t101.5 -39q95 0 174 98q15 22 15 64zM403 1356q73 0 121.5 -48t48.5 -122t-49 -122t-125 -48q-71 0 -120.5 45.5t-49.5 120.5q0 73 47.5 123.5t126.5 50.5zM399 1274q-33 0 -53 -27t-20 -59q0 -40 23 -66t57 -26q35 1 53 26.5t18 61.5q0 39 -20 64.5
t-58 25.5z" />
    <glyph glyph-name="atilde.end" horiz-adv-x="1179" 
d="M547 522v76q0 86 -46 140.5t-134 54.5q-104 0 -226 -91q-31 -5 -49 21.5t-18 56.5q68 56 156.5 98t177.5 42q147 0 223 -92.5t76 -243.5q0 -41 -2.5 -195t-2.5 -221q0 -49 35 -64q46 -16 99 -16q124 0 181.5 52.5t57.5 189.5q21 4 60.5 -6t40.5 -31q1 -53 -7 -96.5
t-34 -87t-68.5 -73t-115 -47.5t-169.5 -18q-134 0 -192 39q-38 21 -41 101q-48 -55 -116 -95.5t-150 -40.5q-102 0 -168 66t-66 160q0 36 11.5 68t27 56.5t45 47.5t51 37.5t61 30.5t58.5 23t60.5 18t50.5 13t43 9q43 10 90 18zM545 254v182q-330 -58 -330 -203
q0 -63 39.5 -102t101.5 -39q95 0 174 98q15 22 15 64zM326 1303q59 0 110 -68q42 -49 58 -49q35 0 51 96q6 21 20 21q28 0 64 -29q-22 -205 -140 -205q-17 0 -30.5 4.5t-31 20t-22.5 21t-28 30.5q-23 26 -34 35.5t-24 9.5q-36 -3 -59 -92q-4 -21 -16 -21q-32 0 -72 17
q4 39 13.5 73.5t27 66.5t46.5 50.5t67 18.5z" />
    <glyph glyph-name="eacute.end" horiz-adv-x="1296" 
d="M756 145q-1 -44 -23.5 -79t-50.5 -50q-21 -13 -77.5 -27t-110.5 -14q-211 0 -324 118.5t-113 336.5q0 133 47.5 243t143 178.5t223.5 68.5q110 0 186 -50.5t108 -130t28 -180.5h165q120 0 172.5 58t53.5 194q38 3 71 -10.5t33 -40.5q0 -65 -19.5 -120t-60 -101
t-113.5 -72.5t-171 -26.5q-20 0 -208.5 3t-240.5 3q-197 0 -252 -10q0 -158 88.5 -247t229.5 -89q55 0 116.5 14.5t98.5 30.5zM455 825q-89 0 -152.5 -78t-77.5 -202q29 11 154 14t223 -2q19 -2 32 9t13 28q2 102 -48 166.5t-144 64.5zM551 1368q24 0 53 -13.5t47 -31.5
q14 -14 -6 -37q-96 -108 -203 -264q-30 9 -49 31q-14 14 2 53q39 87 86.5 174.5t69.5 87.5z" />
    <glyph glyph-name="ecircumflex.end" horiz-adv-x="1296" 
d="M756 145q-1 -44 -23.5 -79t-50.5 -50q-21 -13 -77.5 -27t-110.5 -14q-211 0 -324 118.5t-113 336.5q0 133 47.5 243t143 178.5t223.5 68.5q110 0 186 -50.5t108 -130t28 -180.5h165q120 0 172.5 58t53.5 194q38 3 71 -10.5t33 -40.5q0 -65 -19.5 -120t-60 -101
t-113.5 -72.5t-171 -26.5q-20 0 -208.5 3t-240.5 3q-197 0 -252 -10q0 -158 88.5 -247t229.5 -89q55 0 116.5 14.5t98.5 30.5zM455 825q-89 0 -152.5 -78t-77.5 -202q29 11 154 14t223 -2q19 -2 32 9t13 28q2 102 -48 166.5t-144 64.5zM324 1034q-41 0 -80 27
q16 28 51.5 85.5t59.5 99t46 83.5q13 26 33 31q31 8 62 8q38 -71 174 -301q-50 -33 -82 -33q-20 0 -31 19q-11 21 -44 79t-56 101q-37 -65 -107 -184q-15 -15 -26 -15z" />
    <glyph glyph-name="edieresis.end" horiz-adv-x="1296" 
d="M756 145q-1 -44 -23.5 -79t-50.5 -50q-21 -13 -77.5 -27t-110.5 -14q-211 0 -324 118.5t-113 336.5q0 133 47.5 243t143 178.5t223.5 68.5q110 0 186 -50.5t108 -130t28 -180.5h165q120 0 172.5 58t53.5 194q38 3 71 -10.5t33 -40.5q0 -65 -19.5 -120t-60 -101
t-113.5 -72.5t-171 -26.5q-20 0 -208.5 3t-240.5 3q-197 0 -252 -10q0 -158 88.5 -247t229.5 -89q55 0 116.5 14.5t98.5 30.5zM455 825q-89 0 -152.5 -78t-77.5 -202q29 11 154 14t223 -2q19 -2 32 9t13 28q2 102 -48 166.5t-144 64.5zM301 1274q36 0 61 -27.5t25 -64.5
q0 -44 -25.5 -70.5t-66.5 -26.5q-37 0 -63.5 24.5t-26.5 68.5q0 41 26 68.5t70 27.5zM623 1274q38 0 62 -26.5t24 -65.5q0 -44 -26 -70.5t-69 -26.5q-34 0 -60 24.5t-26 68.5q0 42 25 69t70 27z" />
    <glyph glyph-name="egrave.end" horiz-adv-x="1296" 
d="M756 145q-1 -44 -23.5 -79t-50.5 -50q-21 -13 -77.5 -27t-110.5 -14q-211 0 -324 118.5t-113 336.5q0 133 47.5 243t143 178.5t223.5 68.5q110 0 186 -50.5t108 -130t28 -180.5h165q120 0 172.5 58t53.5 194q38 3 71 -10.5t33 -40.5q0 -65 -19.5 -120t-60 -101
t-113.5 -72.5t-171 -26.5q-20 0 -208.5 3t-240.5 3q-197 0 -252 -10q0 -158 88.5 -247t229.5 -89q55 0 116.5 14.5t98.5 30.5zM455 825q-89 0 -152.5 -78t-77.5 -202q29 11 154 14t223 -2q19 -2 32 9t13 28q2 102 -48 166.5t-144 64.5zM385 1372q23 -1 77 -99.5t81 -172.5
q10 -29 -8 -47q-23 -23 -48 -27q-99 151 -204 262q-17 17 8 39q48 45 94 45z" />
    <glyph glyph-name="ntilde.end" horiz-adv-x="1351" 
d="M883 563l-2 -405q0 -41 32 -52q37 -16 97 -16q124 0 180.5 52.5t56.5 191.5q20 4 60 -7t41 -32q1 -53 -7 -96.5t-33 -86.5t-67 -72.5t-112.5 -48t-165.5 -18.5q-116 0 -195 29q-21 7 -35 29t-14 57v469q0 118 -50.5 178t-136.5 60q-73 0 -133 -38.5t-98 -94.5v-615
q0 -31 -8 -40.5t-35 -12.5q-19 -3 -40 -4t-46 -1t-39 -1q6 105 6 379v348q0 102 -33 125v8q9 27 41 49.5t56 22.5q73 0 90 -154q146 154 293 154q82 0 141 -28t92.5 -78.5t48.5 -112.5t15 -138zM422 1303q62 0 113 -68q42 -49 57 -49q35 0 51 96q6 21 21 21q27 0 63 -29
q-22 -205 -139 -205q-22 0 -43.5 12.5t-32.5 23.5t-37 40q-23 27 -34 36t-23 9q-19 -2 -35 -26.5t-25 -65.5q-4 -21 -16 -21q-32 0 -72 17q4 39 13.5 73.5t26.5 66.5t46 50.5t66 18.5z" />
    <glyph glyph-name="oacute.end" horiz-adv-x="1296" 
d="M494 -25q-110 0 -195.5 39t-137 105t-78 148t-26.5 175q0 199 128 338.5t325 139.5q104 0 217 -33q83 -25 207 -25q75 0 125.5 15.5t79 47.5t41 74t14.5 103q35 5 67.5 -14.5t32.5 -49.5q0 -142 -92 -218.5t-270 -76.5q-54 0 -88 5q41 -52 64.5 -132t23.5 -163
q0 -211 -118.5 -344.5t-319.5 -133.5zM500 821q-114 0 -192.5 -97t-78.5 -267q0 -187 80.5 -285t204.5 -98q104 0 177 94.5t73 280.5q0 169 -66 270.5t-198 101.5zM612 1368q24 0 53.5 -13.5t47.5 -31.5q14 -14 -6 -37q-96 -108 -203 -264q-34 10 -49 31q-15 12 2 53
q40 89 86.5 175.5t68.5 86.5z" />
    <glyph glyph-name="ocircumflex.end" horiz-adv-x="1296" 
d="M494 -25q-110 0 -195.5 39t-137 105t-78 148t-26.5 175q0 199 128 338.5t325 139.5q104 0 217 -33q83 -25 207 -25q75 0 125.5 15.5t79 47.5t41 74t14.5 103q35 5 67.5 -14.5t32.5 -49.5q0 -142 -92 -218.5t-270 -76.5q-54 0 -88 5q41 -52 64.5 -132t23.5 -163
q0 -211 -118.5 -344.5t-319.5 -133.5zM500 821q-114 0 -192.5 -97t-78.5 -267q0 -187 80.5 -285t204.5 -98q104 0 177 94.5t73 280.5q0 169 -66 270.5t-198 101.5zM387 1034q-17 0 -42 8.5t-38 18.5q13 23 71 118t85 150q13 25 35 31q31 8 61 8q59 -110 172 -301
q-44 -33 -82 -33q-17 0 -28 19q-14 26 -48 83.5t-55 96.5q-46 -84 -104 -184q-15 -15 -27 -15z" />
    <glyph glyph-name="odieresis.end" horiz-adv-x="1296" 
d="M494 -25q-110 0 -195.5 39t-137 105t-78 148t-26.5 175q0 199 128 338.5t325 139.5q104 0 217 -33q83 -25 207 -25q75 0 125.5 15.5t79 47.5t41 74t14.5 103q35 5 67.5 -14.5t32.5 -49.5q0 -142 -92 -218.5t-270 -76.5q-54 0 -88 5q41 -52 64.5 -132t23.5 -163
q0 -211 -118.5 -344.5t-319.5 -133.5zM500 821q-114 0 -192.5 -97t-78.5 -267q0 -187 80.5 -285t204.5 -98q104 0 177 94.5t73 280.5q0 169 -66 270.5t-198 101.5zM362 1274q38 0 63.5 -27.5t25.5 -64.5q0 -44 -26 -70.5t-69 -26.5q-35 0 -61.5 24.5t-26.5 68.5
q0 41 25 68.5t69 27.5zM686 1274q38 0 62 -26.5t24 -65.5q0 -44 -26 -70.5t-68 -26.5q-34 0 -61 24.5t-27 68.5q0 42 25 69t71 27z" />
    <glyph glyph-name="ograve.end" horiz-adv-x="1296" 
d="M494 -25q-110 0 -195.5 39t-137 105t-78 148t-26.5 175q0 199 128 338.5t325 139.5q104 0 217 -33q83 -25 207 -25q75 0 125.5 15.5t79 47.5t41 74t14.5 103q35 5 67.5 -14.5t32.5 -49.5q0 -142 -92 -218.5t-270 -76.5q-54 0 -88 5q41 -52 64.5 -132t23.5 -163
q0 -211 -118.5 -344.5t-319.5 -133.5zM500 821q-114 0 -192.5 -97t-78.5 -267q0 -187 80.5 -285t204.5 -98q104 0 177 94.5t73 280.5q0 169 -66 270.5t-198 101.5zM434 1372q23 -1 77 -99.5t81 -172.5q12 -29 -6 -47q-23 -23 -47 -27q-104 153 -205 262q-16 16 6 39
q52 45 94 45z" />
    <glyph glyph-name="oslash.end" horiz-adv-x="1304" 
d="M170 4l43 66q-77 65 -116.5 164t-39.5 208q0 202 130.5 340t330.5 138q99 0 213 -29l45 70q13 19 21 19t18 -13q30 -30 35 -60l-25 -35q68 -10 133 -10q75 0 123.5 15t74.5 48t36 73.5t12 103.5q36 5 67.5 -13t31.5 -51q0 -295 -347 -295q-58 0 -92 5q41 -52 64.5 -132
t23.5 -163q0 -209 -121.5 -343.5t-326.5 -134.5q-121 0 -213 45l-43 -69q-23 -32 -43 -6q-26 30 -35 59zM297 207l365 573q-62 41 -150 41q-115 0 -200 -98t-85 -266q0 -154 70 -250zM723 711l-363 -580q69 -57 166 -57q48 0 94.5 22t87 65t65 118t24.5 170q0 166 -74 262z
" />
    <glyph glyph-name="otilde.end" horiz-adv-x="1296" 
d="M494 -25q-110 0 -195.5 39t-137 105t-78 148t-26.5 175q0 199 128 338.5t325 139.5q104 0 217 -33q83 -25 207 -25q75 0 125.5 15.5t79 47.5t41 74t14.5 103q35 5 67.5 -14.5t32.5 -49.5q0 -142 -92 -218.5t-270 -76.5q-54 0 -88 5q41 -52 64.5 -132t23.5 -163
q0 -211 -118.5 -344.5t-319.5 -133.5zM500 821q-114 0 -192.5 -97t-78.5 -267q0 -187 80.5 -285t204.5 -98q104 0 177 94.5t73 280.5q0 169 -66 270.5t-198 101.5zM442 1303q62 0 113 -68q36 -49 57 -49q36 0 52 96q6 21 20 21q28 0 64 -29q-22 -205 -140 -205q-9 0 -17.5 2
t-14.5 4t-15 8t-13 8.5t-13.5 12t-12.5 12t-14.5 14.5t-13.5 15q-21 26 -32.5 35.5t-25.5 9.5q-36 -3 -59 -92q-3 -21 -17 -21q-29 0 -69 17q22 209 151 209z" />
    <glyph glyph-name="uacute.end" horiz-adv-x="1333" 
d="M700 211v616q0 36 6.5 49t26.5 19q102 12 135 12q0 -6 -3 -133t-3 -233v-383q0 -36 33 -52q36 -20 104 -20q123 0 180 53t54 193q33 4 65 -8t33 -37q1 -48 -5.5 -88.5t-30.5 -84t-65 -74t-113.5 -50t-170.5 -19.5q-136 0 -194 37q-14 11 -26.5 41t-12.5 72
q-51 -62 -133 -104t-158 -42q-148 0 -219.5 89t-71.5 241v350q0 146 -8 232q55 20 141 20q11 0 16 -7t8 -34.5t3 -85.5q2 -135 2 -422q0 -65 12 -112.5t30.5 -74t46 -42.5t52 -20.5t55.5 -4.5q68 0 123.5 31.5t87.5 75.5zM590 1368q24 0 53.5 -13.5t44.5 -31.5
q17 -14 -4 -37q-76 -83 -205 -264q-30 9 -49 31q-13 13 4 53q32 77 83 169.5t73 92.5z" />
    <glyph glyph-name="ucircumflex.end" horiz-adv-x="1333" 
d="M700 211v616q0 36 6.5 49t26.5 19q102 12 135 12q0 -6 -3 -133t-3 -233v-383q0 -36 33 -52q36 -20 104 -20q123 0 180 53t54 193q33 4 65 -8t33 -37q1 -48 -5.5 -88.5t-30.5 -84t-65 -74t-113.5 -50t-170.5 -19.5q-136 0 -194 37q-14 11 -26.5 41t-12.5 72
q-51 -62 -133 -104t-158 -42q-148 0 -219.5 89t-71.5 241v350q0 146 -8 232q55 20 141 20q11 0 16 -7t8 -34.5t3 -85.5q2 -135 2 -422q0 -65 12 -112.5t30.5 -74t46 -42.5t52 -20.5t55.5 -4.5q68 0 123.5 31.5t87.5 75.5zM358 1034q-44 0 -79 27q12 21 69 117t86 151
q13 25 35 31q27 8 61 8q59 -110 172 -301q-44 -33 -81 -33q-18 0 -29 19q-11 22 -46 79.5t-57 100.5q-21 -40 -106 -184q-15 -15 -25 -15z" />
    <glyph glyph-name="udieresis.end" horiz-adv-x="1333" 
d="M700 211v616q0 36 6.5 49t26.5 19q102 12 135 12q0 -6 -3 -133t-3 -233v-383q0 -36 33 -52q36 -20 104 -20q123 0 180 53t54 193q33 4 65 -8t33 -37q1 -48 -5.5 -88.5t-30.5 -84t-65 -74t-113.5 -50t-170.5 -19.5q-136 0 -194 37q-14 11 -26.5 41t-12.5 72
q-51 -62 -133 -104t-158 -42q-148 0 -219.5 89t-71.5 241v350q0 146 -8 232q55 20 141 20q11 0 16 -7t8 -34.5t3 -85.5q2 -135 2 -422q0 -65 12 -112.5t30.5 -74t46 -42.5t52 -20.5t55.5 -4.5q68 0 123.5 31.5t87.5 75.5zM334 1274q37 0 61.5 -27t24.5 -65
q0 -44 -25.5 -70.5t-66.5 -26.5q-37 0 -62.5 24t-25.5 69q0 41 25 68.5t69 27.5zM655 1274q38 0 63 -26.5t25 -65.5q0 -44 -26 -70.5t-68 -26.5q-34 0 -61 24.5t-27 68.5q0 41 25 68.5t69 27.5z" />
    </font>
</defs>
</svg>
