<svg xmlns="http://www.w3.org/2000/svg">
<defs>
<font id="GTAmerica-Regular" horiz-adv-x="620">
  <font-face font-family="GT America" font-weight="400" font-stretch="normal" units-per-em="1000" panose-1="0 0 5 0 0 0 0 0 0 0" ascent="785" descent="-215" x-height="500" cap-height="710" bbox="-416 -239 1149 942" underline-thickness="50" underline-position="-100" stemh="80" stemv="95" unicode-range="U+000D-FB02"/>

<glyph glyph-name="fi" unicode="fi" horiz-adv-x="612" d="M322 500v-70h-125v-430h-85v430h-92v70h92v79c0 91 57 152 146 152c24 0 45 -2 64 -7v-73c-18 3 -37 5 -53 5c-51 0 -72 -28 -72 -89v-67h125zM431 593v107h97v-107h-97zM437 0v500h85v-500h-85z"/>
    <glyph glyph-name="fl" unicode="fl" horiz-adv-x="622" d="M322 500v-70h-125v-430h-85v430h-92v70h92v79c0 91 57 152 146 152c24 0 45 -2 64 -7v-73c-18 3 -37 5 -53 5c-51 0 -72 -28 -72 -89v-67h125zM527 725v-725h-85v725h85z"/>
    <glyph glyph-name="g_g.liga" unicode="gg" horiz-adv-x="1013" d="M360 491c13 48 48 91 116 91c12 0 23 -1 34 -4v-73c-15 2 -22 4 -40 4c-24 0 -53 -10 -68 -47c30 -29 47 -70 47 -119c0 -103 -77 -170 -185 -170c-36 0 -68 7 -95 21c-23 -11 -38 -28 -38 -48c0 -31 22 -53 84 -53h89c129 0 169 -64 169 -139c0 -85 -64 -161 -223 -161 c-109 0 -215 36 -215 129c0 54 38 92 91 108c-51 18 -70 53 -70 92c0 42 25 81 74 98c-32 30 -51 72 -51 123c0 104 77 169 185 169c36 0 68 -7 96 -21zM953 512c-30 0 -53 -14 -68 -50c30 -30 47 -71 47 -120c0 -103 -77 -170 -185 -170c-34 0 -65 7 -91 19 c-21 -11 -34 -28 -34 -46c0 -31 22 -53 94 -53h99c129 0 169 -64 169 -139c0 -85 -74 -160 -233 -160c-109 0 -215 35 -215 128c0 53 37 90 88 107c-57 18 -77 53 -77 93s23 78 68 96c-33 30 -53 73 -53 125c0 104 77 170 185 170c36 0 68 -7 96 -21c13 48 48 90 116 90 c12 0 23 -1 34 -4v-69c-15 2 -22 4 -40 4zM264 238c61 0 105 40 105 105s-44 104 -105 104s-105 -39 -105 -104s44 -105 105 -105zM747 237c61 0 105 40 105 105s-44 105 -105 105s-105 -40 -105 -105s44 -105 105 -105zM291 18h-78c-15 0 -29 1 -42 2 c-36 -15 -53 -41 -53 -71c0 -64 55 -86 149 -86c92 0 122 31 122 83s-31 72 -98 72zM900 -55c0 52 -31 72 -98 72h-88c-14 0 -27 1 -39 2c-39 -16 -56 -42 -56 -71c0 -64 55 -85 149 -85c92 0 132 30 132 82z"/>
    <glyph glyph-name=".notdef" horiz-adv-x="1018" d="M998 663h-552v-47h552v-48h-552v-47h552v-48h-552v-47h552v-47h-552v-48h552v-47h-978v426h978v-47zM67 667l13 9h-16l-5 15l-4 -15h-16l13 -9l-5 -15l12 9l13 -9zM142 676h-16l13 -9l-5 -15l12 10l13 -10l-5 15l12 9h-15l-5 15zM229 676h-16l13 -9l-5 -15l12 10l13 -10 l-5 15l12 9h-15l-5 15zM315 676h-15l13 -9l-5 -15l12 10l13 -10l-5 15l12 9h-15l-5 15zM415 667l12 9h-15l-5 15l-5 -15h-15l12 -9l-4 -15l12 10l13 -10zM98 632h-15l12 -9l-4 -14l12 9l12 -9l-4 14l12 9h-15l-5 15zM371 623l13 9h-16l-4 15l-5 -15h-15l12 -9l-5 -14l13 9 l12 -9zM273 364v93h94v80h-94v94h-80v-94h-93v-80h93v-93h80zM67 580l13 9h-16l-5 14l-4 -14h-16l13 -9l-5 -15l12 9l13 -9zM142 589h-16l13 -9l-5 -15l12 9l13 -9l-5 15l12 9h-15l-5 14zM315 589h-15l13 -9l-5 -15l12 9l13 -9l-5 15l12 9h-15l-5 14zM415 580l12 9h-15 l-5 14l-5 -14h-15l12 -9l-4 -15l12 9l13 -9zM67 492l13 10h-16l-5 14l-4 -14h-16l13 -10l-5 -14l12 9l13 -9zM415 492l12 10h-15l-5 14l-5 -14h-15l12 -10l-4 -14l12 9l13 -9zM67 405l13 9h-16l-5 15l-4 -15h-16l13 -9l-5 -14l12 9l13 -9zM154 405l12 9h-15l-5 15l-4 -15 h-16l13 -9l-5 -14l12 9l13 -9zM328 405l12 9h-15l-5 15l-5 -15h-15l13 -9l-5 -14l12 9l13 -9zM415 405l12 9h-15l-5 15l-5 -15h-15l12 -9l-4 -14l12 9l13 -9zM115 347l-4 15l12 9h-15l-5 14l-5 -14h-15l12 -9l-4 -15l12 9zM376 347l-5 15l13 9h-16l-4 14l-5 -14h-15l12 -9 l-5 -15l13 9zM72 303l-5 15l13 9h-16l-5 15l-4 -15h-16l13 -9l-5 -15l12 9zM159 303l-5 15l12 9h-15l-5 15l-4 -15h-16l13 -9l-5 -15l12 9zM246 303l-5 15l12 9h-15l-5 15l-4 -15h-16l13 -9l-5 -15l12 9zM333 303l-5 15l12 9h-15l-5 15l-5 -15h-15l13 -9l-5 -15l12 9z M420 303l-5 15l12 9h-15l-5 15l-5 -15h-15l12 -9l-4 -15l12 9zM20 189v48h977v-48h-977zM20 95v47h978v-47h-978zM20 0v47h978v-47h-978z"/>
    <glyph glyph-name="CR" unicode="&#xD;" horiz-adv-x="0"/>
    <glyph glyph-name=".null" horiz-adv-x="0"/>
    <glyph glyph-name="space" unicode=" " horiz-adv-x="260"/>
    <glyph glyph-name="A" unicode="A" horiz-adv-x="672" d="M554 0l-73 205h-290l-73 -205h-98l269 710h94l269 -710h-98zM219 285h234l-99 277c-6 16 -11 33 -17 54h-2c-6 -21 -11 -38 -17 -54z"/>
    <glyph glyph-name="B" unicode="B" horiz-adv-x="658" d="M464 367c85 -15 139 -77 139 -172c0 -91 -55 -195 -235 -195h-268v710h247c187 0 236 -105 236 -189c0 -67 -38 -131 -119 -154zM347 630h-152v-228h152c122 0 142 63 142 112c0 56 -27 116 -142 116zM363 80c111 0 146 60 146 124c0 66 -39 118 -136 118h-178v-242h168z "/>
    <glyph glyph-name="C" unicode="C" horiz-adv-x="699" d="M365 -17c-220 0 -320 168 -320 374c0 218 112 370 323 370c173 0 263 -102 281 -249l-97 -10c-14 107 -79 178 -189 178c-139 0 -218 -116 -218 -288c0 -166 75 -292 220 -292c101 0 172 67 192 173l92 -16c-27 -134 -113 -240 -284 -240z"/>
    <glyph glyph-name="D" unicode="D" horiz-adv-x="715" d="M100 0v710h233c204 0 337 -143 337 -354c0 -207 -132 -356 -339 -356h-231zM195 80h134c153 0 240 124 240 276c0 158 -85 274 -238 274h-136v-550z"/>
    <glyph glyph-name="E" unicode="E" horiz-adv-x="612" d="M195 80h352v-80h-447v710h440v-80h-345v-226h328v-80h-328v-244z"/>
    <glyph glyph-name="F" unicode="F" horiz-adv-x="580" d="M540 630h-345v-226h328v-80h-328v-324h-95v710h440v-80z"/>
    <glyph glyph-name="G" unicode="G" horiz-adv-x="726" d="M356 -17c-194 0 -311 158 -311 372c0 217 117 372 327 372c196 0 259 -136 271 -215l-94 -13c-10 60 -53 148 -180 148c-145 0 -227 -120 -227 -293c0 -162 74 -290 228 -290c175 0 201 147 201 215v12h-208v80h293v-371h-69l-13 114c-31 -77 -112 -131 -218 -131z"/>
    <glyph glyph-name="H" unicode="H" horiz-adv-x="748" d="M648 710v-710h-95v323h-358v-323h-95v710h95v-307h358v307h95z"/>
    <glyph glyph-name="I" unicode="I" horiz-adv-x="295" d="M195 0h-95v710h95v-710z"/>
    <glyph glyph-name="J" unicode="J" horiz-adv-x="394" d="M309 191c0 -159 -100 -203 -206 -203c-30 0 -62 1 -83 7v88c28 -5 63 -5 84 -5c58 0 110 21 110 120v512h95v-519z"/>
    <glyph glyph-name="K" unicode="K" horiz-adv-x="668" d="M537 0l-237 358l-105 -115v-243h-95v710h95v-352l312 352h119l-261 -284l283 -426h-111z"/>
    <glyph glyph-name="L" unicode="L" horiz-adv-x="543" d="M100 0v710h95v-630h328v-80h-423z"/>
    <glyph glyph-name="M" unicode="M" horiz-adv-x="884" d="M100 0v710h135l188 -546c12 -35 14 -41 18 -67h2c4 26 6 32 18 67l188 546h135v-710h-87v548c0 29 1 53 4 76h-4c-2 -14 -12 -57 -21 -81l-188 -543h-92l-188 543c-9 24 -19 67 -21 81h-4c3 -23 4 -47 4 -76v-548h-87z"/>
    <glyph glyph-name="N" unicode="N" horiz-adv-x="744" d="M100 0v710h115l301 -517c20 -35 33 -61 44 -91h2c-2 25 -3 51 -3 94v514h85v-710h-115l-301 517c-20 35 -33 59 -44 91h-2c2 -25 3 -51 3 -94v-514h-85z"/>
    <glyph glyph-name="O" unicode="O" horiz-adv-x="739" d="M370 -17c-197 0 -325 145 -325 372c0 232 128 372 325 372c196 0 324 -140 324 -372c0 -230 -128 -372 -324 -372zM370 63c142 0 224 111 224 292c0 182 -82 292 -224 292s-225 -110 -225 -292c0 -178 83 -292 225 -292z"/>
    <glyph glyph-name="P" unicode="P" horiz-adv-x="613" d="M352 710c147 0 241 -82 241 -210s-94 -210 -241 -210h-157v-290h-95v710h252zM342 370c92 0 151 51 151 130s-59 130 -151 130h-147v-260h147z"/>
    <glyph glyph-name="Q" unicode="Q" horiz-adv-x="739" d="M492 4c43 -49 88 -52 122 -52c20 0 34 3 51 7v-83c-24 -3 -42 -6 -68 -6c-91 0 -157 45 -189 115c-12 -1 -25 -2 -38 -2c-197 0 -325 145 -325 372c0 232 128 372 325 372c196 0 324 -140 324 -372c0 -178 -76 -303 -202 -351zM145 355c0 -178 83 -292 225 -292 s224 111 224 292c0 182 -82 292 -224 292s-225 -110 -225 -292z"/>
    <glyph glyph-name="R" unicode="R" horiz-adv-x="665" d="M513 0l-174 295h-144v-295h-95v710h263c186 0 235 -104 235 -208c0 -80 -41 -167 -160 -194l182 -308h-107zM195 630v-255h157c110 0 146 56 146 127c0 73 -37 128 -146 128h-157z"/>
    <glyph glyph-name="S" unicode="S" horiz-adv-x="614" d="M315 -17c-181 0 -273 98 -285 228l96 14c13 -87 67 -164 192 -164c77 0 158 32 158 122c0 84 -52 111 -135 128l-103 21c-101 21 -178 74 -178 196c0 119 96 199 247 199c141 0 249 -63 263 -202l-95 -20c-12 95 -65 147 -170 147c-87 0 -147 -43 -147 -115 c0 -69 37 -105 116 -122l104 -22c110 -23 196 -72 196 -201c0 -110 -82 -209 -259 -209z"/>
    <glyph glyph-name="T" unicode="T" horiz-adv-x="561" d="M551 710v-80h-223v-630h-95v630h-223v80h541z"/>
    <glyph glyph-name="U" unicode="U" horiz-adv-x="716" d="M85 710h95v-456c0 -114 63 -187 178 -187s178 73 178 187v456h95v-462c0 -158 -97 -265 -273 -265s-273 107 -273 265v462z"/>
    <glyph glyph-name="V" unicode="V" horiz-adv-x="606" d="M251 0l-246 710h100l170 -522c14 -42 21 -70 26 -96h4c5 26 12 54 26 96l170 522h100l-246 -710h-104z"/>
    <glyph glyph-name="W" unicode="W" horiz-adv-x="912" d="M194 0l-169 710h97l123 -572c4 -19 5 -28 6 -39h3c1 10 3 19 8 39l146 572h96l146 -572c5 -20 7 -29 8 -39h3c1 11 2 20 6 39l123 572h97l-169 -710h-116l-138 554c-3 12 -5 21 -6 33h-4c-1 -12 -3 -21 -6 -33l-138 -554h-116z"/>
    <glyph glyph-name="X" unicode="X" horiz-adv-x="640" d="M15 0l248 375l-225 335h111l149 -233c12 -20 17 -28 23 -42h2c6 15 11 22 23 41l148 234h105l-223 -343l249 -367h-112l-162 252c-20 31 -25 37 -33 56h-2c-7 -16 -19 -35 -33 -56l-161 -252h-107z"/>
    <glyph glyph-name="Y" unicode="Y" horiz-adv-x="578" d="M241 0v283l-241 427h106l163 -301c10 -19 16 -32 19 -41h2c3 9 9 22 19 41l163 301h106l-241 -427v-283h-96z"/>
    <glyph glyph-name="Z" unicode="Z" horiz-adv-x="569" d="M35 88l399 542h-386v80h487v-88l-400 -542h414v-80h-514v88z"/>
    <glyph glyph-name="Aacute" unicode="Á" horiz-adv-x="672" d="M480 861l-104 -108h-80l90 108h94zM554 0l-73 205h-290l-73 -205h-98l269 710h94l269 -710h-98zM219 285h234l-99 277c-6 16 -11 33 -17 54h-2c-6 -21 -11 -38 -17 -54z"/>
    <glyph glyph-name="Abreve" unicode="Ă" horiz-adv-x="672" d="M336 748c-92 0 -144 42 -150 113h72c6 -36 31 -55 78 -55c48 0 72 19 78 55h72c-6 -71 -58 -113 -150 -113zM554 0l-73 205h-290l-73 -205h-98l269 710h94l269 -710h-98zM219 285h234l-99 277c-6 16 -11 33 -17 54h-2c-6 -21 -11 -38 -17 -54z"/>
    <glyph glyph-name="Acircumflex" unicode="Â" horiz-adv-x="672" d="M336 825l-64 -72h-86l97 108h106l97 -108h-86zM554 0l-73 205h-290l-73 -205h-98l269 710h94l269 -710h-98zM219 285h234l-99 277c-6 16 -11 33 -17 54h-2c-6 -21 -11 -38 -17 -54z"/>
    <glyph glyph-name="Adieresis" unicode="Ä" horiz-adv-x="672" d="M273 851v-98h-97v98h97zM496 851v-98h-97v98h97zM554 0l-73 205h-290l-73 -205h-98l269 710h94l269 -710h-98zM219 285h234l-99 277c-6 16 -11 33 -17 54h-2c-6 -21 -11 -38 -17 -54z"/>
    <glyph glyph-name="AE" unicode="Æ" horiz-adv-x="926" d="M533 80h328v-80h-423v174h-250l-97 -174h-101l415 710h449v-80h-321v-226h304v-80h-304v-244zM232 254h206v371z"/>
    <glyph glyph-name="AEacute" unicode="Ǽ" horiz-adv-x="926" d="M779 861l-104 -108h-80l90 108h94zM533 80h328v-80h-423v174h-250l-97 -174h-101l415 710h449v-80h-321v-226h304v-80h-304v-244zM232 254h206v371z"/>
    <glyph glyph-name="Agrave" unicode="À" horiz-adv-x="672" d="M376 753h-80l-104 108h94zM554 0l-73 205h-290l-73 -205h-98l269 710h94l269 -710h-98zM219 285h234l-99 277c-6 16 -11 33 -17 54h-2c-6 -21 -11 -38 -17 -54z"/>
    <glyph glyph-name="Amacron" unicode="Ā" horiz-adv-x="672" d="M486 835v-68h-300v68h300zM554 0l-73 205h-290l-73 -205h-98l269 710h94l269 -710h-98zM219 285h234l-99 277c-6 16 -11 33 -17 54h-2c-6 -21 -11 -38 -17 -54z"/>
    <glyph glyph-name="Aogonek" unicode="Ą" horiz-adv-x="672" d="M611 -101l59 -8c-10 -59 -42 -94 -106 -94c-63 0 -101 34 -101 87c0 47 31 88 91 116l-73 205h-290l-73 -205h-98l269 710h94l269 -710h-18c-79 -25 -107 -69 -107 -108c0 -26 15 -41 40 -41c23 0 38 16 44 48zM219 285h234l-99 277c-6 16 -11 33 -17 54h-2 c-6 -21 -11 -38 -17 -54z"/>
    <glyph glyph-name="Aring" unicode="Å" horiz-adv-x="672" d="M336 738c-65 0 -109 42 -109 102s44 102 109 102s109 -42 109 -102s-44 -102 -109 -102zM336 894c-31 0 -52 -22 -52 -54s21 -54 52 -54s52 22 52 54s-21 54 -52 54zM554 0l-73 205h-290l-73 -205h-98l269 710h94l269 -710h-98zM219 285h234l-99 277c-6 16 -11 33 -17 54 h-2c-6 -21 -11 -38 -17 -54z"/>
    <glyph glyph-name="Atilde" unicode="Ã" horiz-adv-x="672" d="M272 797c-24 0 -38 -14 -47 -46l-58 11c10 64 49 100 108 100c64 0 83 -49 125 -49c24 0 38 14 47 46l58 -11c-10 -64 -49 -100 -108 -100c-64 0 -83 49 -125 49zM554 0l-73 205h-290l-73 -205h-98l269 710h94l269 -710h-98zM219 285h234l-99 277c-6 16 -11 33 -17 54h-2 c-6 -21 -11 -38 -17 -54z"/>
    <glyph glyph-name="Cacute" unicode="Ć" horiz-adv-x="699" d="M327 753l90 108h94l-104 -108h-80zM365 -17c-220 0 -320 168 -320 374c0 218 112 370 323 370c173 0 263 -102 281 -249l-97 -10c-14 107 -79 178 -189 178c-139 0 -218 -116 -218 -288c0 -166 75 -292 220 -292c101 0 172 67 192 173l92 -16 c-27 -134 -113 -240 -284 -240z"/>
    <glyph glyph-name="Ccaron" unicode="Č" horiz-adv-x="699" d="M517 856l-97 -108h-106l-97 108h86l64 -72l64 72h86zM365 -17c-220 0 -320 168 -320 374c0 218 112 370 323 370c173 0 263 -102 281 -249l-97 -10c-14 107 -79 178 -189 178c-139 0 -218 -116 -218 -288c0 -166 75 -292 220 -292c101 0 172 67 192 173l92 -16 c-27 -134 -113 -240 -284 -240z"/>
    <glyph glyph-name="Ccedilla" unicode="Ç" horiz-adv-x="699" d="M365 66c101 0 172 67 192 173l92 -16c-26 -129 -106 -231 -264 -239l-20 -33c8 7 25 12 43 12c45 0 74 -30 74 -77c0 -51 -42 -85 -105 -85c-52 0 -89 23 -101 63l57 10c6 -17 22 -28 42 -28c25 0 43 17 43 41c0 25 -16 41 -41 41c-13 0 -25 -5 -34 -15l-39 12l31 59 c-199 15 -290 177 -290 373c0 218 112 370 323 370c173 0 263 -102 281 -249l-97 -10c-14 107 -79 178 -189 178c-139 0 -218 -116 -218 -288c0 -166 75 -292 220 -292z"/>
    <glyph glyph-name="Ccircumflex" unicode="Ĉ" horiz-adv-x="699" d="M517 753h-86l-64 72l-64 -72h-86l97 108h106zM365 -17c-220 0 -320 168 -320 374c0 218 112 370 323 370c173 0 263 -102 281 -249l-97 -10c-14 107 -79 178 -189 178c-139 0 -218 -116 -218 -288c0 -166 75 -292 220 -292c101 0 172 67 192 173l92 -16 c-27 -134 -113 -240 -284 -240z"/>
    <glyph glyph-name="Cdotaccent" unicode="Ċ" horiz-adv-x="699" d="M314 753v107h106v-107h-106zM365 -17c-220 0 -320 168 -320 374c0 218 112 370 323 370c173 0 263 -102 281 -249l-97 -10c-14 107 -79 178 -189 178c-139 0 -218 -116 -218 -288c0 -166 75 -292 220 -292c101 0 172 67 192 173l92 -16c-27 -134 -113 -240 -284 -240z "/>
    <glyph glyph-name="Dcaron" unicode="Ď" horiz-adv-x="715" d="M488 856l-97 -108h-106l-97 108h86l64 -72l64 72h86zM100 0v710h233c204 0 337 -143 337 -354c0 -207 -132 -356 -339 -356h-231zM195 80h134c153 0 240 124 240 276c0 158 -85 274 -238 274h-136v-550z"/>
    <glyph glyph-name="Dcroat" unicode="Đ" horiz-adv-x="715" d="M333 710c204 0 337 -143 337 -354c0 -207 -132 -356 -339 -356h-231v335h-86v72h86v303h233zM329 80c153 0 240 124 240 276c0 158 -85 274 -238 274h-136v-223h175v-72h-175v-255h134z"/>
    <glyph glyph-name="Eacute" unicode="É" horiz-adv-x="612" d="M470 861l-104 -108h-80l90 108h94zM195 80h352v-80h-447v710h440v-80h-345v-226h328v-80h-328v-244z"/>
    <glyph glyph-name="Ebreve" unicode="Ĕ" horiz-adv-x="612" d="M326 748c-92 0 -144 42 -150 113h72c6 -36 31 -55 78 -55c48 0 72 19 78 55h72c-6 -71 -58 -113 -150 -113zM195 80h352v-80h-447v710h440v-80h-345v-226h328v-80h-328v-244z"/>
    <glyph glyph-name="Ecaron" unicode="Ě" horiz-adv-x="612" d="M379 748h-106l-97 108h86l64 -72l64 72h86zM195 80h352v-80h-447v710h440v-80h-345v-226h328v-80h-328v-244z"/>
    <glyph glyph-name="Ecircumflex" unicode="Ê" horiz-adv-x="612" d="M326 825l-64 -72h-86l97 108h106l97 -108h-86zM195 80h352v-80h-447v710h440v-80h-345v-226h328v-80h-328v-244z"/>
    <glyph glyph-name="Edieresis" unicode="Ë" horiz-adv-x="612" d="M263 851v-98h-97v98h97zM486 851v-98h-97v98h97zM195 80h352v-80h-447v710h440v-80h-345v-226h328v-80h-328v-244z"/>
    <glyph glyph-name="Edotaccent" unicode="Ė" horiz-adv-x="612" d="M379 860v-107h-106v107h106zM195 80h352v-80h-447v710h440v-80h-345v-226h328v-80h-328v-244z"/>
    <glyph glyph-name="Egrave" unicode="È" horiz-adv-x="612" d="M366 753h-80l-104 108h94zM195 80h352v-80h-447v710h440v-80h-345v-226h328v-80h-328v-244z"/>
    <glyph glyph-name="Emacron" unicode="Ē" horiz-adv-x="612" d="M476 835v-68h-300v68h300zM195 80h352v-80h-447v710h440v-80h-345v-226h328v-80h-328v-244z"/>
    <glyph glyph-name="Eogonek" unicode="Ę" horiz-adv-x="612" d="M524 -101l59 -8c-10 -59 -42 -94 -106 -94c-63 0 -101 34 -101 87c0 47 31 88 91 116h-367v710h440v-80h-345v-226h328v-80h-328v-244h352v-80c-79 -25 -107 -69 -107 -108c0 -26 15 -41 40 -41c23 0 38 16 44 48z"/>
    <glyph glyph-name="Eth" unicode="Ð" horiz-adv-x="715" d="M333 710c204 0 337 -143 337 -354c0 -207 -132 -356 -339 -356h-231v335h-86v72h86v303h233zM329 80c153 0 240 124 240 276c0 158 -85 274 -238 274h-136v-223h175v-72h-175v-255h134z"/>
    <glyph glyph-name="Gbreve" unicode="Ğ" horiz-adv-x="726" d="M288 861c6 -36 31 -55 78 -55c48 0 72 19 78 55h72c-6 -71 -58 -113 -150 -113s-144 42 -150 113h72zM356 -17c-194 0 -311 158 -311 372c0 217 117 372 327 372c196 0 259 -136 271 -215l-94 -13c-10 60 -53 148 -180 148c-145 0 -227 -120 -227 -293 c0 -162 74 -290 228 -290c175 0 201 147 201 215v12h-208v80h293v-371h-69l-13 114c-31 -77 -112 -131 -218 -131z"/>
    <glyph glyph-name="Gcircumflex" unicode="Ĝ" horiz-adv-x="726" d="M516 753h-86l-64 72l-64 -72h-86l97 108h106zM356 -17c-194 0 -311 158 -311 372c0 217 117 372 327 372c196 0 259 -136 271 -215l-94 -13c-10 60 -53 148 -180 148c-145 0 -227 -120 -227 -293c0 -162 74 -290 228 -290c175 0 201 147 201 215v12h-208v80h293v-371h-69 l-13 114c-31 -77 -112 -131 -218 -131z"/>
    <glyph glyph-name="uni0122" unicode="Ģ" horiz-adv-x="726" d="M356 -17c-194 0 -311 158 -311 372c0 217 117 372 327 372c196 0 259 -136 271 -215l-94 -13c-10 60 -53 148 -180 148c-145 0 -227 -120 -227 -293c0 -162 74 -290 228 -290c175 0 201 147 201 215v12h-208v80h293v-371h-69l-13 114c-31 -77 -112 -131 -218 -131z M342 -237l-20 38c42 14 47 29 47 63h-51v90h96v-80c0 -53 -14 -90 -72 -111z"/>
    <glyph glyph-name="Gdotaccent" unicode="Ġ" horiz-adv-x="726" d="M313 753v107h106v-107h-106zM356 -17c-194 0 -311 158 -311 372c0 217 117 372 327 372c196 0 259 -136 271 -215l-94 -13c-10 60 -53 148 -180 148c-145 0 -227 -120 -227 -293c0 -162 74 -290 228 -290c175 0 201 147 201 215v12h-208v80h293v-371h-69l-13 114 c-31 -77 -112 -131 -218 -131z"/>
    <glyph glyph-name="Hbar" unicode="Ħ" horiz-adv-x="748" d="M722 579v-59h-74v-520h-95v323h-358v-323h-95v520h-74v59h74v131h95v-131h358v131h95v-131h74zM553 403v117h-358v-117h358z"/>
    <glyph glyph-name="Hcircumflex" unicode="Ĥ" horiz-adv-x="748" d="M524 753h-86l-64 72l-64 -72h-86l97 108h106zM648 710v-710h-95v323h-358v-323h-95v710h95v-307h358v307h95z"/>
    <glyph glyph-name="Iacute" unicode="Í" horiz-adv-x="295" d="M111 753l60 108h88l-74 -108h-74zM195 0h-95v710h95v-710z"/>
    <glyph glyph-name="Ibreve" unicode="Ĭ" horiz-adv-x="295" d="M94 861c1 -34 19 -52 54 -52s53 18 54 52h72c-2 -72 -48 -113 -126 -113s-124 41 -126 113h72zM195 0h-95v710h95v-710z"/>
    <glyph glyph-name="Icircumflex" unicode="Î" horiz-adv-x="295" d="M274 753h-82l-44 72l-44 -72h-82l73 108h106zM195 0h-95v710h95v-710z"/>
    <glyph glyph-name="Idieresis" unicode="Ï" horiz-adv-x="295" d="M23 753v98h97v-98h-97zM176 753v98h97v-98h-97zM195 0h-95v710h95v-710z"/>
    <glyph glyph-name="Idotaccent" unicode="İ" horiz-adv-x="295" d="M95 753v107h106v-107h-106zM195 0h-95v710h95v-710z"/>
    <glyph glyph-name="Igrave" unicode="Ì" horiz-adv-x="295" d="M185 753h-74l-74 108h88zM195 0h-95v710h95v-710z"/>
    <glyph glyph-name="IJ" unicode="Ĳ" horiz-adv-x="689" d="M195 0h-95v710h95v-710zM604 191c0 -159 -100 -203 -206 -203c-30 0 -62 1 -83 7v88c28 -5 63 -5 84 -5c58 0 110 21 110 120v512h95v-519z"/>
    <glyph glyph-name="uni00A40301" horiz-adv-x="394" d="M225 753l60 108h88l-74 -108h-74zM309 191c0 -159 -100 -203 -206 -203c-30 0 -62 1 -83 7v88c28 -5 63 -5 84 -5c58 0 110 21 110 120v512h95v-519z"/>
    <glyph glyph-name="Imacron" unicode="Ī" horiz-adv-x="295" d="M33 767v68h230v-68h-230zM195 0h-95v710h95v-710z"/>
    <glyph glyph-name="Iogonek" unicode="Į" horiz-adv-x="295" d="M157 -101l59 -8c-10 -59 -42 -94 -106 -94c-63 0 -101 34 -101 87c0 47 31 88 91 116v710h95v-710h-15c-79 -25 -107 -69 -107 -108c0 -26 15 -41 40 -41c23 0 38 16 44 48z"/>
    <glyph glyph-name="Itilde" unicode="Ĩ" horiz-adv-x="295" d="M202 748c-57 0 -72 49 -106 49c-15 0 -23 -10 -25 -37l-58 11c3 57 37 91 83 91c57 0 72 -49 106 -49c15 0 23 10 25 37l58 -11c-3 -57 -37 -91 -83 -91zM195 0h-95v710h95v-710z"/>
    <glyph glyph-name="Jcircumflex" unicode="Ĵ" horiz-adv-x="394" d="M388 753h-82l-44 72l-44 -72h-82l73 108h106zM309 191c0 -159 -100 -203 -206 -203c-30 0 -62 1 -83 7v88c28 -5 63 -5 84 -5c58 0 110 21 110 120v512h95v-519z"/>
    <glyph glyph-name="uni0136" unicode="Ķ" horiz-adv-x="668" d="M365 426l283 -426h-111l-237 358l-105 -115v-243h-95v710h95v-352l312 352h119zM296 -136v90h96v-80c0 -53 -14 -90 -72 -111l-20 38c42 14 47 29 47 63h-51z"/>
    <glyph glyph-name="Lacute" unicode="Ĺ" horiz-adv-x="543" d="M108 753l90 108h94l-104 -108h-80zM100 0v710h95v-630h328v-80h-423z"/>
    <glyph glyph-name="Lcaron" unicode="Ľ" horiz-adv-x="543" d="M100 0v710h95v-630h328v-80h-423zM296 531l-18 35c36 10 46 22 46 54h-51v90h96v-80c0 -56 -21 -84 -73 -99z"/>
    <glyph glyph-name="uni013B" unicode="Ļ" horiz-adv-x="543" d="M100 0v710h95v-630h328v-80h-423zM278 -237l-20 38c42 14 47 29 47 63h-51v90h96v-80c0 -53 -14 -90 -72 -111z"/>
    <glyph glyph-name="Ldot" unicode="Ŀ" horiz-adv-x="543" d="M100 0v710h95v-630h328v-80h-423zM425 500v-118h-117v118h117z"/>
    <glyph glyph-name="Lslash" unicode="Ł" horiz-adv-x="543" d="M195 80h328v-80h-423v267l-95 -49v75l95 49v368h95v-318l215 112v-75l-215 -112v-237z"/>
    <glyph glyph-name="Nacute" unicode="Ń" horiz-adv-x="744" d="M332 753l90 108h94l-104 -108h-80zM100 0v710h115l301 -517c20 -35 33 -61 44 -91h2c-2 25 -3 51 -3 94v514h85v-710h-115l-301 517c-20 35 -33 59 -44 91h-2c2 -25 3 -51 3 -94v-514h-85z"/>
    <glyph glyph-name="Ncaron" unicode="Ň" horiz-adv-x="744" d="M522 856l-97 -108h-106l-97 108h86l64 -72l64 72h86zM100 0v710h115l301 -517c20 -35 33 -61 44 -91h2c-2 25 -3 51 -3 94v514h85v-710h-115l-301 517c-20 35 -33 59 -44 91h-2c2 -25 3 -51 3 -94v-514h-85z"/>
    <glyph glyph-name="uni0145" unicode="Ņ" horiz-adv-x="744" d="M100 0v710h115l301 -517c20 -35 33 -61 44 -91h2c-2 25 -3 51 -3 94v514h85v-710h-115l-301 517c-20 35 -33 59 -44 91h-2c2 -25 3 -51 3 -94v-514h-85zM348 -237l-20 38c42 14 47 29 47 63h-51v90h96v-80c0 -53 -14 -90 -72 -111z"/>
    <glyph glyph-name="Ntilde" unicode="Ñ" horiz-adv-x="744" d="M433 748c-64 0 -83 49 -125 49c-24 0 -38 -14 -47 -46l-58 11c10 64 49 100 108 100c64 0 83 -49 125 -49c24 0 38 14 47 46l58 -11c-10 -64 -49 -100 -108 -100zM100 0v710h115l301 -517c20 -35 33 -61 44 -91h2c-2 25 -3 51 -3 94v514h85v-710h-115l-301 517 c-20 35 -33 59 -44 91h-2c2 -25 3 -51 3 -94v-514h-85z"/>
    <glyph glyph-name="Eng" unicode="Ŋ" horiz-adv-x="744" d="M559 710h85v-724c0 -152 -92 -194 -190 -194c-30 0 -62 3 -83 7v83c28 -5 63 -6 84 -6c50 0 104 18 104 97v27h-30l-301 517c-20 35 -33 59 -44 91h-2c2 -25 3 -51 3 -94v-514h-85v710h115l301 -517c20 -35 33 -61 44 -91h2c-2 25 -3 51 -3 94v514z"/>
    <glyph glyph-name="Oacute" unicode="Ó" horiz-adv-x="739" d="M330 753l90 108h94l-104 -108h-80zM370 -17c-197 0 -325 145 -325 372c0 232 128 372 325 372c196 0 324 -140 324 -372c0 -230 -128 -372 -324 -372zM370 63c142 0 224 111 224 292c0 182 -82 292 -224 292s-225 -110 -225 -292c0 -178 83 -292 225 -292z"/>
    <glyph glyph-name="Obreve" unicode="Ŏ" horiz-adv-x="739" d="M292 861c6 -36 31 -55 78 -55c48 0 72 19 78 55h72c-6 -71 -58 -113 -150 -113s-144 42 -150 113h72zM370 -17c-197 0 -325 145 -325 372c0 232 128 372 325 372c196 0 324 -140 324 -372c0 -230 -128 -372 -324 -372zM370 63c142 0 224 111 224 292 c0 182 -82 292 -224 292s-225 -110 -225 -292c0 -178 83 -292 225 -292z"/>
    <glyph glyph-name="Ocircumflex" unicode="Ô" horiz-adv-x="739" d="M520 753h-86l-64 72l-64 -72h-86l97 108h106zM370 -17c-197 0 -325 145 -325 372c0 232 128 372 325 372c196 0 324 -140 324 -372c0 -230 -128 -372 -324 -372zM370 63c142 0 224 111 224 292c0 182 -82 292 -224 292s-225 -110 -225 -292c0 -178 83 -292 225 -292z"/>
    <glyph glyph-name="Odieresis" unicode="Ö" horiz-adv-x="739" d="M210 753v98h97v-98h-97zM433 753v98h97v-98h-97zM370 -17c-197 0 -325 145 -325 372c0 232 128 372 325 372c196 0 324 -140 324 -372c0 -230 -128 -372 -324 -372zM370 63c142 0 224 111 224 292c0 182 -82 292 -224 292s-225 -110 -225 -292c0 -178 83 -292 225 -292z "/>
    <glyph glyph-name="OE" unicode="Œ" horiz-adv-x="985" d="M568 80h352v-80h-521c-222 0 -354 143 -354 356c0 216 133 354 352 354h516v-80h-345v-226h328v-80h-328v-244zM399 80h74v550h-76c-164 0 -253 -113 -253 -274c0 -159 96 -276 255 -276z"/>
    <glyph glyph-name="Ograve" unicode="Ò" horiz-adv-x="739" d="M410 753h-80l-104 108h94zM370 -17c-197 0 -325 145 -325 372c0 232 128 372 325 372c196 0 324 -140 324 -372c0 -230 -128 -372 -324 -372zM370 63c142 0 224 111 224 292c0 182 -82 292 -224 292s-225 -110 -225 -292c0 -178 83 -292 225 -292z"/>
    <glyph glyph-name="Ohungarumlaut" unicode="Ő" horiz-adv-x="739" d="M252 753l95 108h91l-102 -108h-84zM404 753l95 108h91l-102 -108h-84zM370 -17c-197 0 -325 145 -325 372c0 232 128 372 325 372c196 0 324 -140 324 -372c0 -230 -128 -372 -324 -372zM370 63c142 0 224 111 224 292c0 182 -82 292 -224 292s-225 -110 -225 -292 c0 -178 83 -292 225 -292z"/>
    <glyph glyph-name="Omacron" unicode="Ō" horiz-adv-x="739" d="M220 767v68h300v-68h-300zM370 -17c-197 0 -325 145 -325 372c0 232 128 372 325 372c196 0 324 -140 324 -372c0 -230 -128 -372 -324 -372zM370 63c142 0 224 111 224 292c0 182 -82 292 -224 292s-225 -110 -225 -292c0 -178 83 -292 225 -292z"/>
    <glyph glyph-name="Oslash" unicode="Ø" horiz-adv-x="739" d="M616 616c50 -63 78 -152 78 -261c0 -230 -128 -372 -324 -372c-78 0 -145 23 -197 64l-46 -59l-54 39l52 67c-51 64 -80 153 -80 261c0 232 128 372 325 372c78 0 145 -22 198 -64l45 58l54 -39zM145 355c0 -73 14 -135 40 -184l329 422c-37 35 -85 54 -144 54 c-142 0 -225 -110 -225 -292zM370 63c142 0 224 111 224 292c0 74 -13 136 -39 183l-328 -421c37 -35 85 -54 143 -54z"/>
    <glyph glyph-name="Oslashacute" unicode="Ǿ" horiz-adv-x="739" d="M514 861l-104 -108h-80l90 108h94zM616 616c50 -63 78 -152 78 -261c0 -230 -128 -372 -324 -372c-78 0 -145 23 -197 64l-46 -59l-54 39l52 67c-51 64 -80 153 -80 261c0 232 128 372 325 372c78 0 145 -22 198 -64l45 58l54 -39zM145 355c0 -73 14 -135 40 -184 l329 422c-37 35 -85 54 -144 54c-142 0 -225 -110 -225 -292zM370 63c142 0 224 111 224 292c0 74 -13 136 -39 183l-328 -421c37 -35 85 -54 143 -54z"/>
    <glyph glyph-name="Otilde" unicode="Õ" horiz-adv-x="739" d="M431 748c-64 0 -83 49 -125 49c-24 0 -38 -14 -47 -46l-58 11c10 64 49 100 108 100c64 0 83 -49 125 -49c24 0 38 14 47 46l58 -11c-10 -64 -49 -100 -108 -100zM370 -17c-197 0 -325 145 -325 372c0 232 128 372 325 372c196 0 324 -140 324 -372 c0 -230 -128 -372 -324 -372zM370 63c142 0 224 111 224 292c0 182 -82 292 -224 292s-225 -110 -225 -292c0 -178 83 -292 225 -292z"/>
    <glyph glyph-name="Racute" unicode="Ŕ" horiz-adv-x="665" d="M467 861l-104 -108h-80l90 108h94zM513 0l-174 295h-144v-295h-95v710h263c186 0 235 -104 235 -208c0 -80 -41 -167 -160 -194l182 -308h-107zM195 630v-255h157c110 0 146 56 146 127c0 73 -37 128 -146 128h-157z"/>
    <glyph glyph-name="Rcaron" unicode="Ř" horiz-adv-x="665" d="M376 748h-106l-97 108h86l64 -72l64 72h86zM513 0l-174 295h-144v-295h-95v710h263c186 0 235 -104 235 -208c0 -80 -41 -167 -160 -194l182 -308h-107zM195 630v-255h157c110 0 146 56 146 127c0 73 -37 128 -146 128h-157z"/>
    <glyph glyph-name="uni0156" unicode="Ŗ" horiz-adv-x="665" d="M438 308l182 -308h-107l-174 295h-144v-295h-95v710h263c186 0 235 -104 235 -208c0 -80 -41 -167 -160 -194zM195 630v-255h157c110 0 146 56 146 127c0 73 -37 128 -146 128h-157zM285 -136v90h96v-80c0 -53 -14 -90 -72 -111l-20 38c42 14 47 29 47 63h-51z"/>
    <glyph glyph-name="Sacute" unicode="Ś" horiz-adv-x="614" d="M270 753l90 108h94l-104 -108h-80zM315 -17c-181 0 -273 98 -285 228l96 14c13 -87 67 -164 192 -164c77 0 158 32 158 122c0 84 -52 111 -135 128l-103 21c-101 21 -178 74 -178 196c0 119 96 199 247 199c141 0 249 -63 263 -202l-95 -20c-12 95 -65 147 -170 147 c-87 0 -147 -43 -147 -115c0 -69 37 -105 116 -122l104 -22c110 -23 196 -72 196 -201c0 -110 -82 -209 -259 -209z"/>
    <glyph glyph-name="Scaron" unicode="Š" horiz-adv-x="614" d="M460 856l-97 -108h-106l-97 108h86l64 -72l64 72h86zM315 -17c-181 0 -273 98 -285 228l96 14c13 -87 67 -164 192 -164c77 0 158 32 158 122c0 84 -52 111 -135 128l-103 21c-101 21 -178 74 -178 196c0 119 96 199 247 199c141 0 249 -63 263 -202l-95 -20 c-12 95 -65 147 -170 147c-87 0 -147 -43 -147 -115c0 -69 37 -105 116 -122l104 -22c110 -23 196 -72 196 -201c0 -110 -82 -209 -259 -209z"/>
    <glyph glyph-name="Scedilla" unicode="Ş" horiz-adv-x="614" d="M574 192c0 -104 -73 -198 -229 -208l-21 -33c8 7 25 12 43 12c45 0 74 -30 74 -77c0 -51 -42 -85 -105 -85c-52 0 -89 23 -101 63l57 10c6 -17 22 -28 42 -28c25 0 43 17 43 41c0 25 -16 41 -41 41c-13 0 -25 -5 -34 -15l-39 12l31 58c-167 8 -252 103 -264 228l96 14 c13 -87 67 -164 192 -164c77 0 158 32 158 122c0 84 -52 111 -135 128l-103 21c-101 21 -178 74 -178 196c0 119 96 199 247 199c141 0 249 -63 263 -202l-95 -20c-12 95 -65 147 -170 147c-87 0 -147 -43 -147 -115c0 -69 37 -105 116 -122l104 -22 c110 -23 196 -72 196 -201z"/>
    <glyph glyph-name="Scircumflex" unicode="Ŝ" horiz-adv-x="614" d="M460 753h-86l-64 72l-64 -72h-86l97 108h106zM315 -17c-181 0 -273 98 -285 228l96 14c13 -87 67 -164 192 -164c77 0 158 32 158 122c0 84 -52 111 -135 128l-103 21c-101 21 -178 74 -178 196c0 119 96 199 247 199c141 0 249 -63 263 -202l-95 -20 c-12 95 -65 147 -170 147c-87 0 -147 -43 -147 -115c0 -69 37 -105 116 -122l104 -22c110 -23 196 -72 196 -201c0 -110 -82 -209 -259 -209z"/>
    <glyph glyph-name="uni0218" unicode="Ș" horiz-adv-x="614" d="M315 -17c-181 0 -273 98 -285 228l96 14c13 -87 67 -164 192 -164c77 0 158 32 158 122c0 84 -52 111 -135 128l-103 21c-101 21 -178 74 -178 196c0 119 96 199 247 199c141 0 249 -63 263 -202l-95 -20c-12 95 -65 147 -170 147c-87 0 -147 -43 -147 -115 c0 -69 37 -105 116 -122l104 -22c110 -23 196 -72 196 -201c0 -110 -82 -209 -259 -209zM307 -237l-20 38c42 14 47 29 47 63h-51v90h96v-80c0 -53 -14 -90 -72 -111z"/>
    <glyph glyph-name="Tbar" unicode="Ŧ" horiz-adv-x="561" d="M551 630h-223v-183h158v-59h-158v-388h-95v388h-158v59h158v183h-223v80h541v-80z"/>
    <glyph glyph-name="Tcaron" unicode="Ť" horiz-adv-x="561" d="M334 748h-106l-97 108h86l64 -72l64 72h86zM551 710v-80h-223v-630h-95v630h-223v80h541z"/>
    <glyph glyph-name="uni0162" unicode="Ţ" horiz-adv-x="561" d="M328 0h-23l-31 -49c8 7 25 12 43 12c45 0 74 -30 74 -77c0 -51 -42 -85 -105 -85c-52 0 -89 23 -101 63l57 10c6 -17 22 -28 42 -28c25 0 43 17 43 41c0 25 -16 41 -41 41c-13 0 -25 -5 -34 -15l-39 12l39 75h-19v630h-223v80h541v-80h-223v-630z"/>
    <glyph glyph-name="uni021A" unicode="Ț" horiz-adv-x="561" d="M10 710h541v-80h-223v-630h-95v630h-223v80zM233 -136v90h96v-80c0 -53 -14 -90 -72 -111l-20 38c42 14 47 29 47 63h-51z"/>
    <glyph glyph-name="Thorn" unicode="Þ" horiz-adv-x="574" d="M333 568c136 0 221 -75 221 -195c0 -116 -89 -195 -221 -195h-138v-178h-95v710h95v-142h138zM327 258c75 0 126 46 126 115c0 70 -49 115 -126 115h-132v-230h132z"/>
    <glyph glyph-name="Uacute" unicode="Ú" horiz-adv-x="716" d="M318 753l90 108h94l-104 -108h-80zM85 710h95v-456c0 -114 63 -187 178 -187s178 73 178 187v456h95v-462c0 -158 -97 -265 -273 -265s-273 107 -273 265v462z"/>
    <glyph glyph-name="Ubreve" unicode="Ŭ" horiz-adv-x="716" d="M280 861c6 -36 31 -55 78 -55c48 0 72 19 78 55h72c-6 -71 -58 -113 -150 -113s-144 42 -150 113h72zM85 710h95v-456c0 -114 63 -187 178 -187s178 73 178 187v456h95v-462c0 -158 -97 -265 -273 -265s-273 107 -273 265v462z"/>
    <glyph glyph-name="Ucircumflex" unicode="Û" horiz-adv-x="716" d="M508 753h-86l-64 72l-64 -72h-86l97 108h106zM85 710h95v-456c0 -114 63 -187 178 -187s178 73 178 187v456h95v-462c0 -158 -97 -265 -273 -265s-273 107 -273 265v462z"/>
    <glyph glyph-name="Udieresis" unicode="Ü" horiz-adv-x="716" d="M198 753v98h97v-98h-97zM421 753v98h97v-98h-97zM85 710h95v-456c0 -114 63 -187 178 -187s178 73 178 187v456h95v-462c0 -158 -97 -265 -273 -265s-273 107 -273 265v462z"/>
    <glyph glyph-name="Ugrave" unicode="Ù" horiz-adv-x="716" d="M398 753h-80l-104 108h94zM85 710h95v-456c0 -114 63 -187 178 -187s178 73 178 187v456h95v-462c0 -158 -97 -265 -273 -265s-273 107 -273 265v462z"/>
    <glyph glyph-name="Uhungarumlaut" unicode="Ű" horiz-adv-x="716" d="M240 753l95 108h91l-102 -108h-84zM392 753l95 108h91l-102 -108h-84zM85 710h95v-456c0 -114 63 -187 178 -187s178 73 178 187v456h95v-462c0 -158 -97 -265 -273 -265s-273 107 -273 265v462z"/>
    <glyph glyph-name="Umacron" unicode="Ū" horiz-adv-x="716" d="M208 767v68h300v-68h-300zM85 710h95v-456c0 -114 63 -187 178 -187s178 73 178 187v456h95v-462c0 -158 -97 -265 -273 -265s-273 107 -273 265v462z"/>
    <glyph glyph-name="Uogonek" unicode="Ų" horiz-adv-x="716" d="M536 710h95v-462c0 -135 -71 -233 -202 -259c-58 -25 -79 -63 -79 -97c0 -26 15 -41 40 -41c23 0 38 16 44 48l59 -8c-10 -59 -42 -94 -106 -94c-63 0 -101 34 -101 87c0 38 21 73 61 99c-169 5 -262 110 -262 265v462h95v-456c0 -114 63 -187 178 -187s178 73 178 187 v456z"/>
    <glyph glyph-name="Uring" unicode="Ů" horiz-adv-x="716" d="M358 738c-65 0 -109 42 -109 102s44 102 109 102s109 -42 109 -102s-44 -102 -109 -102zM358 786c31 0 52 22 52 54s-21 54 -52 54s-52 -22 -52 -54s21 -54 52 -54zM85 710h95v-456c0 -114 63 -187 178 -187s178 73 178 187v456h95v-462c0 -158 -97 -265 -273 -265 s-273 107 -273 265v462z"/>
    <glyph glyph-name="Utilde" unicode="Ũ" horiz-adv-x="716" d="M419 748c-64 0 -83 49 -125 49c-24 0 -38 -14 -47 -46l-58 11c10 64 49 100 108 100c64 0 83 -49 125 -49c24 0 38 14 47 46l58 -11c-10 -64 -49 -100 -108 -100zM85 710h95v-456c0 -114 63 -187 178 -187s178 73 178 187v456h95v-462c0 -158 -97 -265 -273 -265 s-273 107 -273 265v462z"/>
    <glyph glyph-name="Wacute" unicode="Ẃ" horiz-adv-x="912" d="M416 753l90 108h94l-104 -108h-80zM194 0l-169 710h97l123 -572c4 -19 5 -28 6 -39h3c1 10 3 19 8 39l146 572h96l146 -572c5 -20 7 -29 8 -39h3c1 11 2 20 6 39l123 572h97l-169 -710h-116l-138 554c-3 12 -5 21 -6 33h-4c-1 -12 -3 -21 -6 -33l-138 -554h-116z"/>
    <glyph glyph-name="Wcircumflex" unicode="Ŵ" horiz-adv-x="912" d="M606 753h-86l-64 72l-64 -72h-86l97 108h106zM194 0l-169 710h97l123 -572c4 -19 5 -28 6 -39h3c1 10 3 19 8 39l146 572h96l146 -572c5 -20 7 -29 8 -39h3c1 11 2 20 6 39l123 572h97l-169 -710h-116l-138 554c-3 12 -5 21 -6 33h-4c-1 -12 -3 -21 -6 -33l-138 -554 h-116z"/>
    <glyph glyph-name="Wdieresis" unicode="Ẅ" horiz-adv-x="912" d="M296 753v98h97v-98h-97zM519 753v98h97v-98h-97zM194 0l-169 710h97l123 -572c4 -19 5 -28 6 -39h3c1 10 3 19 8 39l146 572h96l146 -572c5 -20 7 -29 8 -39h3c1 11 2 20 6 39l123 572h97l-169 -710h-116l-138 554c-3 12 -5 21 -6 33h-4c-1 -12 -3 -21 -6 -33l-138 -554 h-116z"/>
    <glyph glyph-name="Wgrave" unicode="Ẁ" horiz-adv-x="912" d="M496 753h-80l-104 108h94zM194 0l-169 710h97l123 -572c4 -19 5 -28 6 -39h3c1 10 3 19 8 39l146 572h96l146 -572c5 -20 7 -29 8 -39h3c1 11 2 20 6 39l123 572h97l-169 -710h-116l-138 554c-3 12 -5 21 -6 33h-4c-1 -12 -3 -21 -6 -33l-138 -554h-116z"/>
    <glyph glyph-name="Yacute" unicode="Ý" horiz-adv-x="578" d="M249 753l90 108h94l-104 -108h-80zM241 0v283l-241 427h106l163 -301c10 -19 16 -32 19 -41h2c3 9 9 22 19 41l163 301h106l-241 -427v-283h-96z"/>
    <glyph glyph-name="Ycircumflex" unicode="Ŷ" horiz-adv-x="578" d="M439 753h-86l-64 72l-64 -72h-86l97 108h106zM241 0v283l-241 427h106l163 -301c10 -19 16 -32 19 -41h2c3 9 9 22 19 41l163 301h106l-241 -427v-283h-96z"/>
    <glyph glyph-name="Ydieresis" unicode="Ÿ" horiz-adv-x="578" d="M129 753v98h97v-98h-97zM352 753v98h97v-98h-97zM241 0v283l-241 427h106l163 -301c10 -19 16 -32 19 -41h2c3 9 9 22 19 41l163 301h106l-241 -427v-283h-96z"/>
    <glyph glyph-name="Ygrave" unicode="Ỳ" horiz-adv-x="578" d="M329 753h-80l-104 108h94zM241 0v283l-241 427h106l163 -301c10 -19 16 -32 19 -41h2c3 9 9 22 19 41l163 301h106l-241 -427v-283h-96z"/>
    <glyph glyph-name="Zacute" unicode="Ź" horiz-adv-x="569" d="M250 753l90 108h94l-104 -108h-80zM35 88l399 542h-386v80h487v-88l-400 -542h414v-80h-514v88z"/>
    <glyph glyph-name="Zcaron" unicode="Ž" horiz-adv-x="569" d="M440 856l-97 -108h-106l-97 108h86l64 -72l64 72h86zM35 88l399 542h-386v80h487v-88l-400 -542h414v-80h-514v88z"/>
    <glyph glyph-name="Zdotaccent" unicode="Ż" horiz-adv-x="569" d="M237 753v107h106v-107h-106zM35 88l399 542h-386v80h487v-88l-400 -542h414v-80h-514v88z"/>
    <glyph glyph-name="a" unicode="a" horiz-adv-x="539" d="M214 -12c-102 0 -169 58 -169 147c0 50 25 93 70 118c38 19 86 31 168 41l93 11v8c0 92 -33 129 -110 129c-68 0 -110 -36 -114 -99h-91c7 102 87 169 204 169c137 0 197 -62 197 -208v-135c0 -77 5 -130 17 -169h-89c-4 26 -7 59 -8 91c-23 -64 -86 -103 -168 -103z M233 58c87 0 144 63 144 160v25l-136 -20c-74 -11 -106 -37 -106 -86s37 -79 98 -79z"/>
    <glyph glyph-name="b" unicode="b" horiz-adv-x="585" d="M334 -12c-76 0 -133 40 -159 98l-15 -86h-65v725h85v-312c26 56 81 99 159 99c122 0 201 -109 201 -262c0 -156 -81 -262 -206 -262zM311 63c87 0 139 73 139 187c0 112 -49 187 -138 187c-84 0 -134 -67 -134 -176v-26c0 -104 49 -172 133 -172z"/>
    <glyph glyph-name="c" unicode="c" horiz-adv-x="526" d="M275 -12c-140 0 -230 102 -230 262c0 163 88 262 230 262c117 0 193 -67 206 -182l-87 -10c-9 76 -53 118 -121 118c-86 0 -138 -70 -138 -187c0 -120 52 -189 141 -189c68 0 110 41 123 119l81 -13c-18 -114 -93 -180 -205 -180z"/>
    <glyph glyph-name="d" unicode="d" horiz-adv-x="585" d="M248 -12c-121 0 -203 105 -203 262c0 154 88 262 213 262c66 0 115 -27 147 -86v299h85v-725h-80v93c-30 -67 -84 -105 -162 -105zM271 63c83 0 136 68 136 175v23c0 109 -52 176 -136 176c-85 0 -136 -69 -136 -187c0 -117 51 -187 136 -187z"/>
    <glyph glyph-name="e" unicode="e" horiz-adv-x="535" d="M485 285v-60h-355c1 -98 60 -162 149 -162c64 0 111 34 133 95l70 -31c-35 -91 -108 -139 -209 -139c-143 0 -228 91 -228 256c0 167 84 268 227 268c135 0 213 -77 213 -227zM399 294v11c0 92 -47 140 -129 140c-88 0 -138 -57 -140 -151h269z"/>
    <glyph glyph-name="f" unicode="f" horiz-adv-x="347" d="M322 500v-70h-125v-430h-85v430h-92v70h92v79c0 91 57 152 146 152c24 0 45 -2 64 -7v-73c-18 3 -37 5 -53 5c-51 0 -72 -28 -72 -89v-67h125z"/>
    <glyph glyph-name="g" unicode="g" horiz-adv-x="535" d="M479 508c-38 0 -63 -15 -75 -47c30 -30 46 -71 46 -118c0 -97 -69 -171 -185 -171c-37 0 -69 8 -96 21c-21 -9 -36 -26 -36 -49c0 -28 21 -51 83 -51h122c113 0 170 -51 170 -141c0 -94 -74 -159 -248 -159c-176 0 -225 66 -225 137c0 47 28 87 81 104 c-42 19 -58 51 -58 87c0 50 29 84 71 100c-32 31 -49 73 -49 122c0 97 69 169 185 169c38 0 70 -8 98 -21c15 51 52 91 119 91c11 0 22 -1 33 -4v-74c-10 2 -22 4 -36 4zM265 237c64 0 105 44 105 105s-41 105 -105 105s-105 -43 -105 -104s41 -106 105 -106zM319 18h-106 c-15 0 -29 1 -42 2c-36 -16 -53 -45 -53 -75c0 -62 62 -82 152 -82c122 0 153 38 153 83c0 47 -35 72 -104 72z"/>
    <glyph glyph-name="h" unicode="h" horiz-adv-x="584" d="M95 0v725h85v-319c30 70 86 106 164 106c108 0 165 -69 165 -201v-311h-85v305c0 88 -37 134 -109 134c-86 0 -135 -65 -135 -178v-261h-85z"/>
    <glyph glyph-name="i" unicode="i" horiz-adv-x="265" d="M84 593v107h97v-107h-97zM90 0v500h85v-500h-85z"/>
    <glyph glyph-name="j" unicode="j" horiz-adv-x="263" d="M82 593v107h97v-107h-97zM46 -202c-18 0 -46 2 -61 6v73c29 -2 40 -2 49 -2c37 0 54 16 54 84v541h85v-550c0 -80 -27 -152 -127 -152z"/>
    <glyph glyph-name="k" unicode="k" horiz-adv-x="542" d="M422 0l-151 245l-91 -92v-153h-85v725h85v-471l224 246h111l-183 -193l195 -307h-105z"/>
    <glyph glyph-name="l" unicode="l" horiz-adv-x="275" d="M180 725v-725h-85v725h85z"/>
    <glyph glyph-name="m" unicode="m" horiz-adv-x="834" d="M90 500h80v-87c28 66 76 99 143 99c69 0 119 -35 142 -100c33 67 84 100 152 100c96 0 152 -68 152 -184v-328h-85v321c0 78 -32 118 -95 118c-71 0 -112 -52 -112 -143v-296h-85v325c0 73 -34 114 -94 114c-70 0 -113 -56 -113 -147v-292h-85v500z"/>
    <glyph glyph-name="n" unicode="n" horiz-adv-x="579" d="M90 0v500h80v-99c33 75 88 111 167 111c110 0 167 -68 167 -201v-311h-85v306c0 88 -37 133 -110 133c-83 0 -134 -67 -134 -178v-261h-85z"/>
    <glyph glyph-name="o" unicode="o" horiz-adv-x="556" d="M278 -12c-141 0 -233 99 -233 262s92 262 233 262s233 -99 233 -262s-92 -262 -233 -262zM278 62c90 0 143 64 143 188s-53 188 -143 188s-143 -64 -143 -188s53 -188 143 -188z"/>
    <glyph glyph-name="p" unicode="p" horiz-adv-x="580" d="M90 -195v695h80v-93c32 69 90 105 163 105c121 0 202 -104 202 -262c0 -160 -86 -262 -207 -262c-77 0 -131 42 -153 91v-274h-85zM308 63c85 0 137 70 137 187c0 118 -50 187 -134 187s-138 -66 -138 -174v-24c0 -108 52 -176 135 -176z"/>
    <glyph glyph-name="q" unicode="q" horiz-adv-x="580" d="M405 -195v281c-27 -59 -81 -98 -155 -98c-121 0 -205 102 -205 262s91 262 213 262c71 0 119 -29 151 -91l19 79h62v-695h-85zM271 63c82 0 136 65 136 172v28c0 105 -52 174 -136 174s-136 -68 -136 -187c0 -116 50 -187 136 -187z"/>
    <glyph glyph-name="r" unicode="r" horiz-adv-x="359" d="M169 386c24 70 76 126 152 126c6 0 12 0 18 -1v-83h-4c-52 0 -86 -15 -110 -39c-48 -48 -50 -115 -50 -175v-214h-85v500h79v-114z"/>
    <glyph glyph-name="s" unicode="s" horiz-adv-x="502" d="M260 -12c-118 0 -198 55 -215 154l86 15c12 -63 59 -99 132 -99c67 0 104 33 104 76c0 44 -27 62 -72 70l-98 18c-85 16 -133 64 -133 140c0 86 72 150 190 150c112 0 188 -51 198 -135l-84 -19c-11 50 -50 85 -118 85c-64 0 -103 -28 -103 -77c0 -42 28 -62 77 -71 l97 -18c90 -17 130 -63 130 -136c0 -90 -69 -153 -191 -153z"/>
    <glyph glyph-name="t" unicode="t" horiz-adv-x="353" d="M15 430v70h93v131l85 36v-167h125v-70h-125v-277c0 -57 22 -82 73 -82c22 0 35 3 52 7v-78c-22 -6 -42 -9 -74 -9c-108 0 -136 66 -136 159v280h-93z"/>
    <glyph glyph-name="u" unicode="u" horiz-adv-x="571" d="M246 -12c-126 0 -171 76 -171 193v319h85v-309c0 -84 36 -130 102 -130c80 0 134 68 134 170v269h85v-500h-80v94c-23 -61 -85 -106 -155 -106z"/>
    <glyph glyph-name="v" unicode="v" horiz-adv-x="473" d="M191 0l-181 500h92l112 -337c9 -27 16 -53 21 -76h3c5 23 12 49 21 76l112 337h92l-181 -500h-91z"/>
    <glyph glyph-name="w" unicode="w" horiz-adv-x="732" d="M166 0l-141 500h88l90 -357c4 -18 8 -39 11 -59h2c3 20 9 41 13 59l91 357h92l91 -357c4 -18 10 -39 13 -59h2c3 20 7 41 11 59l90 357h88l-141 -500h-93l-95 360c-4 16 -9 41 -11 56h-2c-2 -15 -7 -40 -11 -56l-95 -360h-93z"/>
    <glyph glyph-name="x" unicode="x" horiz-adv-x="495" d="M15 0l181 258l-168 242h100l91 -141c17 -27 26 -43 29 -52h1c4 10 13 27 28 52l86 141h104l-165 -248l178 -252h-101l-103 154c-16 24 -26 43 -28 51h-1c-2 -7 -11 -24 -29 -51l-102 -154h-101z"/>
    <glyph glyph-name="y" unicode="y" horiz-adv-x="487" d="M92 -200c-15 0 -30 1 -46 4v75c13 -2 25 -2 36 -2c60 0 91 27 114 92l13 37l-199 494h95l128 -348c9 -25 14 -45 17 -59h2c3 14 9 34 17 59l116 348h92l-195 -532c-46 -126 -106 -168 -190 -168z"/>
    <glyph glyph-name="z" unicode="z" horiz-adv-x="455" d="M35 65l273 363h-263v72h365v-63l-270 -364h285v-73h-390v65z"/>
    <glyph glyph-name="aacute" unicode="á" horiz-adv-x="539" d="M230 580l92 143h104l-118 -143h-78zM214 -12c-102 0 -169 58 -169 147c0 50 25 93 70 118c38 19 86 31 168 41l93 11v8c0 92 -33 129 -110 129c-68 0 -110 -36 -114 -99h-91c7 102 87 169 204 169c137 0 197 -62 197 -208v-135c0 -77 5 -130 17 -169h-89 c-4 26 -7 59 -8 91c-23 -64 -86 -103 -168 -103zM233 58c87 0 144 63 144 160v25l-136 -20c-74 -11 -106 -37 -106 -86s37 -79 98 -79z"/>
    <glyph glyph-name="abreve" unicode="ă" horiz-adv-x="539" d="M189 723c3 -60 34 -87 78 -87s75 27 78 87h72c-4 -107 -72 -148 -150 -148s-146 41 -150 148h72zM214 -12c-102 0 -169 58 -169 147c0 50 25 93 70 118c38 19 86 31 168 41l93 11v8c0 92 -33 129 -110 129c-68 0 -110 -36 -114 -99h-91c7 102 87 169 204 169 c137 0 197 -62 197 -208v-135c0 -77 5 -130 17 -169h-89c-4 26 -7 59 -8 91c-23 -64 -86 -103 -168 -103zM233 58c87 0 144 63 144 160v25l-136 -20c-74 -11 -106 -37 -106 -86s37 -79 98 -79z"/>
    <glyph glyph-name="acircumflex" unicode="â" horiz-adv-x="539" d="M419 580h-79l-73 100l-73 -100h-79l108 143h88zM214 -12c-102 0 -169 58 -169 147c0 50 25 93 70 118c38 19 86 31 168 41l93 11v8c0 92 -33 129 -110 129c-68 0 -110 -36 -114 -99h-91c7 102 87 169 204 169c137 0 197 -62 197 -208v-135c0 -77 5 -130 17 -169h-89 c-4 26 -7 59 -8 91c-23 -64 -86 -103 -168 -103zM233 58c87 0 144 63 144 160v25l-136 -20c-74 -11 -106 -37 -106 -86s37 -79 98 -79z"/>
    <glyph glyph-name="adieresis" unicode="ä" horiz-adv-x="539" d="M117 596v103h97v-103h-97zM320 596v103h97v-103h-97zM214 -12c-102 0 -169 58 -169 147c0 50 25 93 70 118c38 19 86 31 168 41l93 11v8c0 92 -33 129 -110 129c-68 0 -110 -36 -114 -99h-91c7 102 87 169 204 169c137 0 197 -62 197 -208v-135c0 -77 5 -130 17 -169h-89 c-4 26 -7 59 -8 91c-23 -64 -86 -103 -168 -103zM233 58c87 0 144 63 144 160v25l-136 -20c-74 -11 -106 -37 -106 -86s37 -79 98 -79z"/>
    <glyph glyph-name="ae" unicode="æ" horiz-adv-x="841" d="M791 271v-45h-335c1 -98 56 -163 139 -163c59 0 103 34 123 95l70 -31c-33 -91 -103 -139 -199 -139c-91 0 -153 42 -185 117c-33 -78 -105 -117 -193 -117c-100 0 -166 54 -166 143c0 82 56 138 178 151l147 15v16c0 87 -37 128 -113 128c-68 0 -107 -35 -110 -98h-87 c8 106 78 169 198 169c81 0 133 -28 163 -83c35 54 91 83 167 83c129 0 203 -89 203 -241zM703 295c2 92 -41 150 -115 150s-129 -56 -132 -150h247zM371 218v16l-123 -14c-83 -10 -113 -37 -113 -90c0 -42 38 -72 92 -72c65 0 144 39 144 160z"/>
    <glyph glyph-name="aeacute" unicode="ǽ" horiz-adv-x="841" d="M580 723l-118 -143h-78l92 143h104zM791 271v-45h-335c1 -98 56 -163 139 -163c59 0 103 34 123 95l70 -31c-33 -91 -103 -139 -199 -139c-91 0 -153 42 -185 117c-33 -78 -105 -117 -193 -117c-100 0 -166 54 -166 143c0 82 56 138 178 151l147 15v16 c0 87 -37 128 -113 128c-68 0 -107 -35 -110 -98h-87c8 106 78 169 198 169c81 0 133 -28 163 -83c35 54 91 83 167 83c129 0 203 -89 203 -241zM703 295c2 92 -41 150 -115 150s-129 -56 -132 -150h247zM371 218v16l-123 -14c-83 -10 -113 -37 -113 -90 c0 -42 38 -72 92 -72c65 0 144 39 144 160z"/>
    <glyph glyph-name="agrave" unicode="à" horiz-adv-x="539" d="M304 580h-78l-118 143h104zM214 -12c-102 0 -169 58 -169 147c0 50 25 93 70 118c38 19 86 31 168 41l93 11v8c0 92 -33 129 -110 129c-68 0 -110 -36 -114 -99h-91c7 102 87 169 204 169c137 0 197 -62 197 -208v-135c0 -77 5 -130 17 -169h-89c-4 26 -7 59 -8 91 c-23 -64 -86 -103 -168 -103zM233 58c87 0 144 63 144 160v25l-136 -20c-74 -11 -106 -37 -106 -86s37 -79 98 -79z"/>
    <glyph glyph-name="amacron" unicode="ā" horiz-adv-x="539" d="M118 613v68h298v-68h-298zM214 -12c-102 0 -169 58 -169 147c0 50 25 93 70 118c38 19 86 31 168 41l93 11v8c0 92 -33 129 -110 129c-68 0 -110 -36 -114 -99h-91c7 102 87 169 204 169c137 0 197 -62 197 -208v-135c0 -77 5 -130 17 -169h-89c-4 26 -7 59 -8 91 c-23 -64 -86 -103 -168 -103zM233 58c87 0 144 63 144 160v25l-136 -20c-74 -11 -106 -37 -106 -86s37 -79 98 -79z"/>
    <glyph glyph-name="aogonek" unicode="ą" horiz-adv-x="539" d="M447 -101l59 -8c-10 -59 -42 -94 -106 -94c-63 0 -101 34 -101 87c0 47 31 88 91 116c-4 26 -7 59 -8 91c-23 -64 -86 -103 -168 -103c-102 0 -169 58 -169 147c0 50 25 93 70 118c38 19 86 31 168 41l93 11v8c0 92 -33 129 -110 129c-68 0 -110 -36 -114 -99h-91 c7 102 87 169 204 169c137 0 197 -62 197 -208v-135c0 -77 5 -130 17 -169h-9c-79 -25 -107 -69 -107 -108c0 -26 15 -41 40 -41c23 0 38 16 44 48zM377 218v25l-136 -20c-74 -11 -106 -37 -106 -86s37 -79 98 -79c87 0 144 63 144 160z"/>
    <glyph glyph-name="aring" unicode="å" horiz-adv-x="539" d="M267 556c-65 0 -109 42 -109 102s44 102 109 102s109 -42 109 -102s-44 -102 -109 -102zM267 604c31 0 52 22 52 54s-21 54 -52 54s-52 -22 -52 -54s21 -54 52 -54zM214 -12c-102 0 -169 58 -169 147c0 50 25 93 70 118c38 19 86 31 168 41l93 11v8 c0 92 -33 129 -110 129c-68 0 -110 -36 -114 -99h-91c7 102 87 169 204 169c137 0 197 -62 197 -208v-135c0 -77 5 -130 17 -169h-89c-4 26 -7 59 -8 91c-23 -64 -86 -103 -168 -103zM233 58c87 0 144 63 144 160v25l-136 -20c-74 -11 -106 -37 -106 -86s37 -79 98 -79z"/>
    <glyph glyph-name="atilde" unicode="ã" horiz-adv-x="539" d="M338 587c-74 0 -96 66 -145 66c-26 0 -40 -18 -50 -57l-58 11c11 71 50 114 111 114c74 0 95 -66 145 -66c26 0 40 17 50 57l58 -11c-10 -71 -50 -114 -111 -114zM214 -12c-102 0 -169 58 -169 147c0 50 25 93 70 118c38 19 86 31 168 41l93 11v8c0 92 -33 129 -110 129 c-68 0 -110 -36 -114 -99h-91c7 102 87 169 204 169c137 0 197 -62 197 -208v-135c0 -77 5 -130 17 -169h-89c-4 26 -7 59 -8 91c-23 -64 -86 -103 -168 -103zM233 58c87 0 144 63 144 160v25l-136 -20c-74 -11 -106 -37 -106 -86s37 -79 98 -79z"/>
    <glyph glyph-name="cacute" unicode="ć" horiz-adv-x="526" d="M224 580l92 143h104l-118 -143h-78zM275 -12c-140 0 -230 102 -230 262c0 163 88 262 230 262c117 0 193 -67 206 -182l-87 -10c-9 76 -53 118 -121 118c-86 0 -138 -70 -138 -187c0 -120 52 -189 141 -189c68 0 110 41 123 119l81 -13c-18 -114 -93 -180 -205 -180z"/>
    <glyph glyph-name="ccaron" unicode="č" horiz-adv-x="526" d="M109 718h79l73 -100l73 100h79l-108 -143h-88zM275 -12c-140 0 -230 102 -230 262c0 163 88 262 230 262c117 0 193 -67 206 -182l-87 -10c-9 76 -53 118 -121 118c-86 0 -138 -70 -138 -187c0 -120 52 -189 141 -189c68 0 110 41 123 119l81 -13 c-18 -114 -93 -180 -205 -180z"/>
    <glyph glyph-name="ccedilla" unicode="ç" horiz-adv-x="526" d="M276 62c68 0 110 41 123 119l81 -13c-17 -105 -82 -170 -180 -179l-24 -38c8 7 25 12 43 12c45 0 74 -30 74 -77c0 -51 -42 -85 -105 -85c-52 0 -89 23 -101 63l57 10c6 -17 22 -28 42 -28c25 0 43 17 43 41c0 25 -16 41 -41 41c-13 0 -25 -5 -34 -15l-39 12l34 64 c-125 12 -204 111 -204 261c0 163 88 262 230 262c117 0 193 -67 206 -182l-87 -10c-9 76 -53 118 -121 118c-86 0 -138 -70 -138 -187c0 -120 52 -189 141 -189z"/>
    <glyph glyph-name="ccircumflex" unicode="ĉ" horiz-adv-x="526" d="M413 580h-79l-73 100l-73 -100h-79l108 143h88zM275 -12c-140 0 -230 102 -230 262c0 163 88 262 230 262c117 0 193 -67 206 -182l-87 -10c-9 76 -53 118 -121 118c-86 0 -138 -70 -138 -187c0 -120 52 -189 141 -189c68 0 110 41 123 119l81 -13 c-18 -114 -93 -180 -205 -180z"/>
    <glyph glyph-name="cdotaccent" unicode="ċ" horiz-adv-x="526" d="M212 593v107h97v-107h-97zM275 -12c-140 0 -230 102 -230 262c0 163 88 262 230 262c117 0 193 -67 206 -182l-87 -10c-9 76 -53 118 -121 118c-86 0 -138 -70 -138 -187c0 -120 52 -189 141 -189c68 0 110 41 123 119l81 -13c-18 -114 -93 -180 -205 -180z"/>
    <glyph glyph-name="dcaron" unicode="ď" horiz-adv-x="596" d="M248 -12c-121 0 -203 105 -203 262c0 154 88 262 213 262c66 0 115 -27 147 -86v299h85v-725h-80v93c-30 -67 -84 -105 -162 -105zM563 531l-18 35c36 10 46 22 46 54h-51v90h96v-80c0 -56 -21 -84 -73 -99zM271 63c83 0 136 68 136 175v23c0 109 -52 176 -136 176 c-85 0 -136 -69 -136 -187c0 -117 51 -187 136 -187z"/>
    <glyph glyph-name="dcroat" unicode="đ" horiz-adv-x="585" d="M591 643v-51h-101v-592h-80v93c-30 -67 -84 -105 -162 -105c-121 0 -203 105 -203 262c0 154 88 262 213 262c66 0 115 -27 147 -86v166h-177v51h177v82h85v-82h101zM407 238v23c0 109 -52 176 -136 176c-85 0 -136 -69 -136 -187c0 -117 51 -187 136 -187 c83 0 136 68 136 175z"/>
    <glyph glyph-name="eacute" unicode="é" horiz-adv-x="535" d="M424 723l-118 -143h-78l92 143h104zM485 285v-60h-355c1 -98 60 -162 149 -162c64 0 111 34 133 95l70 -31c-35 -91 -108 -139 -209 -139c-143 0 -228 91 -228 256c0 167 84 268 227 268c135 0 213 -77 213 -227zM399 294v11c0 92 -47 140 -129 140 c-88 0 -138 -57 -140 -151h269z"/>
    <glyph glyph-name="ebreve" unicode="ĕ" horiz-adv-x="535" d="M265 575c-78 0 -146 41 -150 148h72c3 -60 34 -87 78 -87s75 27 78 87h72c-4 -107 -72 -148 -150 -148zM485 285v-60h-355c1 -98 60 -162 149 -162c64 0 111 34 133 95l70 -31c-35 -91 -108 -139 -209 -139c-143 0 -228 91 -228 256c0 167 84 268 227 268 c135 0 213 -77 213 -227zM399 294v11c0 92 -47 140 -129 140c-88 0 -138 -57 -140 -151h269z"/>
    <glyph glyph-name="ecaron" unicode="ě" horiz-adv-x="535" d="M309 575h-88l-108 143h79l73 -100l73 100h79zM485 285v-60h-355c1 -98 60 -162 149 -162c64 0 111 34 133 95l70 -31c-35 -91 -108 -139 -209 -139c-143 0 -228 91 -228 256c0 167 84 268 227 268c135 0 213 -77 213 -227zM399 294v11c0 92 -47 140 -129 140 c-88 0 -138 -57 -140 -151h269z"/>
    <glyph glyph-name="ecircumflex" unicode="ê" horiz-adv-x="535" d="M265 680l-73 -100h-79l108 143h88l108 -143h-79zM485 285v-60h-355c1 -98 60 -162 149 -162c64 0 111 34 133 95l70 -31c-35 -91 -108 -139 -209 -139c-143 0 -228 91 -228 256c0 167 84 268 227 268c135 0 213 -77 213 -227zM399 294v11c0 92 -47 140 -129 140 c-88 0 -138 -57 -140 -151h269z"/>
    <glyph glyph-name="edieresis" unicode="ë" horiz-adv-x="535" d="M212 699v-103h-97v103h97zM415 699v-103h-97v103h97zM485 285v-60h-355c1 -98 60 -162 149 -162c64 0 111 34 133 95l70 -31c-35 -91 -108 -139 -209 -139c-143 0 -228 91 -228 256c0 167 84 268 227 268c135 0 213 -77 213 -227zM399 294v11c0 92 -47 140 -129 140 c-88 0 -138 -57 -140 -151h269z"/>
    <glyph glyph-name="edotaccent" unicode="ė" horiz-adv-x="535" d="M313 700v-107h-97v107h97zM485 285v-60h-355c1 -98 60 -162 149 -162c64 0 111 34 133 95l70 -31c-35 -91 -108 -139 -209 -139c-143 0 -228 91 -228 256c0 167 84 268 227 268c135 0 213 -77 213 -227zM399 294v11c0 92 -47 140 -129 140c-88 0 -138 -57 -140 -151h269z "/>
    <glyph glyph-name="egrave" unicode="è" horiz-adv-x="535" d="M302 580h-78l-118 143h104zM485 285v-60h-355c1 -98 60 -162 149 -162c64 0 111 34 133 95l70 -31c-35 -91 -108 -139 -209 -139c-143 0 -228 91 -228 256c0 167 84 268 227 268c135 0 213 -77 213 -227zM399 294v11c0 92 -47 140 -129 140c-88 0 -138 -57 -140 -151h269 z"/>
    <glyph glyph-name="emacron" unicode="ē" horiz-adv-x="535" d="M414 681v-68h-298v68h298zM485 285v-60h-355c1 -98 60 -162 149 -162c64 0 111 34 133 95l70 -31c-35 -91 -108 -139 -209 -139c-143 0 -228 91 -228 256c0 167 84 268 227 268c135 0 213 -77 213 -227zM399 294v11c0 92 -47 140 -129 140c-88 0 -138 -57 -140 -151h269z "/>
    <glyph glyph-name="eogonek" unicode="ę" horiz-adv-x="535" d="M485 285v-60h-355c1 -98 60 -162 149 -162c64 0 111 34 133 95l70 -31c-27 -69 -75 -113 -141 -131c-71 -25 -96 -67 -96 -104c0 -26 15 -41 40 -41c23 0 38 16 44 48l59 -8c-10 -59 -42 -94 -106 -94c-63 0 -101 34 -101 87c0 41 24 78 70 105c-130 9 -206 99 -206 255 c0 167 84 268 227 268c135 0 213 -77 213 -227zM399 294v11c0 92 -47 140 -129 140c-88 0 -138 -57 -140 -151h269z"/>
    <glyph glyph-name="gbreve" unicode="ğ" horiz-adv-x="535" d="M268 575c-78 0 -146 41 -150 148h72c3 -60 34 -87 78 -87s75 27 78 87h72c-4 -107 -72 -148 -150 -148zM479 508c-38 0 -63 -15 -75 -47c30 -30 46 -71 46 -118c0 -97 -69 -171 -185 -171c-37 0 -69 8 -96 21c-21 -9 -36 -26 -36 -49c0 -28 21 -51 83 -51h122 c113 0 170 -51 170 -141c0 -94 -74 -159 -248 -159c-176 0 -225 66 -225 137c0 47 28 87 81 104c-42 19 -58 51 -58 87c0 50 29 84 71 100c-32 31 -49 73 -49 122c0 97 69 169 185 169c38 0 70 -8 98 -21c15 51 52 91 119 91c11 0 22 -1 33 -4v-74c-10 2 -22 4 -36 4z M265 237c64 0 105 44 105 105s-41 105 -105 105s-105 -43 -105 -104s41 -106 105 -106zM319 18h-106c-15 0 -29 1 -42 2c-36 -16 -53 -45 -53 -75c0 -62 62 -82 152 -82c122 0 153 38 153 83c0 47 -35 72 -104 72z"/>
    <glyph glyph-name="gcircumflex" unicode="ĝ" horiz-adv-x="535" d="M268 680l-73 -87h-79l108 130h88l108 -130h-79zM479 508c-38 0 -63 -15 -75 -47c30 -30 46 -71 46 -118c0 -97 -69 -171 -185 -171c-37 0 -69 8 -96 21c-21 -9 -36 -26 -36 -49c0 -28 21 -51 83 -51h122c113 0 170 -51 170 -141c0 -94 -74 -159 -248 -159 c-176 0 -225 66 -225 137c0 47 28 87 81 104c-42 19 -58 51 -58 87c0 50 29 84 71 100c-32 31 -49 73 -49 122c0 97 69 169 185 169c38 0 70 -8 98 -21c15 51 52 91 119 91c11 0 22 -1 33 -4v-74c-10 2 -22 4 -36 4zM265 237c64 0 105 44 105 105s-41 105 -105 105 s-105 -43 -105 -104s41 -106 105 -106zM319 18h-106c-15 0 -29 1 -42 2c-36 -16 -53 -45 -53 -75c0 -62 62 -82 152 -82c122 0 153 38 153 83c0 47 -35 72 -104 72z"/>
    <glyph glyph-name="uni0123" unicode="ģ" horiz-adv-x="535" d="M317 670v-90h-96v80c0 53 14 90 72 111l20 -38c-42 -14 -47 -29 -47 -63h51zM479 508c-38 0 -63 -15 -75 -47c30 -30 46 -71 46 -118c0 -97 -69 -171 -185 -171c-37 0 -69 8 -96 21c-21 -9 -36 -26 -36 -49c0 -28 21 -51 83 -51h122c113 0 170 -51 170 -141 c0 -94 -74 -159 -248 -159c-176 0 -225 66 -225 137c0 47 28 87 81 104c-42 19 -58 51 -58 87c0 50 29 84 71 100c-32 31 -49 73 -49 122c0 97 69 169 185 169c38 0 70 -8 98 -21c15 51 52 91 119 91c11 0 22 -1 33 -4v-74c-10 2 -22 4 -36 4zM265 237c64 0 105 44 105 105 s-41 105 -105 105s-105 -43 -105 -104s41 -106 105 -106zM319 18h-106c-15 0 -29 1 -42 2c-36 -16 -53 -45 -53 -75c0 -62 62 -82 152 -82c122 0 153 38 153 83c0 47 -35 72 -104 72z"/>
    <glyph glyph-name="gdotaccent" unicode="ġ" horiz-adv-x="535" d="M316 700v-107h-97v107h97zM479 508c-38 0 -63 -15 -75 -47c30 -30 46 -71 46 -118c0 -97 -69 -171 -185 -171c-37 0 -69 8 -96 21c-21 -9 -36 -26 -36 -49c0 -28 21 -51 83 -51h122c113 0 170 -51 170 -141c0 -94 -74 -159 -248 -159c-176 0 -225 66 -225 137 c0 47 28 87 81 104c-42 19 -58 51 -58 87c0 50 29 84 71 100c-32 31 -49 73 -49 122c0 97 69 169 185 169c38 0 70 -8 98 -21c15 51 52 91 119 91c11 0 22 -1 33 -4v-74c-10 2 -22 4 -36 4zM265 237c64 0 105 44 105 105s-41 105 -105 105s-105 -43 -105 -104 s41 -106 105 -106zM319 18h-106c-15 0 -29 1 -42 2c-36 -16 -53 -45 -53 -75c0 -62 62 -82 152 -82c122 0 153 38 153 83c0 47 -35 72 -104 72z"/>
    <glyph glyph-name="hbar" unicode="ħ" horiz-adv-x="568" d="M344 512c108 0 165 -69 165 -201v-311h-85v305c0 88 -37 134 -109 134c-86 0 -135 -65 -135 -178v-261h-85v579h-95v51h95v95h85v-95h203v-51h-203v-173c30 70 86 106 164 106z"/>
    <glyph glyph-name="hcircumflex" unicode="ĥ" horiz-adv-x="584" d="M288 753h-86l-64 72l-64 -72h-86l97 108h106zM95 0v725h85v-319c30 70 86 106 164 106c108 0 165 -69 165 -201v-311h-85v305c0 88 -37 134 -109 134c-86 0 -135 -65 -135 -178v-261h-85z"/>
    <glyph glyph-name="iacute" unicode="í" horiz-adv-x="265" d="M96 580l62 143h94l-78 -143h-78zM90 0v500h85v-500h-85z"/>
    <glyph glyph-name="ibreve" unicode="ĭ" horiz-adv-x="265" d="M91 723c0 -70 15 -87 42 -87s42 17 42 87h72c-1 -114 -50 -148 -114 -148s-113 34 -114 148h72zM90 0v500h85v-500h-85z"/>
    <glyph glyph-name="icircumflex" unicode="î" horiz-adv-x="265" d="M255 580h-74l-48 101l-48 -101h-74l78 143h88zM90 0v500h85v-500h-85z"/>
    <glyph glyph-name="idieresis" unicode="ï" horiz-adv-x="265" d="M13 596v103h97v-103h-97zM156 596v103h97v-103h-97zM90 0v500h85v-500h-85z"/>
    <glyph glyph-name="i.loclTRK" horiz-adv-x="265" d="M84 593v107h97v-107h-97zM90 0v500h85v-500h-85z"/>
    <glyph glyph-name="dotlessi" unicode="ı" horiz-adv-x="265" d="M90 0v500h85v-500h-85z"/>
    <glyph glyph-name="igrave" unicode="ì" horiz-adv-x="265" d="M170 580h-78l-78 143h94zM90 0v500h85v-500h-85z"/>
    <glyph glyph-name="ij" unicode="ĳ" horiz-adv-x="528" d="M84 593v107h97v-107h-97zM347 593v107h97v-107h-97zM90 0v500h85v-500h-85zM311 -202c-18 0 -46 2 -61 6v73c29 -2 40 -2 49 -2c37 0 54 16 54 84v541h85v-550c0 -80 -27 -152 -127 -152z"/>
    <glyph glyph-name="uni006A0301" horiz-adv-x="263" d="M94 580l62 143h94l-78 -143h-78zM46 -202c-18 0 -46 2 -61 6v73c29 -2 40 -2 49 -2c37 0 54 16 54 84v541h85v-550c0 -80 -27 -152 -127 -152z"/>
    <glyph glyph-name="imacron" unicode="ī" horiz-adv-x="265" d="M19 613v68h228v-68h-228zM90 0v500h85v-500h-85z"/>
    <glyph glyph-name="iogonek" unicode="į" horiz-adv-x="265" d="M181 700v-107h-97v107h97zM147 -101l59 -8c-10 -59 -42 -94 -106 -94c-63 0 -101 34 -101 87c0 47 31 88 91 116v500h85v-500h-5c-79 -25 -107 -69 -107 -108c0 -26 15 -41 40 -41c23 0 38 16 44 48z"/>
    <glyph glyph-name="itilde" unicode="ĩ" horiz-adv-x="265" d="M187 587c-50 0 -66 66 -93 66c-15 0 -24 -12 -28 -52l-58 11c8 71 38 109 85 109c50 0 66 -66 93 -66c15 0 24 12 28 52l58 -11c-8 -71 -38 -109 -85 -109zM90 0v500h85v-500h-85z"/>
    <glyph glyph-name="jcircumflex" unicode="ĵ" horiz-adv-x="263" d="M253 580h-74l-48 101l-48 -101h-74l78 143h88zM46 -202c-18 0 -46 2 -61 6v73c29 -2 40 -2 49 -2c37 0 54 16 54 84v541h85v-550c0 -80 -27 -152 -127 -152z"/>
    <glyph glyph-name="uni0237" unicode="ȷ" horiz-adv-x="263" d="M46 -202c-18 0 -46 2 -61 6v73c29 -2 40 -2 49 -2c37 0 54 16 54 84v541h85v-550c0 -80 -27 -152 -127 -152z"/>
    <glyph glyph-name="uni0137" unicode="ķ" horiz-adv-x="542" d="M332 307l195 -307h-105l-151 245l-91 -92v-153h-85v725h85v-471l224 246h111zM223 -136v90h96v-80c0 -53 -14 -90 -72 -111l-20 38c42 14 47 29 47 63h-51z"/>
    <glyph glyph-name="kgreenlandic" unicode="ĸ" horiz-adv-x="537" d="M417 0l-151 245l-91 -92v-153h-85v500h85v-246l224 246h111l-183 -193l195 -307h-105z"/>
    <glyph glyph-name="lacute" unicode="ĺ" horiz-adv-x="275" d="M98 753l90 108h94l-104 -108h-80zM180 725v-725h-85v725h85z"/>
    <glyph glyph-name="lcaron" unicode="ľ" horiz-adv-x="286" d="M180 725v-725h-85v725h85zM253 531l-18 35c36 10 46 22 46 54h-51v90h96v-80c0 -56 -21 -84 -73 -99z"/>
    <glyph glyph-name="uni013C" unicode="ļ" horiz-adv-x="275" d="M180 725v-725h-85v725h85zM114 -237l-20 38c42 14 47 29 47 63h-51v90h96v-80c0 -53 -14 -90 -72 -111z"/>
    <glyph glyph-name="ldot" unicode="ŀ" horiz-adv-x="313" d="M180 725v-725h-85v725h85zM378 500v-118h-117v118h117z"/>
    <glyph glyph-name="lslash" unicode="ł" horiz-adv-x="275" d="M230 516v-62l-50 -47v-407h-85v327l-50 -47v62l50 47v336h85v-256z"/>
    <glyph glyph-name="nacute" unicode="ń" horiz-adv-x="579" d="M276 580l92 143h104l-118 -143h-78zM90 0v500h80v-99c33 75 88 111 167 111c110 0 167 -68 167 -201v-311h-85v306c0 88 -37 133 -110 133c-83 0 -134 -67 -134 -178v-261h-85z"/>
    <glyph glyph-name="napostrophe" unicode="ŉ" horiz-adv-x="579" d="M58 531l-18 35c36 10 46 22 46 54h-51v90h96v-80c0 -56 -21 -84 -73 -99zM90 0v500h80v-99c33 75 88 111 167 111c110 0 167 -68 167 -201v-311h-85v306c0 88 -37 133 -110 133c-83 0 -134 -67 -134 -178v-261h-85z"/>
    <glyph glyph-name="ncaron" unicode="ň" horiz-adv-x="579" d="M161 718h79l73 -100l73 100h79l-108 -143h-88zM90 0v500h80v-99c33 75 88 111 167 111c110 0 167 -68 167 -201v-311h-85v306c0 88 -37 133 -110 133c-83 0 -134 -67 -134 -178v-261h-85z"/>
    <glyph glyph-name="uni0146" unicode="ņ" horiz-adv-x="579" d="M90 0v500h80v-99c33 75 88 111 167 111c110 0 167 -68 167 -201v-311h-85v306c0 88 -37 133 -110 133c-83 0 -134 -67 -134 -178v-261h-85zM266 -237l-20 38c42 14 47 29 47 63h-51v90h96v-80c0 -53 -14 -90 -72 -111z"/>
    <glyph glyph-name="ntilde" unicode="ñ" horiz-adv-x="579" d="M384 587c-74 0 -96 66 -145 66c-26 0 -40 -18 -50 -57l-58 11c11 71 50 114 111 114c74 0 95 -66 145 -66c26 0 40 17 50 57l58 -11c-10 -71 -50 -114 -111 -114zM90 0v500h80v-99c33 75 88 111 167 111c110 0 167 -68 167 -201v-311h-85v306c0 88 -37 133 -110 133 c-83 0 -134 -67 -134 -178v-261h-85z"/>
    <glyph glyph-name="eng" unicode="ŋ" horiz-adv-x="579" d="M337 512c110 0 167 -68 167 -201v-335c0 -104 -27 -178 -126 -178c-18 0 -43 2 -61 6v73c11 -1 23 -2 42 -2c48 0 60 27 60 88v343c0 88 -37 133 -110 133c-83 0 -134 -67 -134 -178v-261h-85v500h80v-99c33 75 88 111 167 111z"/>
    <glyph glyph-name="oacute" unicode="ó" horiz-adv-x="556" d="M241 580l92 143h104l-118 -143h-78zM278 -12c-141 0 -233 99 -233 262s92 262 233 262s233 -99 233 -262s-92 -262 -233 -262zM278 62c90 0 143 64 143 188s-53 188 -143 188s-143 -64 -143 -188s53 -188 143 -188z"/>
    <glyph glyph-name="obreve" unicode="ŏ" horiz-adv-x="556" d="M200 723c3 -60 34 -87 78 -87s75 27 78 87h72c-4 -107 -72 -148 -150 -148s-146 41 -150 148h72zM278 -12c-141 0 -233 99 -233 262s92 262 233 262s233 -99 233 -262s-92 -262 -233 -262zM278 62c90 0 143 64 143 188s-53 188 -143 188s-143 -64 -143 -188 s53 -188 143 -188z"/>
    <glyph glyph-name="ocircumflex" unicode="ô" horiz-adv-x="556" d="M430 580h-79l-73 100l-73 -100h-79l108 143h88zM278 -12c-141 0 -233 99 -233 262s92 262 233 262s233 -99 233 -262s-92 -262 -233 -262zM278 62c90 0 143 64 143 188s-53 188 -143 188s-143 -64 -143 -188s53 -188 143 -188z"/>
    <glyph glyph-name="odieresis" unicode="ö" horiz-adv-x="556" d="M128 596v103h97v-103h-97zM331 596v103h97v-103h-97zM278 -12c-141 0 -233 99 -233 262s92 262 233 262s233 -99 233 -262s-92 -262 -233 -262zM278 62c90 0 143 64 143 188s-53 188 -143 188s-143 -64 -143 -188s53 -188 143 -188z"/>
    <glyph glyph-name="oe" unicode="œ" horiz-adv-x="911" d="M861 285v-60h-355c1 -98 60 -162 149 -162c64 0 111 34 133 95l70 -31c-35 -91 -108 -139 -209 -139c-86 0 -151 33 -189 95c-37 -60 -98 -95 -182 -95c-140 0 -233 105 -233 262c0 158 92 262 233 262c85 0 147 -36 184 -98c38 63 102 98 186 98c135 0 213 -77 213 -227 zM775 294v11c0 92 -47 140 -129 140c-88 0 -138 -57 -140 -151h269zM278 62c90 0 143 70 143 188s-54 188 -143 188c-90 0 -143 -70 -143 -188s53 -188 143 -188z"/>
    <glyph glyph-name="ograve" unicode="ò" horiz-adv-x="556" d="M315 580h-78l-118 143h104zM278 -12c-141 0 -233 99 -233 262s92 262 233 262s233 -99 233 -262s-92 -262 -233 -262zM278 62c90 0 143 64 143 188s-53 188 -143 188s-143 -64 -143 -188s53 -188 143 -188z"/>
    <glyph glyph-name="ohungarumlaut" unicode="ő" horiz-adv-x="556" d="M164 580l86 143h82l-93 -143h-75zM316 580l86 143h82l-93 -143h-75zM278 -12c-141 0 -233 99 -233 262s92 262 233 262s233 -99 233 -262s-92 -262 -233 -262zM278 62c90 0 143 64 143 188s-53 188 -143 188s-143 -64 -143 -188s53 -188 143 -188z"/>
    <glyph glyph-name="omacron" unicode="ō" horiz-adv-x="556" d="M129 613v68h298v-68h-298zM278 -12c-141 0 -233 99 -233 262s92 262 233 262s233 -99 233 -262s-92 -262 -233 -262zM278 62c90 0 143 64 143 188s-53 188 -143 188s-143 -64 -143 -188s53 -188 143 -188z"/>
    <glyph glyph-name="ordfeminine" unicode="ª" horiz-adv-x="437" d="M169 301c-76 0 -126 43 -126 106c0 78 66 101 158 113l93 12v9c0 64 -24 89 -79 89c-51 0 -81 -25 -83 -72h-78c5 79 66 126 161 126c108 0 155 -46 155 -151v-105c0 -50 4 -91 11 -118h-76c-3 20 -5 43 -6 70c-18 -50 -67 -79 -130 -79zM193 354c63 0 103 43 103 105v31 l-90 -13c-59 -8 -85 -30 -85 -65s28 -58 72 -58z"/>
    <glyph glyph-name="ordmasculine" unicode="º" horiz-adv-x="445" d="M223 301c-107 0 -180 70 -180 192s73 191 180 191c106 0 179 -69 179 -191s-73 -192 -179 -192zM223 358c64 0 103 46 103 135c0 88 -39 134 -103 134c-65 0 -104 -46 -104 -134c0 -89 39 -135 104 -135z"/>
    <glyph glyph-name="oslash" unicode="ø" horiz-adv-x="556" d="M456 432c35 -45 55 -107 55 -182c0 -163 -92 -262 -233 -262c-55 0 -103 15 -141 44l-36 -46l-43 31l41 52c-34 44 -54 106 -54 181c0 163 92 262 233 262c55 0 102 -15 139 -43l36 45l44 -31zM135 250c0 -45 7 -82 20 -111l213 268c-23 21 -54 31 -90 31 c-90 0 -143 -64 -143 -188zM278 62c90 0 143 64 143 188c0 45 -7 83 -21 112l-213 -268c23 -21 54 -32 91 -32z"/>
    <glyph glyph-name="oslashacute" unicode="ǿ" horiz-adv-x="556" d="M442 723l-118 -143h-78l92 143h104zM456 432c35 -45 55 -107 55 -182c0 -163 -92 -262 -233 -262c-55 0 -103 15 -141 44l-36 -46l-43 31l41 52c-34 44 -54 106 -54 181c0 163 92 262 233 262c55 0 102 -15 139 -43l36 45l44 -31zM135 250c0 -45 7 -82 20 -111l213 268 c-23 21 -54 31 -90 31c-90 0 -143 -64 -143 -188zM278 62c90 0 143 64 143 188c0 45 -7 83 -21 112l-213 -268c23 -21 54 -32 91 -32z"/>
    <glyph glyph-name="otilde" unicode="õ" horiz-adv-x="556" d="M349 587c-74 0 -96 66 -145 66c-26 0 -40 -18 -50 -57l-58 11c11 71 50 114 111 114c74 0 95 -66 145 -66c26 0 40 17 50 57l58 -11c-10 -71 -50 -114 -111 -114zM278 -12c-141 0 -233 99 -233 262s92 262 233 262s233 -99 233 -262s-92 -262 -233 -262zM278 62 c90 0 143 64 143 188s-53 188 -143 188s-143 -64 -143 -188s53 -188 143 -188z"/>
    <glyph glyph-name="racute" unicode="ŕ" horiz-adv-x="359" d="M148 580l92 143h104l-118 -143h-78zM169 386c24 70 76 126 152 126c6 0 12 0 18 -1v-83h-4c-52 0 -86 -15 -110 -39c-48 -48 -50 -115 -50 -175v-214h-85v500h79v-114z"/>
    <glyph glyph-name="rcaron" unicode="ř" horiz-adv-x="359" d="M33 718h79l73 -100l73 100h79l-108 -143h-88zM169 386c24 70 76 126 152 126c6 0 12 0 18 -1v-83h-4c-52 0 -86 -15 -110 -39c-48 -48 -50 -115 -50 -175v-214h-85v500h79v-114z"/>
    <glyph glyph-name="uni0157" unicode="ŗ" horiz-adv-x="359" d="M169 386c24 70 76 126 152 126c6 0 12 0 18 -1v-83h-4c-52 0 -86 -15 -110 -39c-48 -48 -50 -115 -50 -175v-214h-85v500h79v-114zM109 -237l-20 38c42 14 47 29 47 63h-51v90h96v-80c0 -53 -14 -90 -72 -111z"/>
    <glyph glyph-name="sacute" unicode="ś" horiz-adv-x="502" d="M212 580l92 143h104l-118 -143h-78zM260 -12c-118 0 -198 55 -215 154l86 15c12 -63 59 -99 132 -99c67 0 104 33 104 76c0 44 -27 62 -72 70l-98 18c-85 16 -133 64 -133 140c0 86 72 150 190 150c112 0 188 -51 198 -135l-84 -19c-11 50 -50 85 -118 85 c-64 0 -103 -28 -103 -77c0 -42 28 -62 77 -71l97 -18c90 -17 130 -63 130 -136c0 -90 -69 -153 -191 -153z"/>
    <glyph glyph-name="scaron" unicode="š" horiz-adv-x="502" d="M97 718h79l73 -100l73 100h79l-108 -143h-88zM260 -12c-118 0 -198 55 -215 154l86 15c12 -63 59 -99 132 -99c67 0 104 33 104 76c0 44 -27 62 -72 70l-98 18c-85 16 -133 64 -133 140c0 86 72 150 190 150c112 0 188 -51 198 -135l-84 -19c-11 50 -50 85 -118 85 c-64 0 -103 -28 -103 -77c0 -42 28 -62 77 -71l97 -18c90 -17 130 -63 130 -136c0 -90 -69 -153 -191 -153z"/>
    <glyph glyph-name="scedilla" unicode="ş" horiz-adv-x="502" d="M321 277c90 -17 130 -63 130 -136c0 -83 -59 -144 -165 -152l-24 -38c8 7 25 12 43 12c45 0 74 -30 74 -77c0 -51 -42 -85 -105 -85c-52 0 -89 23 -101 63l57 10c6 -17 22 -28 42 -28c25 0 43 17 43 41c0 25 -16 41 -41 41c-13 0 -25 -5 -34 -15l-39 12l34 64 c-104 7 -174 61 -190 153l86 15c12 -63 59 -99 132 -99c67 0 104 33 104 76c0 44 -27 62 -72 70l-98 18c-85 16 -133 64 -133 140c0 86 72 150 190 150c112 0 188 -51 198 -135l-84 -19c-11 50 -50 85 -118 85c-64 0 -103 -28 -103 -77c0 -42 28 -62 77 -71z"/>
    <glyph glyph-name="scircumflex" unicode="ŝ" horiz-adv-x="502" d="M401 580h-79l-73 100l-73 -100h-79l108 143h88zM260 -12c-118 0 -198 55 -215 154l86 15c12 -63 59 -99 132 -99c67 0 104 33 104 76c0 44 -27 62 -72 70l-98 18c-85 16 -133 64 -133 140c0 86 72 150 190 150c112 0 188 -51 198 -135l-84 -19c-11 50 -50 85 -118 85 c-64 0 -103 -28 -103 -77c0 -42 28 -62 77 -71l97 -18c90 -17 130 -63 130 -136c0 -90 -69 -153 -191 -153z"/>
    <glyph glyph-name="uni0219" unicode="ș" horiz-adv-x="502" d="M260 -12c-118 0 -198 55 -215 154l86 15c12 -63 59 -99 132 -99c67 0 104 33 104 76c0 44 -27 62 -72 70l-98 18c-85 16 -133 64 -133 140c0 86 72 150 190 150c112 0 188 -51 198 -135l-84 -19c-11 50 -50 85 -118 85c-64 0 -103 -28 -103 -77c0 -42 28 -62 77 -71 l97 -18c90 -17 130 -63 130 -136c0 -90 -69 -153 -191 -153zM245 -237l-20 38c42 14 47 29 47 63h-51v90h96v-80c0 -53 -14 -90 -72 -111z"/>
    <glyph glyph-name="tbar" unicode="ŧ" horiz-adv-x="358" d="M323 240h-130v-87c0 -57 22 -82 73 -82c22 0 35 3 52 7v-78c-22 -6 -42 -9 -74 -9c-108 0 -136 66 -136 159v90h-88v71h88v119h-93v70h93v131l85 36v-167h125v-70h-125v-119h130v-71z"/>
    <glyph glyph-name="tcaron" unicode="ť" horiz-adv-x="353" d="M258 531l-18 35c36 10 46 22 46 54h-51v90h96v-80c0 -56 -21 -84 -73 -99zM15 430v70h93v131l85 36v-167h125v-70h-125v-277c0 -57 22 -82 73 -82c22 0 35 3 52 7v-78c-22 -6 -42 -9 -74 -9c-108 0 -136 66 -136 159v280h-93z"/>
    <glyph glyph-name="uni0163" unicode="ţ" horiz-adv-x="353" d="M271 -37c45 0 74 -30 74 -77c0 -51 -42 -85 -105 -85c-52 0 -89 23 -101 63l57 10c6 -17 22 -28 42 -28c25 0 43 17 43 41c0 25 -16 41 -41 41c-13 0 -25 -5 -34 -15l-39 12l37 70c-75 15 -96 75 -96 155v280h-93v70h93v131l85 36v-167h125v-70h-125v-277 c0 -57 22 -82 73 -82c22 0 35 3 52 7v-78c-20 -5 -38 -8 -65 -9l-25 -40c8 7 25 12 43 12z"/>
    <glyph glyph-name="uni021B" unicode="ț" horiz-adv-x="353" d="M15 430v70h93v131l85 36v-167h125v-70h-125v-277c0 -57 22 -82 73 -82c22 0 35 3 52 7v-78c-22 -6 -42 -9 -74 -9c-108 0 -136 66 -136 159v280h-93zM211 -237l-20 38c42 14 47 29 47 63h-51v90h96v-80c0 -53 -14 -90 -72 -111z"/>
    <glyph glyph-name="thorn" unicode="þ" horiz-adv-x="585" d="M95 -195v920h85v-308c34 63 88 95 158 95c127 0 202 -118 202 -262s-75 -262 -202 -262c-70 0 -124 29 -158 85v-268h-85zM315 63c85 0 135 84 135 187s-50 187 -135 187c-87 0 -137 -67 -137 -172v-28c0 -107 49 -174 137 -174z"/>
    <glyph glyph-name="uacute" unicode="ú" horiz-adv-x="571" d="M241 580l92 143h104l-118 -143h-78zM246 -12c-126 0 -171 76 -171 193v319h85v-309c0 -84 36 -130 102 -130c80 0 134 68 134 170v269h85v-500h-80v94c-23 -61 -85 -106 -155 -106z"/>
    <glyph glyph-name="ubreve" unicode="ŭ" horiz-adv-x="571" d="M200 723c3 -60 34 -87 78 -87s75 27 78 87h72c-4 -107 -72 -148 -150 -148s-146 41 -150 148h72zM246 -12c-126 0 -171 76 -171 193v319h85v-309c0 -84 36 -130 102 -130c80 0 134 68 134 170v269h85v-500h-80v94c-23 -61 -85 -106 -155 -106z"/>
    <glyph glyph-name="ucircumflex" unicode="û" horiz-adv-x="571" d="M430 580h-79l-73 100l-73 -100h-79l108 143h88zM246 -12c-126 0 -171 76 -171 193v319h85v-309c0 -84 36 -130 102 -130c80 0 134 68 134 170v269h85v-500h-80v94c-23 -61 -85 -106 -155 -106z"/>
    <glyph glyph-name="udieresis" unicode="ü" horiz-adv-x="571" d="M128 596v103h97v-103h-97zM331 596v103h97v-103h-97zM246 -12c-126 0 -171 76 -171 193v319h85v-309c0 -84 36 -130 102 -130c80 0 134 68 134 170v269h85v-500h-80v94c-23 -61 -85 -106 -155 -106z"/>
    <glyph glyph-name="ugrave" unicode="ù" horiz-adv-x="571" d="M315 580h-78l-118 143h104zM246 -12c-126 0 -171 76 -171 193v319h85v-309c0 -84 36 -130 102 -130c80 0 134 68 134 170v269h85v-500h-80v94c-23 -61 -85 -106 -155 -106z"/>
    <glyph glyph-name="uhungarumlaut" unicode="ű" horiz-adv-x="571" d="M164 580l86 143h82l-93 -143h-75zM316 580l86 143h82l-93 -143h-75zM246 -12c-126 0 -171 76 -171 193v319h85v-309c0 -84 36 -130 102 -130c80 0 134 68 134 170v269h85v-500h-80v94c-23 -61 -85 -106 -155 -106z"/>
    <glyph glyph-name="umacron" unicode="ū" horiz-adv-x="571" d="M129 613v68h298v-68h-298zM246 -12c-126 0 -171 76 -171 193v319h85v-309c0 -84 36 -130 102 -130c80 0 134 68 134 170v269h85v-500h-80v94c-23 -61 -85 -106 -155 -106z"/>
    <glyph glyph-name="uogonek" unicode="ų" horiz-adv-x="571" d="M458 -101l59 -8c-10 -59 -42 -94 -106 -94c-63 0 -101 34 -101 87c0 47 31 88 91 116v94c-23 -61 -85 -106 -155 -106c-126 0 -171 76 -171 193v319h85v-309c0 -84 36 -130 102 -130c80 0 134 68 134 170v269h85v-500c-79 -25 -107 -69 -107 -108c0 -26 15 -41 40 -41 c23 0 38 16 44 48z"/>
    <glyph glyph-name="uring" unicode="ů" horiz-adv-x="571" d="M278 556c-65 0 -109 42 -109 102s44 102 109 102s109 -42 109 -102s-44 -102 -109 -102zM278 604c31 0 52 22 52 54s-21 54 -52 54s-52 -22 -52 -54s21 -54 52 -54zM246 -12c-126 0 -171 76 -171 193v319h85v-309c0 -84 36 -130 102 -130c80 0 134 68 134 170v269h85 v-500h-80v94c-23 -61 -85 -106 -155 -106z"/>
    <glyph glyph-name="utilde" unicode="ũ" horiz-adv-x="571" d="M349 587c-74 0 -96 66 -145 66c-26 0 -40 -18 -50 -57l-58 11c11 71 50 114 111 114c74 0 95 -66 145 -66c26 0 40 17 50 57l58 -11c-10 -71 -50 -114 -111 -114zM246 -12c-126 0 -171 76 -171 193v319h85v-309c0 -84 36 -130 102 -130c80 0 134 68 134 170v269h85v-500 h-80v94c-23 -61 -85 -106 -155 -106z"/>
    <glyph glyph-name="wacute" unicode="ẃ" horiz-adv-x="732" d="M329 580l92 143h104l-118 -143h-78zM166 0l-141 500h88l90 -357c4 -18 8 -39 11 -59h2c3 20 9 41 13 59l91 357h92l91 -357c4 -18 10 -39 13 -59h2c3 20 7 41 11 59l90 357h88l-141 -500h-93l-95 360c-4 16 -9 41 -11 56h-2c-2 -15 -7 -40 -11 -56l-95 -360h-93z"/>
    <glyph glyph-name="wcircumflex" unicode="ŵ" horiz-adv-x="732" d="M518 580h-79l-73 100l-73 -100h-79l108 143h88zM166 0l-141 500h88l90 -357c4 -18 8 -39 11 -59h2c3 20 9 41 13 59l91 357h92l91 -357c4 -18 10 -39 13 -59h2c3 20 7 41 11 59l90 357h88l-141 -500h-93l-95 360c-4 16 -9 41 -11 56h-2c-2 -15 -7 -40 -11 -56l-95 -360 h-93z"/>
    <glyph glyph-name="wdieresis" unicode="ẅ" horiz-adv-x="732" d="M216 596v103h97v-103h-97zM419 596v103h97v-103h-97zM166 0l-141 500h88l90 -357c4 -18 8 -39 11 -59h2c3 20 9 41 13 59l91 357h92l91 -357c4 -18 10 -39 13 -59h2c3 20 7 41 11 59l90 357h88l-141 -500h-93l-95 360c-4 16 -9 41 -11 56h-2c-2 -15 -7 -40 -11 -56 l-95 -360h-93z"/>
    <glyph glyph-name="wgrave" unicode="ẁ" horiz-adv-x="732" d="M403 580h-78l-118 143h104zM166 0l-141 500h88l90 -357c4 -18 8 -39 11 -59h2c3 20 9 41 13 59l91 357h92l91 -357c4 -18 10 -39 13 -59h2c3 20 7 41 11 59l90 357h88l-141 -500h-93l-95 360c-4 16 -9 41 -11 56h-2c-2 -15 -7 -40 -11 -56l-95 -360h-93z"/>
    <glyph glyph-name="yacute" unicode="ý" horiz-adv-x="487" d="M207 580l92 143h104l-118 -143h-78zM92 -200c-15 0 -30 1 -46 4v75c13 -2 25 -2 36 -2c60 0 91 27 114 92l13 37l-199 494h95l128 -348c9 -25 14 -45 17 -59h2c3 14 9 34 17 59l116 348h92l-195 -532c-46 -126 -106 -168 -190 -168z"/>
    <glyph glyph-name="ycircumflex" unicode="ŷ" horiz-adv-x="487" d="M396 580h-79l-73 100l-73 -100h-79l108 143h88zM92 -200c-15 0 -30 1 -46 4v75c13 -2 25 -2 36 -2c60 0 91 27 114 92l13 37l-199 494h95l128 -348c9 -25 14 -45 17 -59h2c3 14 9 34 17 59l116 348h92l-195 -532c-46 -126 -106 -168 -190 -168z"/>
    <glyph glyph-name="ydieresis" unicode="ÿ" horiz-adv-x="487" d="M94 596v103h97v-103h-97zM297 596v103h97v-103h-97zM92 -200c-15 0 -30 1 -46 4v75c13 -2 25 -2 36 -2c60 0 91 27 114 92l13 37l-199 494h95l128 -348c9 -25 14 -45 17 -59h2c3 14 9 34 17 59l116 348h92l-195 -532c-46 -126 -106 -168 -190 -168z"/>
    <glyph glyph-name="ygrave" unicode="ỳ" horiz-adv-x="487" d="M281 580h-78l-118 143h104zM92 -200c-15 0 -30 1 -46 4v75c13 -2 25 -2 36 -2c60 0 91 27 114 92l13 37l-199 494h95l128 -348c9 -25 14 -45 17 -59h2c3 14 9 34 17 59l116 348h92l-195 -532c-46 -126 -106 -168 -190 -168z"/>
    <glyph glyph-name="zacute" unicode="ź" horiz-adv-x="455" d="M191 580l92 143h104l-118 -143h-78zM35 65l273 363h-263v72h365v-63l-270 -364h285v-73h-390v65z"/>
    <glyph glyph-name="zcaron" unicode="ž" horiz-adv-x="455" d="M76 718h79l73 -100l73 100h79l-108 -143h-88zM35 65l273 363h-263v72h365v-63l-270 -364h285v-73h-390v65z"/>
    <glyph glyph-name="zdotaccent" unicode="ż" horiz-adv-x="455" d="M179 593v107h97v-107h-97zM35 65l273 363h-263v72h365v-63l-270 -364h285v-73h-390v65z"/>
    <glyph glyph-name="germandbls" unicode="ß" horiz-adv-x="564" d="M85 507c0 127 76 220 205 220c118 0 193 -53 193 -155c0 -93 -52 -156 -140 -167c122 -12 186 -78 186 -192c0 -144 -96 -225 -242 -225c-20 0 -48 3 -65 10v71c17 -6 44 -10 62 -10c91 0 155 53 155 154c0 96 -59 146 -178 151h-40v72h40c87 5 132 49 132 129 c0 60 -41 95 -109 95c-76 0 -114 -65 -114 -155v-505h-85v507z"/>
    <glyph glyph-name="eth" unicode="ð" horiz-adv-x="531" d="M375 623c79 -94 126 -224 126 -365c0 -158 -96 -270 -233 -270c-138 0 -223 102 -223 264c0 160 84 260 216 260c79 0 110 -45 125 -71h2c-16 56 -48 108 -89 152l-125 -49l-20 44l107 42c-30 24 -63 44 -97 57l56 53c44 -19 84 -46 119 -80l81 32l19 -44zM272 63 c91 0 143 70 143 189c0 122 -53 189 -143 189c-84 0 -137 -71 -137 -189c0 -117 52 -189 137 -189z"/>
    <glyph glyph-name="grave" unicode="`" horiz-adv-x="600" d="M244 580h-78l-118 143h104z"/>
    <glyph glyph-name="acute" unicode="´" horiz-adv-x="600" d="M48 580l92 143h104l-118 -143h-78z"/>
    <glyph glyph-name="circumflex" unicode="ˆ" horiz-adv-x="600" d="M354 580h-79l-73 100l-73 -100h-79l108 143h88z"/>
    <glyph glyph-name="tilde" unicode="˜" horiz-adv-x="600" d="M306 587c-74 0 -96 66 -145 66c-26 0 -40 -18 -50 -57l-58 11c11 71 50 114 111 114c74 0 95 -66 145 -66c26 0 40 17 50 57l58 -11c-10 -71 -50 -114 -111 -114z"/>
    <glyph glyph-name="caron" unicode="ˇ" horiz-adv-x="600" d="M50 718h79l73 -100l73 100h79l-108 -143h-88z"/>
    <glyph glyph-name="dieresis" unicode="¨" horiz-adv-x="600" d="M50 596v103h97v-103h-97zM253 596v103h97v-103h-97z"/>
    <glyph glyph-name="macron" unicode="¯" horiz-adv-x="600" d="M50 613v68h298v-68h-298z"/>
    <glyph glyph-name="breve" unicode="˘" horiz-adv-x="600" d="M124 723c3 -60 34 -87 78 -87s75 27 78 87h72c-4 -107 -72 -148 -150 -148s-146 41 -150 148h72z"/>
    <glyph glyph-name="ring" unicode="˚" horiz-adv-x="600" d="M157 556c-65 0 -109 42 -109 102s44 102 109 102s109 -42 109 -102s-44 -102 -109 -102zM157 604c31 0 52 22 52 54s-21 54 -52 54s-52 -22 -52 -54s21 -54 52 -54z"/>
    <glyph glyph-name="hungarumlaut" unicode="˝" horiz-adv-x="600" d="M64 580l86 143h82l-93 -143h-75zM216 580l86 143h82l-93 -143h-75z"/>
    <glyph glyph-name="dotaccent" unicode="˙" horiz-adv-x="600" d="M49 593v107h97v-107h-97z"/>
    <glyph glyph-name="cedilla" unicode="¸" horiz-adv-x="600" d="M121 7h53l-35 -56c8 7 25 12 43 12c45 0 74 -30 74 -77c0 -51 -42 -85 -105 -85c-52 0 -89 23 -101 63l57 10c6 -17 22 -28 42 -28c25 0 43 17 43 41c0 25 -16 41 -41 41c-13 0 -25 -5 -34 -15l-39 12z"/>
    <glyph glyph-name="ogonek" unicode="˛" horiz-adv-x="600" d="M257 -109c-10 -59 -42 -94 -106 -94c-63 0 -101 34 -101 87c0 47 31 88 91 116h80c-79 -25 -107 -69 -107 -108c0 -26 15 -41 40 -41c23 0 38 16 44 48z"/>
    <glyph glyph-name="comma" unicode="," horiz-adv-x="257" d="M97 -140l-23 44c50 22 60 44 60 93v3h-64v118h117v-111c0 -80 -21 -118 -90 -147z"/>
    <glyph glyph-name="semicolon" unicode=";" horiz-adv-x="257" d="M187 500v-118h-117v118h117zM97 -140l-23 44c50 22 60 44 60 93v3h-64v118h117v-111c0 -80 -21 -118 -90 -147z"/>
    <glyph glyph-name="colon" unicode=":" horiz-adv-x="257" d="M187 500v-118h-117v118h117zM187 118v-118h-117v118h117z"/>
    <glyph glyph-name="period" unicode="." horiz-adv-x="257" d="M187 118v-118h-117v118h117z"/>
    <glyph glyph-name="ellipsis" unicode="…" horiz-adv-x="821" d="M187 115v-115h-117v115h117zM469 115v-115h-117v115h117zM751 115v-115h-117v115h117z"/>
    <glyph glyph-name="hyphen" unicode="-" horiz-adv-x="389" d="M50 318h289v-80h-289v80z"/>
    <glyph glyph-name="exclam" unicode="!" horiz-adv-x="310" d="M125 182l-25 543h110l-25 -543h-60zM208 106v-106h-106v106h106z"/>
    <glyph glyph-name="exclamdown" unicode="¡" horiz-adv-x="310" d="M208 474h-106v106h106v-106zM125 398h60l25 -543h-110z"/>
    <glyph glyph-name="question" unicode="?" horiz-adv-x="468" d="M183 186v42c0 33 2 77 57 128l49 46c34 32 69 72 69 135c0 68 -45 112 -125 112c-78 0 -133 -48 -133 -134c0 -14 0 -25 6 -53l-91 11c-5 26 -5 43 -5 54c0 116 78 200 226 200c136 0 217 -68 217 -190c0 -71 -47 -131 -94 -175l-50 -47c-30 -28 -41 -53 -41 -101v-28 h-85zM174 0v106h105v-106h-105z"/>
    <glyph glyph-name="questiondown" unicode="¿" horiz-adv-x="468" d="M294 580v-106h-105v106h105zM285 394v-42c0 -33 -2 -77 -57 -128l-49 -46c-34 -32 -69 -72 -69 -135c0 -68 45 -112 125 -112c78 0 133 48 133 134c0 14 0 25 -6 53l91 -11c5 -26 5 -43 5 -54c0 -116 -78 -200 -226 -200c-136 0 -217 68 -217 190c0 71 47 131 94 175 l50 47c30 28 41 53 41 101v28h85z"/>
    <glyph glyph-name="quoteleft" unicode="‘" horiz-adv-x="257" d="M160 722l23 -44c-50 -22 -60 -44 -60 -93v-3h64v-118h-117v111c0 80 21 118 90 147z"/>
    <glyph glyph-name="quoteright" unicode="’" horiz-adv-x="257" d="M97 452l-23 44c50 22 60 44 60 93v3h-64v118h117v-111c0 -80 -21 -118 -90 -147z"/>
    <glyph glyph-name="quotedblleft" unicode="“" horiz-adv-x="421" d="M160 723l23 -44c-50 -22 -60 -44 -60 -93v-3h64v-118h-117v111c0 80 21 118 90 147zM324 723l23 -44c-50 -22 -60 -44 -60 -93v-3h64v-118h-117v111c0 80 21 118 90 147z"/>
    <glyph glyph-name="quotedblright" unicode="”" horiz-adv-x="421" d="M97 452l-23 44c50 22 60 44 60 93v3h-64v118h117v-111c0 -80 -21 -118 -90 -147zM261 452l-23 44c50 22 60 44 60 93v3h-64v118h117v-111c0 -80 -21 -118 -90 -147z"/>
    <glyph glyph-name="quotesinglbase" unicode="‚" horiz-adv-x="257" d="M97 -140l-23 44c50 22 60 44 60 93v3h-64v118h117v-111c0 -80 -21 -118 -90 -147z"/>
    <glyph glyph-name="quotedblbase" unicode="„" horiz-adv-x="421" d="M97 -140l-23 44c50 22 60 44 60 93v3h-64v118h117v-111c0 -80 -21 -118 -90 -147zM261 -140l-23 44c50 22 60 44 60 93v3h-64v118h117v-111c0 -80 -21 -118 -90 -147z"/>
    <glyph glyph-name="guilsinglleft" unicode="‹" horiz-adv-x="311" d="M201 67l-171 208l171 208h90l-165 -208l165 -208h-90z"/>
    <glyph glyph-name="guilsinglright" unicode="›" horiz-adv-x="311" d="M110 67h-90l165 208l-165 208h90l171 -208z"/>
    <glyph glyph-name="periodcentered" unicode="·" horiz-adv-x="257" d="M187 399v-118h-117v118h117z"/>
    <glyph glyph-name="slash" unicode="/" horiz-adv-x="451" d="M124 -117h-79l282 877h79z"/>
    <glyph glyph-name="bar" unicode="|" horiz-adv-x="262" d="M95 -117v877h72v-877h-72z"/>
    <glyph glyph-name="endash" unicode="–" horiz-adv-x="512" d="M50 310h412v-64h-412v64z"/>
    <glyph glyph-name="emdash" unicode="—" horiz-adv-x="795" d="M50 310h695v-64h-695v64z"/>
    <glyph glyph-name="bullet" unicode="•" horiz-adv-x="329" d="M164 253c-54 0 -94 37 -94 92c0 57 40 95 94 95c55 0 95 -37 95 -95c0 -55 -40 -92 -95 -92z"/>
    <glyph glyph-name="parenleft" unicode="(" horiz-adv-x="306" d="M234 -140c-107 128 -174 297 -174 469s69 335 176 453l60 -36c-105 -137 -150 -263 -150 -420s45 -287 150 -428z"/>
    <glyph glyph-name="parenright" unicode=")" horiz-adv-x="306" d="M72 -140l-62 38c105 141 150 271 150 428s-45 283 -150 420l60 36c107 -118 176 -281 176 -453s-67 -341 -174 -469z"/>
    <glyph glyph-name="bracketleft" unicode="[" horiz-adv-x="333" d="M100 -114v871h193v-70h-117v-731h117v-70h-193z"/>
    <glyph glyph-name="bracketright" unicode="]" horiz-adv-x="333" d="M233 -114h-193v70h117v731h-117v70h193v-871z"/>
    <glyph glyph-name="braceleft" unicode="{" horiz-adv-x="354" d="M269 -116c-86 0 -139 58 -139 141v160c0 62 -4 108 -70 110v68c66 2 69 40 69 106v160c0 82 57 142 156 142h26v-61h-16c-58 0 -86 -39 -86 -92v-139c0 -68 -12 -128 -72 -149c60 -25 71 -90 71 -156v-138c0 -55 29 -91 81 -91h25v-61h-45z"/>
    <glyph glyph-name="braceright" unicode="}" horiz-adv-x="354" d="M85 -116h-45v61h25c52 0 81 36 81 91v138c0 66 11 131 71 156c-60 21 -72 81 -72 149v139c0 53 -28 92 -86 92h-16v61h26c99 0 156 -60 156 -142v-160c0 -66 3 -104 69 -106v-68c-66 -2 -70 -48 -70 -110v-160c0 -83 -53 -141 -139 -141z"/>
    <glyph glyph-name="guillemotleft" unicode="«" horiz-adv-x="503" d="M201 67l-171 208l171 208h90l-165 -208l165 -208h-90zM393 67l-171 208l171 208h90l-165 -208l165 -208h-90z"/>
    <glyph glyph-name="guillemotright" unicode="»" horiz-adv-x="503" d="M110 67h-90l165 208l-165 208h90l171 -208zM302 67h-90l165 208l-165 208h90l171 -208z"/>
    <glyph glyph-name="zero" unicode="0" horiz-adv-x="636" d="M318 -15c-176 0 -268 140 -268 362c0 223 92 363 268 363s268 -140 268 -363c0 -222 -92 -362 -268 -362zM318 60c120 0 178 111 178 287c0 177 -58 288 -178 288s-178 -111 -178 -288c0 -176 58 -287 178 -287z"/>
    <glyph glyph-name="one" unicode="1" horiz-adv-x="399" d="M189 0v545c-21 -29 -75 -44 -113 -44h-36v81h22c67 0 124 40 141 113h76v-695h-90z"/>
    <glyph glyph-name="two" unicode="2" horiz-adv-x="541" d="M35 0v74c57 42 147 114 236 199c88 85 118 143 118 226c0 85 -47 133 -127 133c-81 0 -130 -49 -130 -125c0 -18 3 -39 8 -64l-90 9c-5 20 -7 38 -7 56c0 123 84 202 224 202c135 0 216 -75 216 -210c0 -98 -49 -183 -156 -282c-54 -50 -103 -90 -171 -137h335v-81h-456z "/>
    <glyph glyph-name="three" unicode="3" horiz-adv-x="567" d="M281 -15c-145 0 -242 83 -246 213l88 11c4 -94 65 -149 161 -149c94 0 143 47 143 135c0 83 -52 129 -156 129h-39v74h35c93 0 136 46 136 120s-48 117 -130 117c-90 0 -141 -56 -141 -159l-84 18c0 134 88 216 230 216c136 0 215 -69 215 -182c0 -80 -48 -141 -126 -160 c97 -17 150 -72 150 -171c0 -133 -91 -212 -236 -212z"/>
    <glyph glyph-name="four" unicode="4" horiz-adv-x="585" d="M550 176h-114v-176h-85v176h-326v61l311 458h100v-449h114v-70zM351 501c0 56 0 70 2 106h-2c-13 -33 -26 -55 -50 -91l-119 -179c-27 -41 -44 -65 -66 -91h235v255z"/>
    <glyph glyph-name="five" unicode="5" horiz-adv-x="565" d="M279 -15c-123 0 -211 72 -229 185l93 11c14 -69 60 -119 141 -119c92 0 146 62 146 164c0 104 -48 173 -144 173c-74 0 -120 -43 -139 -116l-86 9l41 403h384v-78h-316l-26 -236c33 61 89 93 164 93c132 0 212 -93 212 -243c0 -146 -94 -246 -241 -246z"/>
    <glyph glyph-name="six" unicode="6" horiz-adv-x="569" d="M314 464c130 0 215 -93 215 -237s-92 -242 -229 -242c-165 0 -250 118 -250 347c0 243 93 378 259 378c116 0 191 -61 212 -172l-90 -20c-16 79 -56 117 -123 117c-109 0 -166 -92 -170 -272c32 64 96 101 176 101zM301 60c84 0 138 65 138 166c0 100 -55 163 -142 163 c-77 0 -132 -51 -156 -141c10 -115 72 -188 160 -188z"/>
    <glyph glyph-name="seven" unicode="7" horiz-adv-x="490" d="M130 0v10c0 207 89 410 243 602h-348v83h450v-70c-165 -184 -246 -402 -246 -608v-17h-99z"/>
    <glyph glyph-name="eight" unicode="8" horiz-adv-x="578" d="M392 373c103 -38 146 -94 146 -187c0 -121 -97 -201 -246 -201c-152 0 -252 77 -252 195c0 95 49 157 141 185c-80 36 -115 87 -115 166c0 107 90 179 224 179c135 0 222 -69 222 -177c0 -80 -42 -135 -120 -160zM287 642c-81 0 -131 -42 -131 -111 c0 -60 35 -96 118 -121l35 -11c84 32 113 67 113 130c0 71 -50 113 -135 113zM292 57c98 0 156 48 156 129c0 64 -37 103 -123 131l-66 21c-92 -32 -128 -74 -128 -145c0 -82 64 -136 161 -136z"/>
    <glyph glyph-name="nine" unicode="9" horiz-adv-x="571" d="M272 710c169 0 249 -120 249 -349c0 -212 -69 -376 -247 -376c-127 0 -204 65 -226 182l90 20c14 -76 51 -127 137 -127c112 0 154 114 156 288c-35 -60 -95 -89 -168 -89c-127 0 -223 77 -223 223c0 131 91 228 232 228zM272 334c75 0 141 57 157 131 c-9 83 -47 170 -158 170c-85 0 -141 -61 -141 -152c0 -93 59 -149 142 -149z"/>
    <glyph glyph-name="zero.zero" horiz-adv-x="636" d="M318 710c176 0 268 -140 268 -363c0 -222 -92 -362 -268 -362s-268 140 -268 362c0 223 92 363 268 363zM318 635c-120 0 -178 -111 -178 -288c0 -56 6 -105 17 -146l290 364c-29 45 -72 70 -129 70zM318 60c120 0 178 111 178 287c0 56 -6 105 -18 147l-289 -364 c29 -45 72 -70 129 -70z"/>
    <glyph glyph-name="asterisk" unicode="*" horiz-adv-x="327" d="M307 595l-106 -21l75 -78l-60 -45l-52 97l-53 -97l-60 45l75 78l-106 21l24 71l97 -48l-15 107h75l-15 -107l97 48z"/>
    <glyph glyph-name="asciitilde" unicode="~" d="M407 237c-93 0 -133 79 -195 79c-39 0 -63 -23 -76 -68l-70 12c19 82 73 129 147 129c93 0 133 -79 195 -79c39 0 63 23 76 68l70 -12c-19 -82 -73 -129 -147 -129z"/>
    <glyph glyph-name="brokenbar" unicode="¦" horiz-adv-x="261" d="M166 760v-378h-71v378h71zM166 261v-378h-71v378h71z"/>
    <glyph glyph-name="backslash" unicode="\" horiz-adv-x="451" d="M327 -117l-282 877h79l282 -877h-79z"/>
    <glyph glyph-name="underscore" unicode="_" horiz-adv-x="427" d="M0 -97h427v-60h-427v60z"/>
    <glyph glyph-name="quotesingle" unicode="'" horiz-adv-x="235" d="M88 447l-18 263h95l-18 -263h-59z"/>
    <glyph glyph-name="quotedbl" unicode="&quot;" horiz-adv-x="404" d="M88 447l-18 263h95l-18 -263h-59zM257 447l-18 263h95l-18 -263h-59z"/>
    <glyph glyph-name="ampersand" unicode="&amp;" horiz-adv-x="644" d="M591 75c18 0 30 1 38 3v-77c-13 -2 -21 -4 -43 -4c-52 0 -98 19 -135 57c-52 -45 -117 -71 -189 -71c-143 0 -237 75 -237 191c0 81 36 135 132 196l13 8c-62 75 -90 134 -90 188c0 103 70 171 177 171s174 -62 174 -161c0 -66 -36 -130 -93 -169l-54 -36l170 -196 c30 54 49 125 53 209l77 -11c-3 -102 -31 -190 -78 -257c26 -27 54 -41 85 -41zM169 571c0 -45 17 -84 71 -149l39 25c44 27 67 70 67 126c0 60 -32 94 -89 94s-87 -33 -88 -96zM115 180c0 -69 66 -121 153 -121c52 0 97 18 134 51l-185 215l-7 -5c-75 -51 -95 -79 -95 -140 z"/>
    <glyph glyph-name="at" unicode="@" horiz-adv-x="828" d="M424 -102c-229 0 -379 150 -379 378c0 222 144 384 382 384c228 0 356 -149 356 -364c0 -136 -60 -224 -153 -224c-54 0 -91 27 -106 77c-25 -51 -79 -83 -139 -83c-84 0 -144 49 -144 118c0 73 52 113 168 130l107 15v7c0 74 -22 100 -87 100c-58 0 -90 -26 -95 -76h-77 c6 84 74 138 174 138c110 0 156 -50 156 -171v-112c0 -61 14 -86 50 -86c47 0 78 65 78 165c0 186 -94 307 -285 307c-203 0 -315 -133 -315 -325c0 -190 127 -317 317 -317c64 0 130 14 186 39l28 -53c-64 -32 -134 -47 -222 -47zM395 127c72 0 121 51 121 126v22l-90 -13 c-76 -11 -105 -32 -105 -76c0 -34 31 -59 74 -59z"/>
    <glyph glyph-name="copyright" unicode="©" horiz-adv-x="836" d="M418 -17c-202 0 -373 143 -373 372c0 230 171 372 373 372s373 -142 373 -372c0 -229 -171 -372 -373 -372zM418 30c174 0 321 124 321 325c0 202 -147 325 -321 325s-321 -123 -321 -325c0 -201 147 -325 321 -325zM420 142c-115 0 -187 82 -187 212 c0 129 71 214 187 214c91 0 155 -56 159 -135l-69 -8c-6 49 -37 83 -92 83c-72 0 -115 -61 -115 -154c0 -92 44 -152 117 -152c50 0 85 34 92 82l69 -10c-13 -80 -78 -132 -161 -132z"/>
    <glyph glyph-name="registered" unicode="®" horiz-adv-x="836" d="M418 727c202 0 373 -142 373 -372c0 -229 -171 -372 -373 -372s-373 143 -373 372c0 230 171 372 373 372zM418 30c174 0 321 124 321 325c0 202 -147 325 -321 325s-321 -123 -321 -325c0 -201 147 -325 321 -325zM569 445c0 -54 -32 -95 -86 -113l102 -176h-76l-92 171 h-65v-171h-66v406h142c91 0 141 -42 141 -117zM352 506v-122h76c49 0 76 22 76 61c0 41 -25 61 -76 61h-76z"/>
    <glyph glyph-name="trademark" unicode="™" horiz-adv-x="858" d="M128 304v350h-123v56h321v-56h-132v-350h-66zM369 304v406h94l107 -299c8 -23 12 -39 13 -51h2c1 12 5 28 13 51l105 299h95v-406h-62v289c0 27 0 41 2 67h-1c-7 -27 -11 -36 -21 -65l-103 -291h-60l-101 291c-10 29 -14 38 -21 65h-1c2 -26 2 -40 2 -67v-289h-63z"/>
    <glyph glyph-name="paragraph" unicode="¶" horiz-adv-x="657" d="M276 361c-117 0 -231 36 -231 178c0 136 114 181 236 181h316v-57h-99v-763h-65v763h-92v-763h-65v461z"/>
    <glyph glyph-name="section" unicode="§" horiz-adv-x="502" d="M462 281c0 -45 -19 -84 -53 -111c22 -26 33 -57 33 -93c0 -99 -75 -158 -199 -158c-122 0 -198 56 -213 157l78 15c14 -66 62 -101 140 -101c70 0 109 29 109 81c0 41 -20 62 -82 87l-112 45c-91 37 -129 82 -129 153c0 45 20 80 59 103c-29 27 -42 60 -42 102 c0 93 76 154 192 154c109 0 182 -54 195 -145l-84 -20c-7 63 -47 96 -115 96c-64 0 -104 -29 -104 -76c0 -46 20 -65 103 -97l105 -40c81 -31 119 -79 119 -152zM250 256l72 -29c14 -6 27 -12 39 -19c13 18 19 36 19 57c0 51 -25 74 -119 112l-96 39c-8 3 -16 7 -24 11 c-15 -15 -24 -35 -24 -57c0 -51 20 -68 133 -114z"/>
    <glyph glyph-name="asciicircum" unicode="^" horiz-adv-x="400" d="M164 709h72l144 -262h-82l-98 190l-98 -190h-82z"/>
    <glyph glyph-name="dagger" unicode="†" horiz-adv-x="488" d="M286 430v-530h-85v530h-131v70h131v220h85v-220h132v-70h-132z"/>
    <glyph glyph-name="daggerdbl" unicode="‡" horiz-adv-x="488" d="M418 430h-132v-246h131v-70h-131v-214h-85v214h-130v70h130v246h-131v70h131v220h85v-220h132v-70z"/>
    <glyph glyph-name="emptyset" unicode="∅" horiz-adv-x="548" d="M503 513l-56 -60c32 -39 49 -90 49 -149c0 -132 -88 -226 -222 -226c-53 0 -98 15 -134 41l-55 -60l-40 36l56 61c-31 38 -49 89 -49 148c0 132 89 226 222 226c53 0 98 -15 134 -40l55 59zM130 304c0 -35 8 -66 24 -91l204 221c-23 16 -51 25 -84 25 c-87 0 -144 -64 -144 -155zM418 304c0 35 -8 66 -24 91l-203 -221c22 -16 51 -25 83 -25c88 0 144 64 144 155z"/>
    <glyph glyph-name="uni2126" unicode="Ω" horiz-adv-x="636" d="M581 0h-214l-15 225c104 19 163 97 163 214c0 129 -75 209 -197 209s-197 -80 -197 -209c0 -117 59 -195 163 -214l-15 -225h-214v79h144l8 97c-107 36 -172 136 -172 265c0 168 114 281 283 281s283 -113 283 -281c0 -129 -65 -229 -172 -265l8 -97h144v-79z"/>
    <glyph glyph-name="uni2206" unicode="∆" horiz-adv-x="590" d="M8 0l239 710h99l236 -710h-574zM295 610l-177 -535h349z"/>
    <glyph glyph-name="uni00B5" unicode="µ" horiz-adv-x="586" d="M411 500h85v-500h-80v94c-23 -61 -85 -106 -155 -106c-40 0 -71 8 -96 21v-204h-75v695h85v-309c0 -84 36 -130 102 -130c80 0 134 68 134 170v269z"/>
    <glyph glyph-name="uniF8FF" unicode="" horiz-adv-x="1018" d="M998 663h-552v-47h552v-48h-552v-47h552v-48h-552v-47h552v-47h-552v-48h552v-47h-978v426h978v-47zM67 667l13 9h-16l-5 15l-4 -15h-16l13 -9l-5 -15l12 9l13 -9zM142 676h-16l13 -9l-5 -15l12 10l13 -10l-5 15l12 9h-15l-5 15zM229 676h-16l13 -9l-5 -15l12 10l13 -10 l-5 15l12 9h-15l-5 15zM315 676h-15l13 -9l-5 -15l12 10l13 -10l-5 15l12 9h-15l-5 15zM415 667l12 9h-15l-5 15l-5 -15h-15l12 -9l-4 -15l12 10l13 -10zM98 632h-15l12 -9l-4 -14l12 9l12 -9l-4 14l12 9h-15l-5 15zM371 623l13 9h-16l-4 15l-5 -15h-15l12 -9l-5 -14l13 9 l12 -9zM273 364v93h94v80h-94v94h-80v-94h-93v-80h93v-93h80zM67 580l13 9h-16l-5 14l-4 -14h-16l13 -9l-5 -15l12 9l13 -9zM142 589h-16l13 -9l-5 -15l12 9l13 -9l-5 15l12 9h-15l-5 14zM315 589h-15l13 -9l-5 -15l12 9l13 -9l-5 15l12 9h-15l-5 14zM415 580l12 9h-15 l-5 14l-5 -14h-15l12 -9l-4 -15l12 9l13 -9zM67 492l13 10h-16l-5 14l-4 -14h-16l13 -10l-5 -14l12 9l13 -9zM415 492l12 10h-15l-5 14l-5 -14h-15l12 -10l-4 -14l12 9l13 -9zM67 405l13 9h-16l-5 15l-4 -15h-16l13 -9l-5 -14l12 9l13 -9zM154 405l12 9h-15l-5 15l-4 -15 h-16l13 -9l-5 -14l12 9l13 -9zM328 405l12 9h-15l-5 15l-5 -15h-15l13 -9l-5 -14l12 9l13 -9zM415 405l12 9h-15l-5 15l-5 -15h-15l12 -9l-4 -14l12 9l13 -9zM115 347l-4 15l12 9h-15l-5 14l-5 -14h-15l12 -9l-4 -15l12 9zM376 347l-5 15l13 9h-16l-4 14l-5 -14h-15l12 -9 l-5 -15l13 9zM72 303l-5 15l13 9h-16l-5 15l-4 -15h-16l13 -9l-5 -15l12 9zM159 303l-5 15l12 9h-15l-5 15l-4 -15h-16l13 -9l-5 -15l12 9zM246 303l-5 15l12 9h-15l-5 15l-4 -15h-16l13 -9l-5 -15l12 9zM333 303l-5 15l12 9h-15l-5 15l-5 -15h-15l13 -9l-5 -15l12 9z M420 303l-5 15l12 9h-15l-5 15l-5 -15h-15l12 -9l-4 -15l12 9zM20 189v48h977v-48h-977zM20 95v47h978v-47h-978zM20 0v47h978v-47h-978z"/>
    <glyph glyph-name="uni2113" unicode="ℓ" horiz-adv-x="389" d="M175 153c0 -57 22 -82 73 -82c22 0 35 3 52 7v-78c-22 -6 -42 -9 -74 -9c-108 0 -136 66 -136 159v70c-28 -14 -57 -27 -88 -40l-29 64c40 17 80 34 117 55v279c0 110 64 149 127 149c86 0 127 -63 127 -154c0 -134 -63 -229 -169 -303v-117zM175 594v-236 c51 48 84 111 84 203c0 77 -16 98 -44 98c-25 0 -40 -22 -40 -65z"/>
    <glyph glyph-name="estimated" unicode="℮" horiz-adv-x="754" d="M709 352h-516v-231c57 -57 136 -73 198 -73c112 0 188 37 253 130l45 -35c-71 -112 -173 -158 -298 -158c-182 0 -346 108 -346 366c0 242 159 364 340 364c198 0 324 -129 324 -323v-40zM380 660c-56 0 -131 -17 -187 -75v-174h378v175c-53 60 -132 74 -191 74z"/>
    <glyph glyph-name="dollar" unicode="$" horiz-adv-x="609" d="M569 183c0 -109 -88 -188 -231 -197v-93h-60v93c-129 9 -222 77 -248 203l92 18c28 -90 80 -132 156 -142v261l-17 4c-139 30 -198 90 -198 198c0 100 86 172 215 181v91h60v-91c114 -10 193 -72 216 -178l-91 -26c-18 70 -57 114 -125 126v-228l9 -2 c151 -32 222 -92 222 -218zM157 528c0 -57 33 -90 121 -112v218c-73 -5 -121 -40 -121 -106zM338 64c85 6 137 47 137 119s-38 105 -137 130v-249z"/>
    <glyph glyph-name="cent" unicode="¢" horiz-adv-x="549" d="M312 60c63 7 103 46 112 108l79 -15c-19 -97 -87 -156 -191 -164v-78h-60v79c-129 14 -207 111 -207 261c0 151 75 244 207 259v84h60v-83c108 -7 180 -71 192 -170l-82 -11c-11 64 -48 101 -110 109v-379zM131 252c0 -108 44 -176 121 -191v377 c-77 -14 -121 -81 -121 -186z"/>
    <glyph glyph-name="sterling" unicode="£" horiz-adv-x="607" d="M517 171l80 -16c-15 -106 -81 -170 -177 -170c-89 0 -127 26 -228 26c-47 0 -102 -7 -153 -19l-19 63c95 32 142 93 142 186c0 35 -3 64 -7 91h-110v63h97c-7 34 -13 66 -13 106c0 127 79 209 212 209c110 0 181 -52 206 -151l-88 -22c-16 65 -55 98 -119 98 c-79 0 -116 -47 -116 -131c0 -40 6 -75 13 -109h191v-63h-180c4 -22 6 -46 6 -73c0 -87 -31 -143 -100 -180c20 5 41 7 74 7c73 0 118 -17 191 -17c54 0 90 37 98 102z"/>
    <glyph glyph-name="florin" unicode="ƒ" horiz-adv-x="418" d="M355 629c-75 0 -84 -44 -94 -109l-12 -92h126v-66h-135l-68 -512h-86l68 512h-114v66h123l9 70c17 120 35 206 180 206c28 0 38 -2 57 -6l-1 -74c-21 4 -36 5 -53 5z"/>
    <glyph glyph-name="yen" unicode="¥" horiz-adv-x="525" d="M525 695l-213 -354h171v-60h-175v-48h175v-60h-175v-173h-91v173h-175v60h175v48h-175v60h171l-213 354h101l112 -195c18 -31 33 -57 48 -95h3c15 38 30 64 48 95l112 195h101z"/>
    <glyph glyph-name="Euro" unicode="€" horiz-adv-x="647" d="M559 171l68 -47c-51 -85 -137 -139 -256 -139c-174 0 -270 114 -298 273h-58v60h51c-1 14 -1 28 -1 42c0 11 0 22 1 33h-51v60h57c27 160 129 257 300 257c120 0 193 -42 249 -128l-72 -51c-39 60 -92 100 -184 100c-110 0 -177 -67 -200 -178h346v-60h-353 c-1 -10 -1 -21 -1 -32c0 -15 1 -29 2 -43h352v-60h-343c25 -117 97 -194 206 -194c73 0 138 35 185 107z"/>
    <glyph glyph-name="currency" unicode="¤" horiz-adv-x="548" d="M499 303c0 -59 -18 -110 -49 -148l53 -59l-40 -36l-53 57c-36 -25 -81 -40 -132 -40c-53 0 -100 16 -137 43l-56 -61l-40 36l58 63c-30 39 -47 88 -47 145s17 107 47 146l-58 63l40 36l58 -61c36 27 83 42 135 42c50 0 94 -14 130 -39l55 59l40 -36l-55 -60 c32 -39 51 -91 51 -150zM278 148c84 0 143 64 143 155s-59 155 -143 155s-144 -64 -144 -155s60 -155 144 -155z"/>
    <glyph glyph-name="fraction" unicode="⁄" horiz-adv-x="185" d="M-160 -17l431 744h74l-430 -744h-75z"/>
    <glyph glyph-name="onequarter" unicode="¼" horiz-adv-x="778" d="M106 -17l431 744h74l-430 -744h-75zM119 330v284c-18 -21 -48 -35 -81 -35h-11v65h8c50 0 82 23 97 67h57v-381h-70zM748 89h-62v-89h-69v89h-194v51l187 241h76v-240h62v-52zM617 315l-135 -174h135v174z"/>
    <glyph glyph-name="onehalf" unicode="½" horiz-adv-x="816" d="M106 -17l431 744h74l-430 -744h-75zM119 330v284c-18 -21 -48 -35 -81 -35h-11v65h8c50 0 82 23 97 67h57v-381h-70zM484 0v52c118 71 216 132 216 214c0 44 -24 68 -68 68c-47 0 -74 -24 -74 -68c0 -9 2 -18 5 -29l-74 6c-2 9 -3 21 -3 31c0 72 56 116 149 116 c88 0 140 -43 140 -117c0 -93 -102 -172 -194 -219h202v-54h-299z"/>
    <glyph glyph-name="threequarters" unicode="¾" horiz-adv-x="882" d="M210 -17l431 744h74l-430 -744h-75zM183 322c-94 0 -151 47 -152 123l72 6c1 -47 31 -75 80 -75c50 0 77 22 77 65c0 36 -28 56 -80 56h-38v51h35c45 0 74 23 74 57c0 40 -25 62 -70 62c-47 0 -77 -28 -77 -75l-71 6c0 75 58 122 152 122c88 0 139 -40 139 -107 c0 -44 -34 -80 -84 -86c58 -6 96 -41 96 -93c0 -70 -59 -112 -153 -112zM852 89h-62v-89h-69v89h-194v51l187 241h76v-240h62v-52zM721 315l-135 -174h135v174z"/>
    <glyph glyph-name="uni2153" unicode="⅓" horiz-adv-x="821" d="M106 -17l431 744h74l-430 -744h-75zM119 330v284c-18 -21 -48 -35 -81 -35h-11v65h8c50 0 82 23 97 67h57v-381h-70zM634 -8c-94 0 -151 47 -152 123l72 6c1 -47 31 -75 80 -75c50 0 77 22 77 65c0 36 -28 56 -80 56h-38v51h35c45 0 74 23 74 57c0 40 -25 62 -70 62 c-47 0 -77 -28 -77 -75l-71 6c0 75 58 122 152 122c88 0 139 -40 139 -107c0 -44 -34 -80 -84 -86c58 -6 96 -41 96 -93c0 -70 -59 -112 -153 -112z"/>
    <glyph glyph-name="uni2154" unicode="⅔" horiz-adv-x="920" d="M205 -17l431 744h74l-430 -744h-75zM33 330v52c118 71 216 132 216 214c0 44 -24 68 -68 68c-47 0 -74 -24 -74 -68c0 -9 2 -18 5 -29l-74 6c-2 9 -3 21 -3 31c0 72 56 116 149 116c88 0 140 -43 140 -117c0 -93 -102 -172 -194 -219h202v-54h-299zM733 -8 c-94 0 -151 47 -152 123l72 6c1 -47 31 -75 80 -75c50 0 77 22 77 65c0 36 -28 56 -80 56h-38v51h35c45 0 74 23 74 57c0 40 -25 62 -70 62c-47 0 -77 -28 -77 -75l-71 6c0 75 58 122 152 122c88 0 139 -40 139 -107c0 -44 -34 -80 -84 -86c58 -6 96 -41 96 -93 c0 -70 -59 -112 -153 -112z"/>
    <glyph glyph-name="oneeighth" unicode="⅛" horiz-adv-x="829" d="M537 727h74l-430 -744h-75zM119 614c-18 -21 -48 -35 -81 -35h-11v65h8c50 0 82 23 97 67h57v-381h-70v284zM704 209c58 -16 94 -46 94 -107c0 -68 -61 -110 -160 -110c-98 0 -156 40 -156 105c0 48 27 77 89 93c-50 17 -79 45 -79 96c0 62 58 104 143 104 c87 0 146 -35 146 -95c0 -44 -23 -69 -77 -86zM636 342c-46 0 -77 -21 -77 -56s27 -51 74 -61l27 -6c40 14 54 31 54 63c0 37 -29 60 -78 60zM640 43c53 0 86 23 86 61c0 41 -32 58 -79 68l-29 7c-44 -15 -64 -38 -64 -72c0 -40 31 -64 86 -64z"/>
    <glyph glyph-name="threeeighths" unicode="⅜" horiz-adv-x="933" d="M641 727h74l-430 -744h-75zM336 434c0 -70 -59 -112 -153 -112s-151 47 -152 123l72 6c1 -47 31 -75 80 -75c50 0 77 22 77 65c0 36 -28 56 -80 56h-38v51h35c45 0 74 23 74 57c0 40 -25 62 -70 62c-47 0 -77 -28 -77 -75l-71 6c0 75 58 122 152 122 c88 0 139 -40 139 -107c0 -44 -34 -80 -84 -86c58 -6 96 -41 96 -93zM808 209c58 -16 94 -46 94 -107c0 -68 -61 -110 -160 -110c-98 0 -156 40 -156 105c0 48 27 77 89 93c-50 17 -79 45 -79 96c0 62 58 104 143 104c87 0 146 -35 146 -95c0 -44 -23 -69 -77 -86zM740 342 c-46 0 -77 -21 -77 -56s27 -51 74 -61l27 -6c40 14 54 31 54 63c0 37 -29 60 -78 60zM744 43c53 0 86 23 86 61c0 41 -32 58 -79 68l-29 7c-44 -15 -64 -38 -64 -72c0 -40 31 -64 86 -64z"/>
    <glyph glyph-name="fiveeighths" unicode="⅝" horiz-adv-x="929" d="M637 727h74l-430 -744h-75zM332 461c0 -87 -57 -139 -150 -139c-82 0 -138 39 -149 103l68 11c7 -38 37 -60 78 -60c52 0 83 32 83 83c0 50 -30 81 -78 81c-38 0 -71 -23 -80 -56l-62 5l25 222h245v-55h-195l-13 -115c19 31 53 48 101 48c79 0 127 -49 127 -128zM804 209 c58 -16 94 -46 94 -107c0 -68 -61 -110 -160 -110c-98 0 -156 40 -156 105c0 48 27 77 89 93c-50 17 -79 45 -79 96c0 62 58 104 143 104c87 0 146 -35 146 -95c0 -44 -23 -69 -77 -86zM736 342c-46 0 -77 -21 -77 -56s27 -51 74 -61l27 -6c40 14 54 31 54 63 c0 37 -29 60 -78 60zM740 43c53 0 86 23 86 61c0 41 -32 58 -79 68l-29 7c-44 -15 -64 -38 -64 -72c0 -40 31 -64 86 -64z"/>
    <glyph glyph-name="seveneighths" unicode="⅞" horiz-adv-x="851" d="M559 727h74l-430 -744h-75zM95 335c3 127 61 237 152 319h-217v57h286v-56c-85 -79 -141 -174 -143 -314v-11h-78v5zM726 209c58 -16 94 -46 94 -107c0 -68 -61 -110 -160 -110c-98 0 -156 40 -156 105c0 48 27 77 89 93c-50 17 -79 45 -79 96c0 62 58 104 143 104 c87 0 146 -35 146 -95c0 -44 -23 -69 -77 -86zM658 342c-46 0 -77 -21 -77 -56s27 -51 74 -61l27 -6c40 14 54 31 54 63c0 37 -29 60 -78 60zM662 43c53 0 86 23 86 61c0 41 -32 58 -79 68l-29 7c-44 -15 -64 -38 -64 -72c0 -40 31 -64 86 -64z"/>
    <glyph glyph-name="percent" unicode="%" horiz-adv-x="777" d="M191 359c-103 0 -171 70 -171 182c0 108 68 179 170 179c100 0 170 -72 170 -182c0 -109 -70 -179 -169 -179zM127 -15l437 725h83l-437 -725h-83zM191 423c57 0 95 43 95 115c0 73 -38 118 -96 118c-59 0 -98 -44 -98 -115c0 -75 39 -118 99 -118zM588 -16 c-103 0 -171 70 -171 182c0 108 68 179 170 179c100 0 170 -72 170 -182c0 -109 -70 -179 -169 -179zM588 48c57 0 95 43 95 115c0 73 -38 118 -96 118c-59 0 -98 -44 -98 -115c0 -75 39 -118 99 -118z"/>
    <glyph glyph-name="perthousand" unicode="‰" horiz-adv-x="1147" d="M191 359c-103 0 -171 70 -171 182c0 108 68 179 170 179c100 0 170 -72 170 -182c0 -109 -70 -179 -169 -179zM127 -15l437 725h83l-437 -725h-83zM191 423c57 0 95 43 95 115c0 73 -38 118 -96 118c-59 0 -98 -44 -98 -115c0 -75 39 -118 99 -118zM588 -16 c-103 0 -171 70 -171 182c0 108 68 179 170 179c100 0 170 -72 170 -182c0 -109 -70 -179 -169 -179zM958 -16c-103 0 -171 70 -171 182c0 108 68 179 170 179c100 0 170 -72 170 -182c0 -109 -70 -179 -169 -179zM588 48c57 0 95 43 95 115c0 73 -38 118 -96 118 c-59 0 -98 -44 -98 -115c0 -75 39 -118 99 -118zM958 48c57 0 95 43 95 115c0 73 -38 118 -96 118c-59 0 -98 -44 -98 -115c0 -75 39 -118 99 -118z"/>
    <glyph glyph-name="uni03BC" unicode="μ" horiz-adv-x="586" d="M411 500h85v-500h-80v94c-23 -61 -85 -106 -155 -106c-40 0 -71 8 -96 21v-204h-75v695h85v-309c0 -84 36 -130 102 -130c80 0 134 68 134 170v269z"/>
    <glyph glyph-name="numbersign" unicode="#" horiz-adv-x="560" d="M550 422h-115l-27 -149h108v-69h-121l-38 -204h-79l38 204h-127l-38 -204h-79l38 204h-100v69h113l27 149h-100v69h113l38 204h79l-38 -204h127l38 204h79l-38 -204h102v-69zM329 273l27 149h-127l-27 -149h127z"/>
    <glyph glyph-name="uni2116" unicode="№" horiz-adv-x="1199" d="M100 0v710h115l301 -517c20 -35 33 -61 44 -91h2c-2 25 -3 51 -3 94v514h85v-710h-115l-301 517c-20 35 -33 59 -44 91h-2c2 -25 3 -51 3 -94v-514h-85zM934 174c-129 0 -215 93 -215 231s86 230 215 230s215 -92 215 -230s-86 -231 -215 -231zM934 249 c79 0 127 59 127 156c0 96 -48 155 -127 155s-127 -59 -127 -155c0 -97 48 -156 127 -156zM719 0v78h430v-78h-430z"/>
    <glyph glyph-name="uni0394" unicode="Δ" horiz-adv-x="590" d="M8 0l239 710h99l236 -710h-574zM295 610l-177 -535h349z"/>
    <glyph glyph-name="uni03A9" unicode="Ω" horiz-adv-x="636" d="M581 0h-214l-15 225c104 19 163 97 163 214c0 129 -75 209 -197 209s-197 -80 -197 -209c0 -117 59 -195 163 -214l-15 -225h-214v79h144l8 97c-107 36 -172 136 -172 265c0 168 114 281 283 281s283 -113 283 -281c0 -129 -65 -229 -172 -265l8 -97h144v-79z"/>
    <glyph glyph-name="pi" unicode="π" horiz-adv-x="590" d="M549 -1c-7 -2 -27 -6 -45 -6c-101 0 -121 63 -121 130v309h-175v-432h-85v432h-83v68h510v-68h-82v-307c0 -40 17 -55 48 -55c15 0 26 2 33 3v-74z"/>
    <glyph glyph-name="plus" unicode="+" horiz-adv-x="570" d="M520 366v-73h-193v-202h-85v202h-192v73h192v190h85v-190h193z"/>
    <glyph glyph-name="minus" unicode="−" horiz-adv-x="570" d="M50 288v80h470v-80h-470z"/>
    <glyph glyph-name="plusminus" unicode="±" d="M351 365h194v-73h-194v-160h-85v160h-191v73h191v161h85v-161zM75 0v80h470v-80h-470z"/>
    <glyph glyph-name="multiply" unicode="×" d="M553 513l-186 -186l186 -185l-57 -58l-186 186l-186 -186l-57 57l186 186l-186 186l57 57l186 -185l185 185z"/>
    <glyph glyph-name="divide" unicode="÷" horiz-adv-x="570" d="M283 462c-30 0 -52 21 -52 52s22 52 52 52s52 -20 52 -52c0 -31 -22 -52 -52 -52zM50 288v76h470v-76h-470zM283 86c-30 0 -52 21 -52 52s22 52 52 52s52 -20 52 -52c0 -31 -22 -52 -52 -52z"/>
    <glyph glyph-name="equal" unicode="=" horiz-adv-x="570" d="M50 384v80h470v-80h-470zM50 194v80h470v-80h-470z"/>
    <glyph glyph-name="less" unicode="&lt;" d="M522 85l-465 205v72l465 205v-79l-371 -161l371 -161v-81z"/>
    <glyph glyph-name="greater" unicode="&gt;" d="M98 85v81l371 161l-371 161v79l465 -205v-72z"/>
    <glyph glyph-name="degree" unicode="°" horiz-adv-x="410" d="M205 367c-99 0 -176 68 -176 175s77 175 176 175s176 -68 176 -175s-77 -175 -176 -175zM205 441c56 0 97 41 97 101c0 61 -41 101 -97 101s-97 -40 -97 -101c0 -60 41 -101 97 -101z"/>
    <glyph glyph-name="approxequal" unicode="≈" d="M421 364c-75 0 -157 50 -220 50c-49 0 -96 -17 -126 -40v80c27 23 80 40 126 40c87 0 155 -50 220 -50c49 0 95 17 124 40v-80c-24 -23 -77 -40 -124 -40zM421 174c-75 0 -157 50 -220 50c-49 0 -96 -17 -126 -40v80c27 23 80 40 126 40c87 0 155 -50 220 -50 c49 0 95 17 124 40v-80c-24 -23 -77 -40 -124 -40z"/>
    <glyph glyph-name="greaterequal" unicode="≥" d="M84 131v81l371 161l-371 161v79l465 -205v-72zM546 75v-75h-460v75h460z"/>
    <glyph glyph-name="infinity" unicode="∞" d="M433 468c75 0 125 -58 125 -139c0 -80 -53 -141 -125 -141c-57 0 -97 34 -123 78c-34 -53 -68 -78 -123 -78c-75 0 -125 58 -125 139c0 80 53 141 125 141c57 0 97 -34 123 -78c34 53 68 78 123 78zM195 260c41 0 57 24 80 67c-25 46 -45 69 -83 69s-59 -28 -59 -68 c0 -39 21 -68 62 -68zM428 260c38 0 59 28 59 68c0 39 -21 68 -62 68s-57 -24 -80 -67c25 -46 45 -69 83 -69z"/>
    <glyph glyph-name="lessequal" unicode="≤" d="M536 131l-465 205v72l465 205v-79l-371 -161l371 -161v-81zM74 75h460v-75h-460v75z"/>
    <glyph glyph-name="logicalnot" unicode="¬" d="M67 374h465v-243h-80v163h-385v80z"/>
    <glyph glyph-name="notequal" unicode="≠" d="M520 384h-170l-43 -110h213v-80h-244l-51 -131h-56l51 131h-170v80h201l43 110h-244v80h275l50 127h56l-50 -127h139v-80z"/>
    <glyph glyph-name="integral" unicode="∫" d="M149 -116c-9 0 -19 0 -29 1v73c11 -1 21 -1 30 -1c95 0 123 33 123 132v425c0 116 50 200 185 199c15 0 32 -1 49 -3v-73c-18 3 -34 4 -49 4c-76 0 -99 -49 -99 -135v-425c0 -127 -57 -198 -210 -197z"/>
    <glyph glyph-name="partialdiff" unicode="∂" horiz-adv-x="604" d="M277 721c170 0 262 -125 262 -383c0 -227 -92 -355 -255 -355c-141 0 -234 96 -234 241c0 136 88 233 222 233c78 0 142 -33 181 -95c0 191 -62 284 -178 284c-36 0 -76 -9 -122 -29l-32 68c54 25 106 36 156 36zM288 56c102 0 161 76 165 211c-37 76 -89 117 -165 117 c-94 0 -152 -62 -152 -160c0 -104 58 -168 152 -168z"/>
    <glyph glyph-name="product" unicode="∏" horiz-adv-x="668" d="M487 -88v713h-306v-713h-86v793h478v-793h-86z"/>
    <glyph glyph-name="radical" unicode="√" d="M51 302h135l80 -277l222 709h81l-263 -828h-79l-104 327h-72v69z"/>
    <glyph glyph-name="summation" unicode="∑" horiz-adv-x="590" d="M50 -88v62l278 353l-265 317v61h470v-77h-356l258 -301l-276 -338h386v-77h-495z"/>
    <glyph glyph-name="lozenge" unicode="◊" horiz-adv-x="532" d="M303 -17h-76l-202 372l202 372h76l204 -372zM265 644l-152 -289l152 -289l155 289z"/>
    <glyph glyph-name="zero.tf" d="M310 -15c-158 0 -253 106 -254 362c1 257 96 363 254 363s253 -106 254 -363c-1 -256 -96 -362 -254 -362zM310 60c99 0 165 69 166 287c-1 221 -67 288 -166 288s-165 -67 -166 -288c1 -218 67 -287 166 -287z"/>
    <glyph glyph-name="one.tf" d="M377 81h166v-81h-450v81h194v471c-24 -29 -69 -52 -151 -52h-34v81h29c103 0 151 52 170 114h76v-614z"/>
    <glyph glyph-name="two.tf" d="M77 0v74c57 42 147 114 236 199c88 85 118 143 118 226c0 85 -47 133 -127 133c-81 0 -130 -49 -130 -125c0 -18 3 -39 8 -64l-90 9c-5 20 -7 38 -7 56c0 123 84 202 224 202c135 0 216 -75 216 -210c0 -98 -49 -183 -156 -282c-54 -50 -103 -90 -171 -137h335v-81h-456z "/>
    <glyph glyph-name="three.tf" d="M310 -15c-149 0 -239 89 -243 213l88 11c4 -88 59 -149 158 -149c94 0 149 50 149 137c0 74 -52 127 -152 127h-43v74h40c90 0 131 54 131 122c0 71 -44 115 -128 115c-92 0 -146 -60 -146 -161l-84 18c0 134 93 218 235 218c135 0 213 -75 213 -190 c0 -69 -48 -130 -120 -149c91 -16 144 -80 144 -174c0 -126 -94 -212 -242 -212z"/>
    <glyph glyph-name="four.tf" d="M363 0v176h-316v61l304 458h97v-449h114v-70h-114v-176h-85zM135 246h228v255c0 32 0 50 2 101h-1c-12 -32 -22 -50 -52 -96l-130 -195c-21 -32 -29 -46 -47 -65z"/>
    <glyph glyph-name="five.tf" d="M306 -15c-123 0 -211 72 -229 185l93 11c14 -69 60 -119 141 -119c92 0 146 62 146 164c0 104 -48 173 -144 173c-74 0 -120 -43 -139 -116l-86 9l41 403h384v-78h-316l-26 -236c33 61 89 93 164 93c132 0 212 -93 212 -243c0 -146 -94 -246 -241 -246z"/>
    <glyph glyph-name="six.tf" d="M332 464c131 0 215 -94 215 -237c0 -145 -93 -242 -229 -242c-166 0 -250 120 -250 347c0 242 92 378 259 378c115 0 191 -60 212 -172l-90 -20c-16 80 -57 117 -123 117c-110 0 -166 -94 -170 -271c32 63 97 100 176 100zM319 60c84 0 138 65 138 166 c0 99 -54 163 -142 163c-76 0 -132 -49 -156 -141c11 -114 70 -188 160 -188z"/>
    <glyph glyph-name="seven.tf" d="M198 0v10c0 207 89 410 243 602h-358v83h460v-70c-165 -184 -246 -402 -246 -608v-17h-99z"/>
    <glyph glyph-name="eight.tf" d="M411 374c97 -38 138 -95 138 -188c0 -121 -93 -201 -236 -201c-146 0 -242 77 -242 195c0 95 46 157 135 185c-76 36 -109 87 -109 166c0 107 86 179 214 179c129 0 212 -69 212 -177c0 -79 -39 -134 -112 -159zM308 642c-75 0 -121 -42 -121 -111c0 -60 32 -96 108 -121 l34 -10c77 31 104 66 104 129c0 71 -46 113 -125 113zM313 57c92 0 146 48 146 129c0 64 -34 104 -113 131l-64 20c-87 -31 -120 -73 -120 -144c0 -82 60 -136 151 -136z"/>
    <glyph glyph-name="nine.tf" d="M292 710c171 0 252 -120 252 -349c0 -212 -69 -376 -247 -376c-127 0 -204 65 -226 182l90 20c14 -76 51 -127 137 -127c112 0 154 114 156 288c-35 -60 -95 -89 -168 -89c-127 0 -223 77 -223 223c0 131 90 228 229 228zM295 334c75 0 141 56 157 131 c-10 83 -48 170 -161 170c-83 0 -138 -61 -138 -152c0 -93 59 -149 142 -149z"/>
    <glyph glyph-name="zero.tf.zero" d="M310 710c158 0 253 -106 254 -363c-1 -256 -96 -362 -254 -362s-253 106 -254 362c1 257 96 363 254 363zM310 635c-99 0 -165 -67 -166 -288c0 -61 6 -110 15 -149l276 367c-29 51 -72 70 -125 70zM310 60c99 0 165 69 166 287c0 61 -5 110 -15 149l-276 -366 c29 -51 72 -70 125 -70z"/>
    <glyph glyph-name="dollar.tf" d="M558 180c0 -122 -85 -190 -218 -195v-92h-45v93c-131 10 -215 88 -234 216l90 18c19 -97 66 -146 144 -158v253l-34 8c-115 29 -177 98 -177 197c0 113 83 183 211 190v90h45v-91c117 -8 200 -72 212 -196l-89 -26c-8 92 -50 139 -123 149v-245l34 -9 c124 -33 184 -85 184 -202zM290 403l5 -1v236c-75 -4 -126 -40 -126 -112c0 -70 48 -105 121 -123zM340 60c81 2 133 39 133 116c0 69 -41 104 -124 125l-9 2v-243z"/>
    <glyph glyph-name="cent.tf" d="M340 64c60 8 93 50 104 119l81 -13c-15 -96 -74 -173 -185 -181v-78h-49v78c-133 14 -201 124 -201 264c0 138 66 243 201 257v84h49v-83c102 -6 175 -69 186 -178l-87 -10c-8 66 -42 105 -99 113v-372zM178 254c0 -102 37 -174 113 -188v370c-75 -13 -113 -83 -113 -182 z"/>
    <glyph glyph-name="sterling.tf" d="M499 171l80 -16c-18 -130 -103 -170 -177 -170c-77 0 -110 26 -198 26c-53 0 -108 -8 -153 -19l-19 63c84 28 142 83 142 186c0 34 -4 64 -8 91h-109v63h95c-9 37 -17 73 -17 115c0 130 86 200 205 200c108 0 176 -56 199 -152l-88 -22c-15 65 -53 99 -112 99 c-66 0 -109 -35 -109 -122c0 -42 8 -80 17 -118h173v-63h-160c3 -23 6 -47 6 -73c0 -98 -40 -148 -100 -180c28 7 54 7 74 7c62 0 100 -17 161 -17c42 0 88 22 98 102z"/>
    <glyph glyph-name="florin.tf" d="M437 635c-55 0 -77 -27 -87 -109l-12 -90h106v-66h-114l-67 -520h-86l66 520h-94v66h102l10 76c19 150 61 198 175 198c20 0 37 -2 49 -5v-75c-15 4 -27 5 -48 5z"/>
    <glyph glyph-name="yen.tf" d="M573 695l-218 -361h186v-60h-186v-71h186v-60h-186v-143h-90v143h-186v60h186v71h-186v60h186l-218 361h101l132 -229c18 -30 22 -42 29 -64h2c7 22 11 34 29 64l132 229h101z"/>
    <glyph glyph-name="Euro.tf" d="M525 166l66 -47c-45 -82 -123 -134 -230 -134c-154 0 -249 104 -274 273h-90v60h84c-1 12 -1 24 -1 37s0 26 1 38h-84v60h90c28 168 130 257 284 257c106 0 172 -45 219 -123l-70 -56c-31 55 -78 100 -156 100c-94 0 -161 -55 -183 -178h271v-60h-278 c-1 -12 -1 -24 -1 -37s0 -26 1 -38h278v-60h-272c23 -132 92 -194 183 -194c64 0 121 33 162 102z"/>
    <glyph glyph-name="percent.tf" d="M72 -17l393 747h72l-394 -747h-71zM158 394c-81 0 -134 62 -134 165c0 99 53 162 133 162c78 0 133 -64 133 -165c0 -100 -55 -162 -132 -162zM158 453c39 0 63 38 63 103c0 66 -24 106 -64 106c-41 0 -66 -39 -66 -103c0 -68 25 -106 67 -106zM464 -10 c-81 0 -134 62 -134 165c0 99 53 162 133 162c78 0 133 -64 133 -165c0 -100 -55 -162 -132 -162zM464 49c39 0 63 38 63 103c0 66 -24 106 -64 106c-41 0 -66 -39 -66 -103c0 -68 25 -106 67 -106z"/>
    <glyph glyph-name="perthousand.tf" d="M158 428c-73 0 -121 56 -121 141c0 86 47 141 121 141s121 -55 121 -141c0 -85 -48 -141 -121 -141zM537 707v-79l-482 -468v77zM158 655c-36 0 -57 -31 -57 -86s21 -86 57 -86s57 31 57 86s-21 86 -57 86zM462 270c74 0 121 -55 121 -141c0 -85 -48 -141 -121 -141 c-36 0 -65 15 -84 41c-19 -26 -48 -41 -84 -41c-73 0 -121 56 -121 141c0 86 47 141 121 141c36 0 65 -14 84 -40c19 26 48 40 84 40zM294 43c36 0 57 31 57 86s-21 86 -57 86s-57 -31 -57 -86s21 -86 57 -86zM462 43c36 0 57 31 57 86s-21 86 -57 86s-57 -31 -57 -86 s21 -86 57 -86z"/>
    <glyph glyph-name="uni0308" unicode="̈" horiz-adv-x="0" d="M-344 596v103h97v-103h-97zM-141 596v103h97v-103h-97z"/>
    <glyph glyph-name="uni0307" unicode="̇" horiz-adv-x="0" d="M-146 593v107h97v-107h-97z"/>
    <glyph glyph-name="gravecomb" unicode="̀" horiz-adv-x="0" d="M-28 580h-78l-118 143h104z"/>
    <glyph glyph-name="acutecomb" unicode="́" horiz-adv-x="0" d="M-244 580l92 143h104l-118 -143h-78z"/>
    <glyph glyph-name="uni030B" unicode="̋" horiz-adv-x="0" d="M-375 580l86 143h82l-93 -143h-75zM-223 580l86 143h82l-93 -143h-75z"/>
    <glyph glyph-name="uni0302" unicode="̂" horiz-adv-x="0" d="M-50 580h-79l-73 100l-73 -100h-79l108 143h88z"/>
    <glyph glyph-name="uni030C" unicode="̌" horiz-adv-x="0" d="M-354 718h79l73 -100l73 100h79l-108 -143h-88z"/>
    <glyph glyph-name="uni0306" unicode="̆" horiz-adv-x="0" d="M-280 723c3 -60 34 -87 78 -87s75 27 78 87h72c-4 -107 -72 -148 -150 -148s-146 41 -150 148h72z"/>
    <glyph glyph-name="uni030A" unicode="̊" horiz-adv-x="0" d="M-157 556c-65 0 -109 42 -109 102s44 102 109 102s109 -42 109 -102s-44 -102 -109 -102zM-157 604c31 0 52 22 52 54s-21 54 -52 54s-52 -22 -52 -54s21 -54 52 -54z"/>
    <glyph glyph-name="tildecomb" unicode="̃" horiz-adv-x="0" d="M-163 587c-74 0 -96 66 -145 66c-26 0 -40 -18 -50 -57l-58 11c11 71 50 114 111 114c74 0 95 -66 145 -66c26 0 40 17 50 57l58 -11c-10 -71 -50 -114 -111 -114z"/>
    <glyph glyph-name="uni0304" unicode="̄" horiz-adv-x="0" d="M-338 613v68h298v-68h-298z"/>
    <glyph glyph-name="uni0312" unicode="̒" horiz-adv-x="0" d="M-74 771l20 -38c-42 -14 -47 -29 -47 -63h51v-90h-96v80c0 53 14 90 72 111z"/>
    <glyph glyph-name="uni0326" unicode="̦" horiz-adv-x="0" d="M-122 -237l-20 38c42 14 47 29 47 63h-51v90h96v-80c0 -53 -14 -90 -72 -111z"/>
    <glyph glyph-name="uni0327" unicode="̧" horiz-adv-x="0" d="M-185 7h53l-35 -56c8 7 25 12 43 12c45 0 74 -30 74 -77c0 -51 -42 -85 -105 -85c-52 0 -89 23 -101 63l57 10c6 -17 22 -28 42 -28c25 0 43 17 43 41c0 25 -16 41 -41 41c-13 0 -25 -5 -34 -15l-39 12z"/>
    <glyph glyph-name="uni0328" unicode="̨" horiz-adv-x="0" d="M-50 -109c-10 -59 -42 -94 -106 -94c-63 0 -101 34 -101 87c0 47 31 88 91 116h80c-79 -25 -107 -69 -107 -108c0 -26 15 -41 40 -41c23 0 38 16 44 48z"/>
    <glyph glyph-name="uni2003" unicode=" " horiz-adv-x="1000"/>
    <glyph glyph-name="uni2002" unicode=" " horiz-adv-x="500"/>
    <glyph glyph-name="uni2005" unicode=" " horiz-adv-x="250"/>
    <glyph glyph-name="uni200A" unicode=" " horiz-adv-x="75"/>
    <glyph glyph-name="uni00A0" unicode=" " horiz-adv-x="260"/>
    <glyph glyph-name="uni2009" unicode=" " horiz-adv-x="135"/>
    <glyph glyph-name="uni2004" unicode=" " horiz-adv-x="333"/>
    <glyph glyph-name="uni0243" unicode="Ƀ" horiz-adv-x="653" d="M598 195c0 -84 -42 -179 -194 -193v-109h-53v107h-71v-107h-53v107h-127v695h127v90h53v-90h62h9v90h53v-94c141 -19 174 -104 174 -175c0 -67 -31 -131 -119 -154c92 -15 139 -75 139 -167zM342 618h-152v-225h152c122 0 142 65 142 116c0 54 -27 109 -142 109zM358 77 c111 0 146 60 146 127c0 65 -39 117 -136 117h-178v-244h168z"/>
    <glyph glyph-name="uni20BF.case" horiz-adv-x="653" d="M598 198c0 -85 -42 -182 -194 -196v-91h-53v89h-71v-89h-53v89h-127v710h127v81h53v-81h62h9v81h53v-85c141 -19 174 -107 174 -179c0 -69 -31 -134 -119 -158c92 -15 139 -76 139 -171zM342 632h-152v-231h152c122 0 142 66 142 119c0 56 -27 112 -142 112zM358 77 c111 0 146 62 146 130s-39 121 -136 121h-178v-251h168z"/>
    <glyph glyph-name="uni20BF.tf" d="M561 191c0 -110 -66 -173 -175 -188v-110h-53v107h-71v-107h-53v107h-114v695h114v90h53v-90h51h20v90h53v-96c97 -18 156 -76 156 -174c0 -76 -45 -136 -122 -159c89 -14 141 -75 141 -165zM312 618h-130v-228h130c89 0 136 41 136 118c0 83 -46 110 -136 110zM328 76 c90 0 140 34 140 124c0 73 -47 114 -130 114h-156v-238h146z"/>
    <glyph glyph-name="uni20BF.tf.case" d="M561 201c0 -117 -66 -182 -175 -198v-90h-53v87h-71v-87h-53v87h-114v710h114v75h53v-75h51h20v75h53v-81c97 -19 156 -78 156 -179c0 -76 -45 -136 -122 -159c89 -14 141 -75 141 -165zM312 633h-130v-233h130c89 0 136 41 136 118c0 87 -46 115 -136 115zM328 76 c90 0 140 37 140 134c0 73 -47 114 -130 114h-156v-248h146z"/>
    <glyph glyph-name="g.ss01" horiz-adv-x="580" d="M276 -207c-125 0 -200 53 -212 161h88c12 -66 56 -89 127 -89c86 0 126 46 126 147v85c-26 -69 -79 -106 -152 -106c-123 0 -208 109 -208 266c0 151 90 255 212 255c69 0 123 -34 151 -93l20 81h62v-491c0 -147 -74 -216 -214 -216zM271 63c80 0 136 75 136 181v27 c0 100 -55 166 -135 166c-83 0 -137 -69 -137 -181c0 -115 54 -193 136 -193z"/>
    <glyph glyph-name="gbreve.ss01" horiz-adv-x="580" d="M212 723c3 -60 34 -87 78 -87s75 27 78 87h72c-4 -107 -72 -148 -150 -148s-146 41 -150 148h72zM276 -207c-125 0 -200 53 -212 161h88c12 -66 56 -89 127 -89c86 0 126 46 126 147v85c-26 -69 -79 -106 -152 -106c-123 0 -208 109 -208 266c0 151 90 255 212 255 c69 0 123 -34 151 -93l20 81h62v-491c0 -147 -74 -216 -214 -216zM271 63c80 0 136 75 136 181v27c0 100 -55 166 -135 166c-83 0 -137 -69 -137 -181c0 -115 54 -193 136 -193z"/>
    <glyph glyph-name="gcircumflex.ss01" horiz-adv-x="580" d="M442 580h-79l-73 100l-73 -100h-79l108 143h88zM276 -207c-125 0 -200 53 -212 161h88c12 -66 56 -89 127 -89c86 0 126 46 126 147v85c-26 -69 -79 -106 -152 -106c-123 0 -208 109 -208 266c0 151 90 255 212 255c69 0 123 -34 151 -93l20 81h62v-491 c0 -147 -74 -216 -214 -216zM271 63c80 0 136 75 136 181v27c0 100 -55 166 -135 166c-83 0 -137 -69 -137 -181c0 -115 54 -193 136 -193z"/>
    <glyph glyph-name="uni0123.ss01" horiz-adv-x="580" d="M315 771l20 -38c-42 -14 -47 -29 -47 -63h51v-90h-96v80c0 53 14 90 72 111zM276 -207c-125 0 -200 53 -212 161h88c12 -66 56 -89 127 -89c86 0 126 46 126 147v85c-26 -69 -79 -106 -152 -106c-123 0 -208 109 -208 266c0 151 90 255 212 255c69 0 123 -34 151 -93 l20 81h62v-491c0 -147 -74 -216 -214 -216zM271 63c80 0 136 75 136 181v27c0 100 -55 166 -135 166c-83 0 -137 -69 -137 -181c0 -115 54 -193 136 -193z"/>
    <glyph glyph-name="gdotaccent.ss01" horiz-adv-x="580" d="M241 593v107h97v-107h-97zM276 -207c-125 0 -200 53 -212 161h88c12 -66 56 -89 127 -89c86 0 126 46 126 147v85c-26 -69 -79 -106 -152 -106c-123 0 -208 109 -208 266c0 151 90 255 212 255c69 0 123 -34 151 -93l20 81h62v-491c0 -147 -74 -216 -214 -216zM271 63 c80 0 136 75 136 181v27c0 100 -55 166 -135 166c-83 0 -137 -69 -137 -181c0 -115 54 -193 136 -193z"/>
    <glyph glyph-name="g_g.liga.ss01" horiz-adv-x="1160" d="M276 -207c-125 0 -200 53 -212 161h88c12 -66 56 -89 127 -89c86 0 126 46 126 147v85c-26 -69 -79 -106 -152 -106c-123 0 -208 109 -208 266c0 151 90 255 212 255c69 0 123 -34 151 -93l20 81h62v-491c0 -147 -74 -216 -214 -216zM856 -207c-125 0 -200 53 -212 161 h88c12 -66 56 -89 127 -89c86 0 126 46 126 147v85c-26 -69 -79 -106 -152 -106c-123 0 -208 109 -208 266c0 151 90 255 212 255c69 0 123 -34 151 -93l20 81h62v-491c0 -147 -74 -216 -214 -216zM271 63c80 0 136 75 136 181v27c0 100 -55 166 -135 166 c-83 0 -137 -69 -137 -181c0 -115 54 -193 136 -193zM851 63c80 0 136 75 136 181v27c0 100 -55 166 -135 166c-83 0 -137 -69 -137 -181c0 -115 54 -193 136 -193z"/>
    <glyph glyph-name="g.sups.ss01" horiz-adv-x="470" d="M221 159c-100 0 -156 37 -166 115h75c9 -44 42 -64 93 -64c65 0 97 34 97 104v63c-18 -44 -61 -70 -120 -70c-93 0 -158 77 -158 190s65 187 161 187c58 0 102 -26 120 -71l9 62h64v-355c0 -108 -60 -161 -175 -161zM221 359c60 0 100 51 100 124v24 c0 73 -39 121 -98 121c-63 0 -102 -49 -102 -133c0 -82 40 -136 100 -136z"/>
    <glyph glyph-name="a.sups" horiz-adv-x="437" d="M169 301c-76 0 -126 43 -126 106c0 78 66 101 158 113l93 12v9c0 64 -24 89 -79 89c-51 0 -81 -25 -83 -72h-78c5 79 66 126 161 126c108 0 155 -46 155 -151v-105c0 -50 4 -91 11 -118h-76c-3 20 -5 43 -6 70c-18 -50 -67 -79 -130 -79zM193 354c63 0 103 43 103 105v31 l-90 -13c-59 -8 -85 -30 -85 -65s28 -58 72 -58z"/>
    <glyph glyph-name="b.sups" horiz-adv-x="473" d="M274 301c-57 0 -103 28 -122 69l-7 -60h-65v529h75v-222c19 40 64 67 123 67c94 0 153 -77 153 -192s-61 -191 -157 -191zM252 358c62 0 100 50 100 134c0 83 -36 134 -100 134c-60 0 -98 -48 -98 -123v-23c0 -74 37 -122 98 -122z"/>
    <glyph glyph-name="c.sups" horiz-adv-x="427" d="M223 301c-111 0 -180 74 -180 191c0 120 68 192 181 192c90 0 150 -48 161 -131l-74 -13c-6 55 -39 85 -90 85c-63 0 -101 -49 -101 -130c0 -85 39 -135 103 -135c50 0 82 32 90 85l72 -13c-14 -81 -74 -131 -162 -131z"/>
    <glyph glyph-name="d.sups" horiz-adv-x="473" d="M196 301c-94 0 -154 77 -154 191s63 192 160 192c54 0 96 -21 116 -64v219h75v-529h-72v66c-20 -46 -66 -75 -125 -75zM222 358c60 0 97 52 97 122v23c0 75 -36 124 -98 124s-100 -50 -100 -134c0 -83 38 -135 101 -135z"/>
    <glyph glyph-name="e.sups" horiz-adv-x="433" d="M387 501v-26h-268c1 -70 42 -113 107 -113c48 0 82 25 97 69l61 -26c-25 -66 -83 -104 -160 -104c-114 0 -181 71 -181 192c0 118 67 191 176 191c108 0 168 -68 168 -183zM119 525h190c0 67 -33 107 -91 107c-57 0 -97 -41 -99 -107z"/>
    <glyph glyph-name="f.sups" horiz-adv-x="295" d="M266 675v-55h-95v-310h-75v310h-67v55h67v50c0 75 44 119 121 119c18 0 34 -2 49 -6v-58c-11 3 -24 4 -36 4c-40 0 -59 -21 -59 -63v-46h95z"/>
    <glyph glyph-name="g.sups" horiz-adv-x="431" d="M380 677c-27 0 -46 -8 -58 -26c27 -21 42 -52 42 -89c0 -73 -58 -123 -152 -123c-29 0 -54 5 -76 13c-13 -6 -22 -17 -22 -31c0 -21 18 -36 58 -36h103c85 0 129 -36 129 -102c0 -76 -64 -124 -197 -124c-123 0 -175 40 -175 94c0 34 23 60 66 72c-34 12 -50 36 -50 65 c0 37 23 64 60 77c-31 22 -49 55 -49 95c0 72 59 122 153 122c31 0 58 -5 80 -15c12 40 45 66 97 66c6 0 12 0 18 -1v-59c-9 1 -18 2 -27 2zM212 486c45 0 76 32 76 75c0 45 -31 75 -76 75c-46 0 -75 -30 -75 -74s29 -76 75 -76zM264 316h-105c-10 0 -20 1 -29 2 c-20 -12 -28 -30 -28 -49c0 -42 42 -59 111 -59c86 0 119 23 119 58c0 31 -23 48 -68 48z"/>
    <glyph glyph-name="h.sups" horiz-adv-x="473" d="M80 310v529h76v-225c21 46 66 71 126 71c82 0 125 -51 125 -148v-227h-76v220c0 62 -26 94 -79 94c-60 0 -96 -45 -96 -119v-195h-76z"/>
    <glyph glyph-name="i.sups" horiz-adv-x="228" d="M73 733v95h82v-95h-82zM76 310v365h76v-365h-76z"/>
    <glyph glyph-name="j.sups" horiz-adv-x="229" d="M74 733v95h81v-95h-81zM40 163c-16 0 -37 1 -48 4v58c15 -2 25 -3 33 -3c34 0 51 16 51 65v388h77v-395c0 -72 -30 -117 -113 -117z"/>
    <glyph glyph-name="k.sups" horiz-adv-x="437" d="M331 310l-111 175l-64 -64v-111h-76v529h76v-339l163 175h92l-137 -142l145 -223h-88z"/>
    <glyph glyph-name="l.sups" horiz-adv-x="235" d="M155 839v-529h-75v529h75z"/>
    <glyph glyph-name="m.sups" horiz-adv-x="670" d="M74 675h73v-58c19 44 58 68 114 68c54 0 91 -22 108 -65c24 43 64 65 119 65c74 0 116 -51 116 -137v-238h-75v224c0 59 -25 90 -72 90c-49 0 -81 -36 -81 -95v-219h-75v226c0 57 -24 88 -69 88c-51 0 -82 -40 -82 -104v-210h-76v365z"/>
    <glyph glyph-name="n.sups" horiz-adv-x="467" d="M74 310v365h73v-65c23 49 66 75 128 75c83 0 126 -51 126 -150v-225h-76v217c0 64 -27 97 -80 97c-59 0 -94 -45 -94 -119v-195h-77z"/>
    <glyph glyph-name="o.sups" horiz-adv-x="445" d="M223 301c-107 0 -180 70 -180 192s73 191 180 191c106 0 179 -69 179 -191s-73 -192 -179 -192zM223 358c64 0 103 46 103 135c0 88 -39 134 -103 134c-65 0 -104 -46 -104 -134c0 -89 39 -135 104 -135z"/>
    <glyph glyph-name="p.sups" horiz-adv-x="467" d="M74 168v507h72v-64c22 46 69 73 127 73c93 0 152 -77 152 -191c0 -117 -62 -192 -156 -192c-57 0 -99 25 -119 63v-196h-76zM247 358c61 0 99 51 99 135c0 83 -35 134 -98 134s-100 -52 -100 -126v-17c0 -73 37 -126 99 -126z"/>
    <glyph glyph-name="q.sups" horiz-adv-x="467" d="M318 168v203c-19 -43 -65 -70 -123 -70c-92 0 -153 76 -153 191c0 116 64 192 159 192c58 0 99 -22 120 -67l9 58h63v-507h-75zM220 358c61 0 99 51 99 122v25c0 73 -37 122 -99 122s-99 -50 -99 -134s37 -135 99 -135z"/>
    <glyph glyph-name="r.sups" horiz-adv-x="307" d="M145 591c18 56 61 93 122 93c4 0 7 0 11 -1v-73c-6 0 -10 1 -15 1c-32 0 -57 -9 -75 -25c-29 -27 -38 -67 -38 -111v-165h-76v365h71v-84z"/>
    <glyph glyph-name="s.sups" horiz-adv-x="390" d="M202 301c-87 0 -144 38 -168 104l55 31c18 -48 57 -76 114 -76c50 0 76 18 76 50c0 31 -17 45 -63 51l-54 8c-76 11 -111 49 -111 107c0 66 56 108 146 108c79 0 134 -31 157 -86l-53 -34c-18 42 -54 63 -106 63c-46 0 -73 -17 -73 -48c0 -27 19 -41 62 -48l60 -9 c74 -10 106 -47 106 -108c0 -70 -54 -113 -148 -113z"/>
    <glyph glyph-name="t.sups" horiz-adv-x="295" d="M21 621v54h68v93l74 29v-122h94v-54h-94v-193c0 -43 21 -62 58 -62c15 0 24 2 36 4v-60c-19 -5 -34 -7 -55 -7c-80 0 -113 41 -113 110v208h-68z"/>
    <glyph glyph-name="u.sups" horiz-adv-x="465" d="M319 374c-18 -43 -64 -73 -123 -73c-91 0 -130 54 -130 141v233h76v-222c0 -64 32 -92 78 -92c60 0 96 48 96 109v205h75v-365h-72v64z"/>
    <glyph glyph-name="v.sups" horiz-adv-x="395" d="M156 310l-137 365h79l84 -246c6 -20 11 -35 14 -51h2c4 16 7 32 15 52l84 245h79l-137 -365h-83z"/>
    <glyph glyph-name="w.sups" horiz-adv-x="583" d="M135 310l-106 365h74l65 -252c4 -12 7 -27 8 -40h2c2 13 5 28 8 40l71 252h68l71 -252c4 -12 7 -27 9 -40h2c2 13 5 28 8 40l66 252h73l-106 -365h-75l-72 252c-3 11 -7 23 -9 34h-1c-1 -11 -5 -23 -9 -34l-72 -252h-75z"/>
    <glyph glyph-name="x.sups" horiz-adv-x="415" d="M25 310l138 190l-129 175h88l63 -91c10 -16 19 -29 23 -41h2c5 12 13 26 24 41l62 91h83l-126 -176l137 -189h-85l-74 104c-11 15 -21 30 -25 40h-1c-4 -10 -12 -23 -24 -40l-74 -104h-82z"/>
    <glyph glyph-name="y.sups" horiz-adv-x="399" d="M81 163c-12 0 -25 1 -39 4v58c13 -2 22 -3 31 -3c48 0 70 26 86 68l8 21l-148 364h84l88 -246c6 -17 10 -33 14 -50h1c4 16 9 31 16 51l80 245h78l-141 -385c-34 -92 -80 -127 -158 -127z"/>
    <glyph glyph-name="z.sups" horiz-adv-x="371" d="M35 359l203 259h-193v57h284v-48l-202 -259h212v-58h-304v49z"/>
    <glyph glyph-name="uni24FF" unicode="⓿" horiz-adv-x="836" d="M418 -17c-202 0 -373 143 -373 372s171 372 373 372s373 -143 373 -372s-171 -372 -373 -372zM419 156c105 0 170 72 170 198c0 128 -65 201 -171 201s-170 -73 -170 -199c0 -128 64 -200 171 -200zM419 216c-56 0 -89 46 -89 140c0 92 34 139 88 139 c55 0 89 -47 89 -141c0 -92 -34 -138 -88 -138z"/>
    <glyph glyph-name="uni2776" unicode="❶" horiz-adv-x="836" d="M418 -17c-202 0 -373 143 -373 372s171 372 373 372s373 -143 373 -372s-171 -372 -373 -372zM392 164h79v382h-63c-17 -45 -48 -67 -100 -67h-8v-71h11c34 0 63 13 81 34v-278z"/>
    <glyph glyph-name="uni2777" unicode="❷" horiz-adv-x="836" d="M418 -17c-202 0 -373 143 -373 372s171 372 373 372s373 -143 373 -372s-171 -372 -373 -372zM265 177h306v59h-199c93 46 192 122 192 214c0 74 -54 118 -145 118c-94 0 -153 -45 -153 -117c0 -10 1 -23 3 -31l81 -7c-3 11 -4 20 -4 29c0 42 26 65 70 65 c41 0 64 -23 64 -65c0 -81 -94 -136 -215 -209v-56z"/>
    <glyph glyph-name="uni2778" unicode="❸" horiz-adv-x="836" d="M418 -17c-202 0 -373 143 -373 372s171 372 373 372s373 -143 373 -372s-171 -372 -373 -372zM418 156c96 0 156 43 156 112c0 51 -37 87 -96 92c50 7 86 43 86 87c0 68 -52 108 -144 108c-96 0 -155 -48 -155 -122l79 -7c0 44 28 71 72 71c42 0 66 -22 66 -59 c0 -35 -28 -56 -70 -56h-26v-50h28c49 0 76 -20 76 -56c0 -39 -26 -61 -72 -61s-74 28 -75 72l-80 -6c1 -77 59 -125 155 -125z"/>
    <glyph glyph-name="uni2779" unicode="❹" horiz-adv-x="836" d="M418 -17c-202 0 -373 143 -373 372s171 372 373 372s373 -143 373 -372s-171 -372 -373 -372zM426 174h77v88h61v57h-61v237h-85l-186 -239v-55h194v-88zM297 319l129 165v-165h-129z"/>
    <glyph glyph-name="uni277A" unicode="❺" horiz-adv-x="836" d="M418 -17c-202 0 -373 143 -373 372s171 372 373 372s373 -143 373 -372s-171 -372 -373 -372zM418 160c95 0 153 52 153 140c0 79 -49 128 -128 128c-47 0 -81 -15 -100 -45l13 107h195v60h-252l-25 -222l69 -6c9 31 40 52 76 52c45 0 75 -28 75 -76s-31 -79 -79 -79 c-39 0 -68 21 -75 58l-75 -13c11 -65 69 -104 153 -104z"/>
    <glyph glyph-name="uni277B" unicode="❻" horiz-adv-x="836" d="M418 -17c-202 0 -373 143 -373 372s171 372 373 372s373 -143 373 -372s-171 -372 -373 -372zM427 156c91 0 150 60 150 138c0 83 -52 129 -126 129c-55 0 -98 -21 -116 -70c0 91 32 144 88 144c44 0 65 -23 72 -55l73 8c-12 69 -59 105 -143 105 c-105 0 -165 -84 -165 -203c0 -130 67 -196 167 -196zM425 213c-51 0 -78 33 -87 92c13 40 46 64 87 64c46 0 78 -31 78 -80c0 -44 -29 -76 -78 -76z"/>
    <glyph glyph-name="uni277C" unicode="❼" horiz-adv-x="836" d="M418 -17c-202 0 -373 143 -373 372s171 372 373 372s373 -143 373 -372s-171 -372 -373 -372zM338 164h86c1 136 40 226 140 320v62h-291v-63h217c-99 -87 -150 -194 -152 -319z"/>
    <glyph glyph-name="uni277D" unicode="❽" horiz-adv-x="836" d="M418 -17c-202 0 -373 143 -373 372s171 372 373 372s373 -143 373 -372s-171 -372 -373 -372zM416 156c101 0 164 42 164 110c0 61 -35 93 -93 109c54 17 75 42 75 85c0 60 -62 95 -150 95s-147 -43 -147 -105c0 -52 29 -81 79 -97c-62 -16 -88 -45 -88 -91 c0 -66 60 -106 160 -106zM443 386l-30 6c-47 10 -73 24 -73 58c0 33 29 53 74 53c46 0 75 -22 75 -58c0 -29 -13 -47 -46 -59zM418 212c-52 0 -82 22 -82 60c0 32 19 54 58 69l27 -6c48 -10 79 -25 79 -66c0 -35 -32 -57 -82 -57z"/>
    <glyph glyph-name="uni277E" unicode="❾" horiz-adv-x="836" d="M418 -17c-202 0 -373 143 -373 372s171 372 373 372s373 -143 373 -372s-171 -372 -373 -372zM410 156c111 0 166 72 166 203c0 137 -64 196 -164 196c-96 0 -152 -56 -152 -131c0 -72 52 -126 135 -126c41 0 81 14 107 42c-6 -87 -37 -125 -87 -125c-42 0 -66 22 -73 54 l-73 -11c11 -67 62 -102 141 -102zM412 352c-47 0 -78 31 -78 74s30 74 80 74c52 0 81 -30 88 -97c-21 -33 -53 -51 -90 -51z"/>
    <glyph glyph-name="zero.case" horiz-adv-x="636" d="M318 -15c-176 0 -268 144 -268 372c0 227 92 370 268 370s268 -143 268 -370c0 -228 -92 -372 -268 -372zM318 60c120 0 178 115 178 297c0 181 -58 295 -178 295s-178 -114 -178 -295c0 -182 58 -297 178 -297z"/>
    <glyph glyph-name="one.case" horiz-adv-x="394" d="M184 0v560c-21 -29 -75 -44 -113 -44h-36v81h22c67 0 124 40 141 113h76v-710h-90z"/>
    <glyph glyph-name="two.case" horiz-adv-x="541" d="M35 0v74c57 42 147 114 236 199c88 89 118 149 118 236c0 89 -47 140 -127 140c-81 0 -130 -52 -130 -132c0 -18 3 -39 8 -64l-90 9c-5 20 -7 38 -7 56c0 127 84 209 224 209c135 0 216 -77 216 -217c0 -101 -49 -189 -156 -292c-54 -50 -103 -90 -171 -137h335v-81h-456 z"/>
    <glyph glyph-name="three.case" horiz-adv-x="567" d="M281 -15c-145 0 -242 87 -246 223l88 11c4 -100 65 -159 161 -159c94 0 143 49 143 140c0 86 -52 134 -156 134h-39v74h35c93 0 136 48 136 125c0 75 -48 119 -130 119c-90 0 -141 -57 -141 -161l-84 18c0 135 88 218 230 218c136 0 215 -70 215 -184 c0 -82 -48 -145 -126 -165c97 -17 150 -74 150 -176c0 -136 -91 -217 -236 -217z"/>
    <glyph glyph-name="four.case" horiz-adv-x="550" d="M535 186h-114v-186h-85v186h-326v61l311 463h100v-454h114v-70zM336 516c0 56 0 70 2 106h-2c-13 -33 -27 -55 -50 -91l-119 -184c-27 -41 -44 -65 -66 -91h235v260z"/>
    <glyph glyph-name="five.case" horiz-adv-x="565" d="M279 -15c-123 0 -211 76 -229 195l93 11c14 -75 60 -129 141 -129c92 0 146 64 146 169c0 107 -48 178 -144 178c-74 0 -120 -43 -139 -116l-86 9l41 408h384v-78h-316l-26 -241c33 61 89 93 164 93c132 0 212 -95 212 -248c0 -149 -94 -251 -241 -251z"/>
    <glyph glyph-name="six.case" horiz-adv-x="564" d="M309 474c130 0 215 -95 215 -242s-92 -247 -229 -247c-165 0 -250 121 -250 357c0 247 93 385 259 385c116 0 191 -64 212 -179l-90 -20c-16 83 -56 124 -123 124c-109 0 -167 -95 -170 -279c32 64 96 101 176 101zM296 60c84 0 138 67 138 171c0 103 -55 168 -142 168 c-77 0 -132 -51 -156 -141c11 -121 71 -198 160 -198z"/>
    <glyph glyph-name="seven.case" horiz-adv-x="490" d="M130 0v10c0 207 89 425 243 617h-348v83h450v-70c-165 -184 -246 -417 -246 -623v-17h-99z"/>
    <glyph glyph-name="eight.case" horiz-adv-x="578" d="M392 383c104 -38 146 -99 146 -197c0 -121 -97 -201 -246 -201c-152 0 -252 77 -252 195c0 100 49 166 143 195c-82 36 -117 91 -117 173c0 107 90 179 224 179c135 0 222 -69 222 -177c0 -83 -42 -141 -120 -167zM287 659c-81 0 -131 -42 -131 -111 c0 -63 35 -103 118 -128l34 -10c85 33 114 69 114 136c0 71 -50 113 -135 113zM292 57c98 0 156 48 156 129c0 69 -36 114 -123 141l-65 20c-93 -33 -129 -78 -129 -154c0 -82 64 -136 161 -136z"/>
    <glyph glyph-name="nine.case" horiz-adv-x="571" d="M272 727c169 0 249 -122 249 -356c0 -218 -59 -386 -254 -386c-121 0 -202 69 -219 192l90 20c9 -82 50 -137 130 -137c128 0 162 118 163 298c-35 -60 -95 -89 -168 -89c-127 0 -223 79 -223 228c0 132 91 230 232 230zM272 344c75 0 141 57 157 132 c-9 86 -47 176 -158 176c-85 0 -141 -62 -141 -154c0 -96 59 -154 142 -154z"/>
    <glyph glyph-name="one.case.ss02" horiz-adv-x="506" d="M325 81h166v-81h-450v81h194v486c-24 -29 -69 -52 -151 -52h-34v81h29c103 0 151 52 170 114h76v-629z"/>
    <glyph glyph-name="zero.case.zero" horiz-adv-x="636" d="M318 727c176 0 268 -143 268 -370c0 -228 -92 -372 -268 -372s-268 144 -268 372c0 227 92 370 268 370zM318 652c-120 0 -178 -114 -178 -295c0 -56 6 -106 17 -148l292 368c-29 48 -73 75 -131 75zM318 60c120 0 178 115 178 297c0 56 -6 105 -17 147l-293 -368 c30 -49 74 -76 132 -76z"/>
    <glyph glyph-name="uni24EA" unicode="⓪" horiz-adv-x="836" d="M418 -17c-202 0 -373 143 -373 372c0 230 171 372 373 372s373 -142 373 -372c0 -229 -171 -372 -373 -372zM418 30c174 0 321 124 321 325c0 202 -147 325 -321 325s-321 -123 -321 -325c0 -201 147 -325 321 -325zM419 156c-106 0 -168 72 -168 199 c0 126 62 199 167 199s168 -73 168 -201c0 -125 -62 -197 -167 -197zM419 211c58 0 93 49 93 142c0 95 -35 146 -94 146c-58 0 -93 -51 -93 -144c0 -95 34 -144 94 -144z"/>
    <glyph glyph-name="uni2460" unicode="①" horiz-adv-x="836" d="M418 -17c-202 0 -373 143 -373 372c0 230 171 372 373 372s373 -142 373 -372c0 -229 -171 -372 -373 -372zM418 30c174 0 321 124 321 325c0 202 -147 325 -321 325s-321 -123 -321 -325c0 -201 147 -325 321 -325zM396 164v284c-18 -21 -48 -35 -81 -35h-11v65h8 c50 0 82 23 97 67h57v-381h-70z"/>
    <glyph glyph-name="uni2461" unicode="②" horiz-adv-x="836" d="M418 -17c-202 0 -373 143 -373 372c0 230 171 372 373 372s373 -142 373 -372c0 -229 -171 -372 -373 -372zM418 30c174 0 321 124 321 325c0 202 -147 325 -321 325s-321 -123 -321 -325c0 -201 147 -325 321 -325zM268 177v52c118 71 216 132 216 214 c0 44 -24 68 -68 68c-47 0 -74 -24 -74 -68c0 -9 2 -18 5 -29l-74 6c-2 9 -3 21 -3 31c0 72 56 116 149 116c88 0 140 -43 140 -117c0 -93 -102 -172 -194 -219h202v-54h-299z"/>
    <glyph glyph-name="uni2462" unicode="③" horiz-adv-x="836" d="M418 -17c-202 0 -373 143 -373 372c0 230 171 372 373 372s373 -142 373 -372c0 -229 -171 -372 -373 -372zM418 30c174 0 321 124 321 325c0 202 -147 325 -321 325s-321 -123 -321 -325c0 -201 147 -325 321 -325zM418 156c-94 0 -151 47 -152 123l72 6 c1 -47 31 -75 80 -75c50 0 77 22 77 65c0 36 -28 56 -80 56h-38v51h35c45 0 74 23 74 57c0 40 -25 62 -70 62c-47 0 -77 -28 -77 -75l-71 6c0 75 58 122 152 122c88 0 139 -40 139 -107c0 -44 -34 -80 -84 -86c58 -6 96 -41 96 -93c0 -70 -59 -112 -153 -112z"/>
    <glyph glyph-name="uni2463" unicode="④" horiz-adv-x="836" d="M418 -17c-202 0 -373 143 -373 372c0 230 171 372 373 372s373 -142 373 -372c0 -229 -171 -372 -373 -372zM418 30c174 0 321 124 321 325c0 202 -147 325 -321 325s-321 -123 -321 -325c0 -201 147 -325 321 -325zM561 257h-62v-89h-69v89h-194v51l187 241h76v-240h62 v-52zM430 483l-135 -174h135v174z"/>
    <glyph glyph-name="uni2464" unicode="⑤" horiz-adv-x="836" d="M418 -17c-202 0 -373 143 -373 372c0 230 171 372 373 372s373 -142 373 -372c0 -229 -171 -372 -373 -372zM418 30c174 0 321 124 321 325c0 202 -147 325 -321 325s-321 -123 -321 -325c0 -201 147 -325 321 -325zM418 160c-82 0 -138 39 -149 103l68 11 c7 -38 37 -60 78 -60c52 0 83 32 83 83c0 50 -30 81 -78 81c-38 0 -71 -23 -80 -56l-62 5l25 222h245v-55h-195l-13 -115c19 31 53 48 101 48c79 0 127 -49 127 -128c0 -87 -57 -139 -150 -139z"/>
    <glyph glyph-name="uni2465" unicode="⑥" horiz-adv-x="836" d="M418 727c202 0 373 -142 373 -372c0 -229 -171 -372 -373 -372s-373 143 -373 372c0 230 171 372 373 372zM418 30c174 0 321 124 321 325c0 202 -147 325 -321 325s-321 -123 -321 -325c0 -201 147 -325 321 -325zM447 422c74 0 126 -48 126 -130 c0 -77 -56 -136 -146 -136c-99 0 -163 65 -163 195c0 120 57 203 161 203c82 0 128 -36 140 -104l-66 -8c-8 35 -30 59 -76 59c-59 0 -92 -56 -92 -150v-1c19 49 62 72 116 72zM425 208c52 0 82 33 82 80c0 51 -33 85 -82 85c-43 0 -78 -27 -91 -70c9 -61 38 -95 91 -95z "/>
    <glyph glyph-name="uni2466" unicode="⑦" horiz-adv-x="836" d="M418 -17c-202 0 -373 143 -373 372c0 230 171 372 373 372s373 -142 373 -372c0 -229 -171 -372 -373 -372zM418 30c174 0 321 124 321 325c0 202 -147 325 -321 325s-321 -123 -321 -325c0 -201 147 -325 321 -325zM276 488v57h286v-56c-85 -79 -141 -174 -143 -314v-11 h-78v5c3 127 61 237 152 319h-217z"/>
    <glyph glyph-name="uni2467" unicode="⑧" horiz-adv-x="836" d="M418 727c202 0 373 -142 373 -372c0 -229 -171 -372 -373 -372s-373 143 -373 372c0 230 171 372 373 372zM418 30c174 0 321 124 321 325c0 202 -147 325 -321 325s-321 -123 -321 -325c0 -201 147 -325 321 -325zM482 373c58 -16 94 -46 94 -107 c0 -68 -61 -110 -160 -110c-98 0 -156 40 -156 105c0 48 27 77 89 93c-50 17 -79 45 -79 96c0 62 58 104 143 104c87 0 146 -35 146 -95c0 -44 -23 -69 -77 -86zM414 506c-46 0 -77 -21 -77 -56s27 -51 74 -61l27 -6c40 14 54 31 54 63c0 37 -29 60 -78 60zM418 207 c53 0 86 23 86 61c0 41 -32 58 -79 68l-29 7c-44 -15 -64 -38 -64 -72c0 -40 31 -64 86 -64z"/>
    <glyph glyph-name="uni2468" unicode="⑨" horiz-adv-x="836" d="M418 727c202 0 373 -142 373 -372c0 -229 -171 -372 -373 -372s-373 143 -373 372c0 230 171 372 373 372zM418 30c174 0 321 124 321 325c0 202 -147 325 -321 325s-321 -123 -321 -325c0 -201 147 -325 321 -325zM412 554c99 0 160 -59 160 -195 c0 -129 -52 -203 -162 -203c-78 0 -127 35 -138 101l66 11c8 -35 31 -58 77 -58c55 0 87 44 91 136c-25 -31 -66 -48 -109 -48c-81 0 -133 53 -133 126c0 74 53 130 148 130zM412 348c39 0 73 19 92 55c-7 67 -36 100 -91 100c-52 0 -83 -32 -83 -77c0 -46 32 -78 82 -78z "/>
    <glyph glyph-name="zero.osf" horiz-adv-x="606" d="M304 -15c-160 0 -259 109 -259 284c0 172 100 281 258 281c157 0 258 -112 258 -286c0 -170 -100 -279 -257 -279zM304 59c104 0 170 78 170 203c0 130 -66 211 -171 211s-171 -79 -171 -206c0 -130 65 -208 172 -208z"/>
    <glyph glyph-name="one.osf" horiz-adv-x="546" d="M333 77h173v-77h-441v77h183v323c-26 -33 -110 -56 -157 -56h-25v81h16c69 0 160 50 180 110h71v-458z"/>
    <glyph glyph-name="two.osf" horiz-adv-x="565" d="M35 52l127 78c175 109 226 164 226 246c0 61 -42 99 -110 99c-76 0 -124 -42 -124 -109c0 -24 1 -39 4 -50l-91 11c-2 17 -3 29 -3 39c0 108 88 184 213 184s200 -63 200 -168c0 -61 -26 -114 -81 -166c-46 -44 -108 -86 -207 -139h321v-77h-475v52z"/>
    <glyph glyph-name="three.osf" horiz-adv-x="570" d="M278 -165c-149 0 -239 79 -243 213l88 11c4 -98 59 -149 158 -149c93 0 149 51 149 127c0 82 -58 132 -152 132h-43v74h40c81 0 131 44 131 117s-46 115 -128 115c-92 0 -146 -60 -146 -161l-84 18c0 133 92 218 235 218c132 0 213 -69 213 -182 c0 -77 -49 -133 -120 -152c91 -16 144 -82 144 -179c0 -117 -98 -202 -242 -202z"/>
    <glyph glyph-name="four.osf" horiz-adv-x="585" d="M351 -150v181h-326v61l311 443h100v-434h114v-70h-114v-181h-85zM114 101h237v236v108h-2c-14 -28 -36 -64 -48 -82l-135 -196c-15 -21 -34 -47 -52 -66z"/>
    <glyph glyph-name="five.osf" horiz-adv-x="577" d="M286 -165c-120 0 -211 65 -236 168l92 13c19 -65 75 -106 146 -106c96 0 154 65 154 171c0 90 -59 150 -147 150c-67 0 -116 -35 -142 -101l-88 6l46 399h382v-78h-309l-34 -246c29 59 86 95 166 95c128 0 216 -92 216 -225c0 -147 -99 -246 -246 -246z"/>
    <glyph glyph-name="six.osf" horiz-adv-x="569" d="M314 464c130 0 215 -93 215 -237s-92 -242 -229 -242c-165 0 -250 118 -250 347c0 243 93 378 259 378c116 0 191 -61 212 -172l-90 -20c-16 79 -56 117 -123 117c-109 0 -166 -92 -170 -272c32 64 96 101 176 101zM301 60c84 0 138 65 138 166c0 100 -55 163 -142 163 c-77 0 -132 -51 -156 -141c10 -115 72 -188 160 -188z"/>
    <glyph glyph-name="seven.osf" horiz-adv-x="500" d="M140 -150v10c0 195 82 394 243 592h-358v83h460v-70c-159 -174 -246 -386 -246 -598v-17h-99z"/>
    <glyph glyph-name="eight.osf" horiz-adv-x="578" d="M392 373c103 -38 146 -94 146 -187c0 -121 -97 -201 -246 -201c-152 0 -252 77 -252 195c0 95 49 157 141 185c-80 36 -115 87 -115 166c0 107 90 179 224 179c135 0 222 -69 222 -177c0 -80 -42 -135 -120 -160zM287 642c-81 0 -131 -42 -131 -111 c0 -60 35 -96 118 -121l35 -11c84 32 113 67 113 130c0 71 -50 113 -135 113zM292 57c98 0 156 48 156 129c0 64 -37 103 -123 131l-66 21c-92 -32 -128 -74 -128 -145c0 -82 64 -136 161 -136z"/>
    <glyph glyph-name="nine.osf" horiz-adv-x="579" d="M279 550c167 0 250 -115 250 -347c0 -235 -93 -368 -259 -368c-123 0 -201 57 -222 162l90 20c16 -73 59 -107 133 -107c112 0 169 96 170 286c-35 -61 -101 -97 -181 -97c-136 0 -220 86 -220 223c0 135 98 228 239 228zM277 174c77 0 146 57 162 131 c-12 112 -66 170 -161 170c-89 0 -148 -61 -148 -152c0 -90 58 -149 147 -149z"/>
    <glyph glyph-name="zero.osf.zero" horiz-adv-x="606" d="M303 550c157 0 258 -112 258 -286c0 -170 -100 -279 -257 -279c-160 0 -259 109 -259 284c0 172 100 281 258 281zM303 473c-105 0 -171 -79 -171 -206c0 -57 13 -105 36 -140l236 313c-27 21 -61 33 -101 33zM304 59c104 0 170 78 170 203c0 56 -12 104 -35 139 l-235 -312c27 -19 61 -30 100 -30z"/>
    <glyph glyph-name="one.ss02" horiz-adv-x="505" d="M324 81h166v-81h-450v81h194v471c-24 -29 -69 -52 -151 -52h-34v81h29c103 0 151 52 170 114h76v-614z"/>
    <glyph glyph-name="zero.tf.case" d="M310 -15c-158 0 -253 109 -254 372c1 262 96 370 254 370s253 -108 254 -370c-1 -263 -96 -372 -254 -372zM310 60c99 0 165 71 166 297c-1 226 -67 295 -166 295s-165 -69 -166 -295c1 -226 67 -297 166 -297z"/>
    <glyph glyph-name="one.tf.case" d="M377 81h166v-81h-450v81h194v486c-24 -29 -69 -52 -151 -52h-34v81h29c103 0 151 52 170 114h76v-629z"/>
    <glyph glyph-name="two.tf.case" d="M77 0v74c57 42 147 114 236 199c88 89 118 149 118 236c0 89 -47 140 -127 140c-81 0 -130 -52 -130 -132c0 -18 3 -39 8 -64l-90 9c-5 20 -7 38 -7 56c0 127 84 209 224 209c135 0 216 -77 216 -217c0 -101 -49 -189 -156 -292c-54 -50 -103 -90 -171 -137h335v-81h-456 z"/>
    <glyph glyph-name="three.tf.case" d="M310 -15c-149 0 -239 93 -243 223l88 11c4 -94 59 -159 158 -159c94 0 149 53 149 143c0 76 -52 131 -152 131h-43v74h40c90 0 131 56 131 127c0 72 -44 117 -128 117c-92 0 -146 -63 -146 -168l-84 18c0 138 93 225 235 225c135 0 213 -76 213 -192 c0 -71 -48 -134 -120 -154c91 -16 144 -82 144 -178c0 -130 -94 -218 -242 -218z"/>
    <glyph glyph-name="four.tf.case" d="M363 0v186h-316v61l304 463h97v-454h114v-70h-114v-186h-85zM135 256h228v260c0 32 0 50 2 101h-1c-12 -32 -22 -50 -52 -96l-130 -200c-21 -32 -29 -46 -47 -65z"/>
    <glyph glyph-name="five.tf.case" d="M309 -15c-123 0 -214 76 -232 195l93 11c14 -75 63 -129 144 -129c95 0 143 64 143 169c0 107 -45 178 -144 178c-74 0 -120 -43 -139 -116l-86 9l41 408h384v-78h-316l-26 -241c33 61 89 93 164 93c135 0 212 -95 212 -248c0 -149 -88 -251 -238 -251z"/>
    <glyph glyph-name="six.tf.case" d="M332 474c131 0 215 -96 215 -241c0 -149 -89 -248 -229 -248c-166 0 -250 123 -250 357c0 246 92 385 259 385c115 0 191 -62 212 -179l-90 -20c-16 85 -57 124 -123 124c-110 0 -167 -96 -170 -278c32 63 97 100 176 100zM319 60c88 0 138 67 138 172 c0 101 -54 167 -142 167c-76 0 -132 -49 -156 -141c10 -120 70 -198 160 -198z"/>
    <glyph glyph-name="seven.tf.case" d="M198 0v10c0 207 89 425 243 617h-358v83h460v-70c-165 -184 -246 -417 -246 -623v-17h-99z"/>
    <glyph glyph-name="eight.tf.case" d="M411 384c98 -37 138 -95 138 -188c0 -127 -93 -211 -236 -211c-146 0 -242 81 -242 205c0 94 46 157 134 185c-76 35 -108 88 -108 166c0 111 86 186 214 186c129 0 212 -72 212 -184c0 -79 -39 -134 -112 -159zM308 659c-75 0 -121 -45 -121 -118c0 -60 31 -98 108 -121 l34 -10c77 31 104 66 104 129c0 75 -46 120 -125 120zM313 57c92 0 146 52 146 139c0 64 -33 106 -113 131l-64 20c-87 -31 -120 -73 -120 -144c0 -88 60 -146 151 -146z"/>
    <glyph glyph-name="nine.tf.case" d="M292 727c171 0 252 -122 252 -356c0 -218 -69 -386 -247 -386c-127 0 -204 69 -226 192l90 20c14 -82 51 -137 137 -137c112 0 154 118 156 298c-35 -60 -95 -89 -168 -89c-127 0 -223 77 -223 223c0 135 90 235 229 235zM295 344c75 0 141 57 157 131 c-9 87 -48 177 -161 177c-83 0 -138 -64 -138 -159c0 -93 59 -149 142 -149z"/>
    <glyph glyph-name="zero.tf.case.zero" d="M310 727c158 0 253 -108 254 -370c-1 -263 -96 -372 -254 -372s-253 109 -254 372c1 262 96 370 254 370zM310 652c-99 0 -165 -69 -166 -295c0 -61 5 -111 14 -151l279 370c-29 56 -73 76 -127 76zM310 60c99 0 165 71 166 297c0 61 -5 110 -14 150l-279 -370 c29 -56 73 -77 127 -77z"/>
    <glyph glyph-name="zero.tosf" d="M311 -15c-162 0 -259 111 -259 284c0 169 98 281 258 281c159 0 258 -114 258 -286c0 -168 -98 -279 -257 -279zM311 59c105 0 170 79 170 203c0 129 -65 211 -171 211s-171 -80 -171 -206c0 -129 64 -208 172 -208z"/>
    <glyph glyph-name="one.tosf" d="M376 77h171v-77h-441v77h185v323c-24 -33 -103 -56 -147 -56h-38v81h29c65 0 151 50 170 110h71v-458z"/>
    <glyph glyph-name="two.tosf" d="M68 52l127 78c174 107 226 163 226 246c0 61 -42 99 -110 99c-76 0 -124 -42 -124 -109c0 -21 1 -37 4 -50l-91 11c-2 15 -3 27 -3 39c0 108 88 184 213 184s200 -63 200 -168c0 -61 -26 -114 -81 -166c-44 -42 -106 -84 -207 -139h321v-77h-475v52z"/>
    <glyph glyph-name="three.tosf" d="M310 -165c-149 0 -239 79 -243 213l88 11c4 -98 59 -149 158 -149c94 0 149 56 149 127c0 77 -52 132 -152 132h-43v74h40c90 0 131 52 131 117c0 71 -44 115 -128 115c-92 0 -146 -60 -146 -161l-84 18c0 134 93 218 235 218c135 0 213 -75 213 -190 c0 -67 -48 -126 -120 -144c91 -16 144 -82 144 -179c0 -110 -94 -202 -242 -202z"/>
    <glyph glyph-name="four.tosf" d="M373 -150v181h-326v61l311 443h100v-434h114v-70h-114v-181h-85zM136 101h237v253c0 32 0 63 2 95h-2c-13 -28 -35 -64 -50 -86l-135 -196c-15 -21 -34 -47 -52 -66z"/>
    <glyph glyph-name="five.tosf" d="M308 -165c-123 0 -213 72 -231 185l93 11c14 -73 69 -119 140 -119c98 0 147 76 147 169c0 107 -53 168 -131 168c-75 5 -133 -42 -152 -116l-86 9l41 393h395v-78h-325l-28 -226c34 60 96 93 168 93c133 0 208 -91 208 -238c0 -136 -91 -251 -239 -251z"/>
    <glyph glyph-name="six.tosf" d="M332 464c131 0 215 -94 215 -237c0 -145 -93 -242 -229 -242c-166 0 -250 120 -250 347c0 242 92 378 259 378c115 0 191 -60 212 -172l-90 -20c-16 80 -57 117 -123 117c-110 0 -166 -94 -170 -271c32 63 97 100 176 100zM319 60c84 0 138 65 138 166 c0 99 -54 163 -142 163c-76 0 -132 -49 -156 -141c11 -114 70 -188 160 -188z"/>
    <glyph glyph-name="seven.tosf" d="M198 -150v10c0 207 89 403 243 592h-358v83h460v-70c-165 -181 -246 -392 -246 -598v-17h-99z"/>
    <glyph glyph-name="eight.tosf" d="M411 374c97 -38 138 -95 138 -188c0 -121 -93 -201 -236 -201c-146 0 -242 77 -242 195c0 95 46 157 135 185c-76 36 -109 87 -109 166c0 107 86 179 214 179c129 0 212 -69 212 -177c0 -79 -39 -134 -112 -159zM308 642c-75 0 -121 -42 -121 -111c0 -60 32 -96 108 -121 l34 -10c77 31 104 66 104 129c0 71 -46 113 -125 113zM313 57c92 0 146 48 146 129c0 64 -34 104 -113 131l-64 20c-87 -31 -120 -73 -120 -144c0 -82 60 -136 151 -136z"/>
    <glyph glyph-name="nine.tosf" d="M292 550c171 0 252 -120 252 -349c0 -206 -69 -366 -247 -366c-127 0 -204 65 -226 182l90 20c14 -76 51 -127 137 -127c112 0 154 110 156 278c-35 -60 -95 -89 -168 -89c-127 0 -223 77 -223 223c0 131 90 228 229 228zM295 174c75 0 141 56 157 131 c-10 83 -48 170 -161 170c-83 0 -138 -61 -138 -152c0 -93 59 -149 142 -149z"/>
    <glyph glyph-name="zero.tosf.zero" d="M310 550c159 0 258 -114 258 -286c0 -168 -98 -279 -257 -279c-162 0 -259 111 -259 284c0 169 98 281 258 281zM310 473c-106 0 -171 -80 -171 -206c0 -57 13 -105 36 -140l236 313c-27 21 -61 33 -101 33zM311 59c105 0 170 79 170 203c0 56 -12 103 -35 139l-235 -312 c27 -19 60 -30 100 -30z"/>
    <glyph glyph-name="zero.subs" horiz-adv-x="508" d="M254 -151c-134 0 -208 99 -208 264c0 166 74 265 208 265s208 -100 208 -265s-74 -264 -208 -264zM254 -90c84 0 129 75 129 203c0 129 -45 204 -129 204s-129 -75 -129 -204c0 -128 45 -203 129 -203z"/>
    <glyph glyph-name="one.subs" horiz-adv-x="325" d="M151 -140v390c-19 -24 -59 -39 -95 -39h-20v71h12c58 0 100 29 117 85h61v-507h-75z"/>
    <glyph glyph-name="two.subs" horiz-adv-x="444" d="M38 -140v59c142 92 273 191 273 301c0 60 -34 96 -93 96c-62 0 -98 -36 -98 -92c0 -14 2 -28 6 -44l-79 7c-3 14 -5 28 -5 42c0 91 68 149 179 149c108 0 171 -56 171 -154c0 -119 -125 -227 -249 -300h258v-64h-363z"/>
    <glyph glyph-name="three.subs" horiz-adv-x="458" d="M227 -151c-115 0 -188 62 -190 160l77 8c3 -66 45 -107 114 -107c68 0 106 34 106 95c0 55 -40 88 -112 88h-34v55h29c66 0 101 33 101 85c0 53 -35 85 -95 85c-67 0 -103 -40 -103 -109l-76 10c0 99 68 159 182 159c109 0 170 -51 170 -137c0 -58 -39 -104 -102 -116 c75 -10 119 -53 119 -124c0 -95 -71 -152 -186 -152z"/>
    <glyph glyph-name="four.subs" horiz-adv-x="453" d="M426 -15h-83v-125h-74v125h-250v53l239 329h85v-324h83v-58zM269 296l-178 -253h178v253z"/>
    <glyph glyph-name="five.subs" horiz-adv-x="456" d="M225 -151c-98 0 -167 53 -180 137l76 10c10 -51 47 -85 105 -85c69 0 111 45 111 117s-39 118 -107 118c-53 0 -92 -31 -104 -80l-72 7l30 294h303v-62h-245l-18 -166c25 43 68 66 127 66c101 0 163 -66 163 -174c0 -110 -73 -182 -189 -182z"/>
    <glyph glyph-name="six.subs" horiz-adv-x="460" d="M259 201c98 0 163 -67 163 -173c0 -104 -73 -179 -181 -179c-125 0 -199 86 -199 257c0 168 72 272 201 272c97 0 155 -44 170 -130l-74 -13c-12 53 -42 83 -97 83c-81 0 -125 -73 -125 -202c23 56 76 85 142 85zM241 -90c65 0 106 46 106 115c0 71 -43 116 -108 116 c-57 0 -101 -35 -117 -97c13 -89 53 -134 119 -134z"/>
    <glyph glyph-name="seven.subs" horiz-adv-x="404" d="M112 -140v8c0 161 73 308 191 433h-273v66h353v-60c-117 -120 -185 -262 -185 -431v-16h-86z"/>
    <glyph glyph-name="eight.subs" horiz-adv-x="468" d="M313 135c81 -26 116 -69 116 -140c0 -89 -75 -146 -195 -146s-195 55 -195 141c0 68 37 111 112 131c-67 25 -95 62 -95 124c0 80 70 133 175 133c108 0 176 -50 176 -127c0 -59 -30 -97 -94 -116zM231 323c-62 0 -100 -30 -100 -78c0 -43 27 -69 92 -86l30 -8 c59 20 80 45 80 90c0 52 -38 82 -102 82zM235 -93c72 0 116 35 116 90c0 47 -30 76 -100 95l-41 11c-64 -20 -92 -52 -92 -101c0 -59 45 -95 117 -95z"/>
    <glyph glyph-name="nine.subs" horiz-adv-x="460" d="M220 378c127 0 198 -83 198 -257c0 -162 -60 -272 -197 -272c-98 0 -159 47 -174 134l74 13c10 -50 41 -86 103 -86c77 0 116 72 119 198c-28 -43 -79 -63 -135 -63c-101 0 -170 62 -170 164c0 98 69 169 182 169zM220 104c53 0 100 28 121 73c-9 89 -42 142 -120 142 c-66 0 -109 -44 -109 -108c0 -65 45 -107 108 -107z"/>
    <glyph glyph-name="zero.dnom" horiz-adv-x="407" d="M204 -8c-106 0 -168 72 -168 199c0 126 62 199 167 199s168 -73 168 -201c0 -125 -62 -197 -167 -197zM204 47c58 0 93 49 93 142c0 95 -35 146 -94 146c-58 0 -93 -51 -93 -144c0 -95 34 -144 94 -144z"/>
    <glyph glyph-name="one.dnom" horiz-adv-x="266" d="M119 0v284c-18 -21 -48 -35 -81 -35h-11v65h8c50 0 82 23 97 67h57v-381h-70z"/>
    <glyph glyph-name="two.dnom" horiz-adv-x="365" d="M33 0v52c118 71 216 132 216 214c0 44 -24 68 -68 68c-47 0 -74 -24 -74 -68c0 -9 2 -18 5 -29l-74 6c-2 9 -3 21 -3 31c0 72 56 116 149 116c88 0 140 -43 140 -117c0 -93 -102 -172 -194 -219h202v-54h-299z"/>
    <glyph glyph-name="three.dnom" horiz-adv-x="370" d="M183 -8c-94 0 -151 47 -152 123l72 6c1 -47 31 -75 80 -75c50 0 77 22 77 65c0 36 -28 56 -80 56h-38v51h35c45 0 74 23 74 57c0 40 -25 62 -70 62c-47 0 -77 -28 -77 -75l-71 6c0 75 58 122 152 122c88 0 139 -40 139 -107c0 -44 -34 -80 -84 -86c58 -6 96 -41 96 -93 c0 -70 -59 -112 -153 -112z"/>
    <glyph glyph-name="four.dnom" horiz-adv-x="377" d="M347 89h-62v-89h-69v89h-194v51l187 241h76v-240h62v-52zM216 315l-135 -174h135v174z"/>
    <glyph glyph-name="five.dnom" horiz-adv-x="366" d="M182 -8c-82 0 -138 39 -149 103l68 11c7 -38 37 -60 78 -60c52 0 83 32 83 83c0 50 -30 81 -78 81c-38 0 -71 -23 -80 -56l-62 5l25 222h245v-55h-195l-13 -115c19 31 53 48 101 48c79 0 127 -49 127 -128c0 -87 -57 -139 -150 -139z"/>
    <glyph glyph-name="six.dnom" horiz-adv-x="379" d="M219 258c74 0 126 -48 126 -130c0 -77 -56 -136 -146 -136c-99 0 -163 65 -163 195c0 120 57 203 161 203c82 0 128 -36 140 -104l-66 -8c-8 35 -30 59 -76 59c-59 0 -92 -56 -92 -150v-1c19 49 62 72 116 72zM197 44c52 0 82 33 82 80c0 51 -33 85 -82 85 c-43 0 -78 -27 -91 -70c9 -61 38 -95 91 -95z"/>
    <glyph glyph-name="seven.dnom" horiz-adv-x="338" d="M30 324v57h286v-56c-85 -79 -141 -174 -143 -314v-11h-78v5c3 127 61 237 152 319h-217z"/>
    <glyph glyph-name="eight.dnom" horiz-adv-x="378" d="M253 209c58 -16 94 -46 94 -107c0 -68 -61 -110 -160 -110c-98 0 -156 40 -156 105c0 48 27 77 89 93c-50 17 -79 45 -79 96c0 62 58 104 143 104c87 0 146 -35 146 -95c0 -44 -23 -69 -77 -86zM185 342c-46 0 -77 -21 -77 -56s27 -51 74 -61l27 -6c40 14 54 31 54 63 c0 37 -29 60 -78 60zM189 43c53 0 86 23 86 61c0 41 -32 58 -79 68l-29 7c-44 -15 -64 -38 -64 -72c0 -40 31 -64 86 -64z"/>
    <glyph glyph-name="nine.dnom" horiz-adv-x="378" d="M182 390c99 0 160 -59 160 -195c0 -129 -52 -203 -162 -203c-78 0 -127 35 -138 101l66 11c8 -35 31 -58 77 -58c55 0 87 44 91 136c-25 -31 -66 -48 -109 -48c-81 0 -133 53 -133 126c0 74 53 130 148 130zM182 184c39 0 73 19 92 55c-7 67 -36 100 -91 100 c-52 0 -83 -32 -83 -77c0 -46 32 -78 82 -78z"/>
    <glyph glyph-name="zero.numr" horiz-adv-x="407" d="M204 322c-106 0 -168 72 -168 199c0 126 62 199 167 199s168 -73 168 -201c0 -125 -62 -197 -167 -197zM204 377c58 0 93 49 93 142c0 95 -35 146 -94 146c-58 0 -93 -51 -93 -144c0 -95 34 -144 94 -144z"/>
    <glyph glyph-name="one.numr" horiz-adv-x="266" d="M119 330v284c-18 -21 -48 -35 -81 -35h-11v65h8c50 0 82 23 97 67h57v-381h-70z"/>
    <glyph glyph-name="two.numr" horiz-adv-x="365" d="M33 330v52c118 71 216 132 216 214c0 44 -24 68 -68 68c-47 0 -74 -24 -74 -68c0 -9 2 -18 5 -29l-74 6c-2 9 -3 21 -3 31c0 72 56 116 149 116c88 0 140 -43 140 -117c0 -93 -102 -172 -194 -219h202v-54h-299z"/>
    <glyph glyph-name="three.numr" horiz-adv-x="370" d="M183 322c-94 0 -151 47 -152 123l72 6c1 -47 31 -75 80 -75c50 0 77 22 77 65c0 36 -28 56 -80 56h-38v51h35c45 0 74 23 74 57c0 40 -25 62 -70 62c-47 0 -77 -28 -77 -75l-71 6c0 75 58 122 152 122c88 0 139 -40 139 -107c0 -44 -34 -80 -84 -86c58 -6 96 -41 96 -93 c0 -70 -59 -112 -153 -112z"/>
    <glyph glyph-name="four.numr" horiz-adv-x="377" d="M347 419h-62v-89h-69v89h-194v51l187 241h76v-240h62v-52zM216 645l-135 -174h135v174z"/>
    <glyph glyph-name="five.numr" horiz-adv-x="366" d="M182 322c-82 0 -138 39 -149 103l68 11c7 -38 37 -60 78 -60c52 0 83 32 83 83c0 50 -30 81 -78 81c-38 0 -71 -23 -80 -56l-62 5l25 222h245v-55h-195l-13 -115c19 31 53 48 101 48c79 0 127 -49 127 -128c0 -87 -57 -139 -150 -139z"/>
    <glyph glyph-name="six.numr" horiz-adv-x="379" d="M219 588c74 0 126 -48 126 -130c0 -77 -56 -136 -146 -136c-99 0 -163 65 -163 195c0 120 57 203 161 203c82 0 128 -36 140 -104l-66 -8c-8 35 -30 59 -76 59c-59 0 -92 -56 -92 -150v-1c19 49 62 72 116 72zM197 374c52 0 82 33 82 80c0 51 -33 85 -82 85 c-43 0 -78 -27 -91 -70c9 -61 38 -95 91 -95z"/>
    <glyph glyph-name="seven.numr" horiz-adv-x="338" d="M30 654v57h286v-56c-85 -79 -141 -174 -143 -314v-11h-78v5c3 127 61 237 152 319h-217z"/>
    <glyph glyph-name="eight.numr" horiz-adv-x="378" d="M253 539c58 -16 94 -46 94 -107c0 -68 -61 -110 -160 -110c-98 0 -156 40 -156 105c0 48 27 77 89 93c-50 17 -79 45 -79 96c0 62 58 104 143 104c87 0 146 -35 146 -95c0 -44 -23 -69 -77 -86zM185 672c-46 0 -77 -21 -77 -56s27 -51 74 -61l27 -6c40 14 54 31 54 63 c0 37 -29 60 -78 60zM189 373c53 0 86 23 86 61c0 41 -32 58 -79 68l-29 7c-44 -15 -64 -38 -64 -72c0 -40 31 -64 86 -64z"/>
    <glyph glyph-name="nine.numr" horiz-adv-x="378" d="M182 720c99 0 160 -59 160 -195c0 -129 -52 -203 -162 -203c-78 0 -127 35 -138 101l66 11c8 -35 31 -58 77 -58c55 0 87 44 91 136c-25 -31 -66 -48 -109 -48c-81 0 -133 53 -133 126c0 74 53 130 148 130zM182 514c39 0 73 19 92 55c-7 67 -36 100 -91 100 c-52 0 -83 -32 -83 -77c0 -46 32 -78 82 -78z"/>
    <glyph glyph-name="zero.sups" horiz-adv-x="508" d="M254 299c-134 0 -208 99 -208 264c0 166 74 265 208 265s208 -100 208 -265s-74 -264 -208 -264zM254 360c84 0 129 75 129 203c0 129 -45 204 -129 204s-129 -75 -129 -204c0 -128 45 -203 129 -203z"/>
    <glyph glyph-name="one.sups" horiz-adv-x="325" d="M151 310v390c-19 -24 -59 -39 -95 -39h-20v71h12c58 0 100 29 117 85h61v-507h-75z"/>
    <glyph glyph-name="two.sups" horiz-adv-x="444" d="M38 310v59c142 92 273 191 273 301c0 60 -34 96 -93 96c-62 0 -98 -36 -98 -92c0 -14 2 -28 6 -44l-79 7c-3 14 -5 28 -5 42c0 91 68 149 179 149c108 0 171 -56 171 -154c0 -119 -125 -227 -249 -300h258v-64h-363z"/>
    <glyph glyph-name="three.sups" horiz-adv-x="458" d="M227 299c-115 0 -188 62 -190 160l77 8c3 -66 45 -107 114 -107c68 0 106 34 106 95c0 55 -40 88 -112 88h-34v55h29c66 0 101 33 101 85c0 53 -35 85 -95 85c-67 0 -103 -40 -103 -109l-76 10c0 99 68 159 182 159c109 0 170 -51 170 -137c0 -58 -39 -104 -102 -116 c75 -10 119 -53 119 -124c0 -95 -71 -152 -186 -152z"/>
    <glyph glyph-name="four.sups" horiz-adv-x="453" d="M426 435h-83v-125h-74v125h-250v53l239 329h85v-324h83v-58zM269 746l-178 -253h178v253z"/>
    <glyph glyph-name="five.sups" horiz-adv-x="456" d="M225 299c-98 0 -167 53 -180 137l76 10c10 -51 47 -85 105 -85c69 0 111 45 111 117s-39 118 -107 118c-53 0 -92 -31 -104 -80l-72 7l30 294h303v-62h-245l-18 -166c25 43 68 66 127 66c101 0 163 -66 163 -174c0 -110 -73 -182 -189 -182z"/>
    <glyph glyph-name="six.sups" horiz-adv-x="460" d="M259 651c98 0 163 -67 163 -173c0 -104 -73 -179 -181 -179c-125 0 -199 86 -199 257c0 168 72 272 201 272c97 0 155 -44 170 -130l-74 -13c-12 53 -42 83 -97 83c-81 0 -125 -73 -125 -202c23 56 76 85 142 85zM241 360c65 0 106 46 106 115c0 71 -43 116 -108 116 c-57 0 -101 -35 -117 -97c13 -89 53 -134 119 -134z"/>
    <glyph glyph-name="seven.sups" horiz-adv-x="404" d="M112 310v8c0 161 73 308 191 433h-273v66h353v-60c-117 -120 -185 -262 -185 -431v-16h-86z"/>
    <glyph glyph-name="eight.sups" horiz-adv-x="468" d="M313 585c81 -26 116 -69 116 -140c0 -89 -75 -146 -195 -146s-195 55 -195 141c0 68 37 111 112 131c-67 25 -95 62 -95 124c0 80 70 133 175 133c108 0 176 -50 176 -127c0 -59 -30 -97 -94 -116zM231 773c-62 0 -100 -30 -100 -78c0 -43 27 -69 92 -86l30 -8 c59 20 80 45 80 90c0 52 -38 82 -102 82zM235 357c72 0 116 35 116 90c0 47 -30 76 -100 95l-41 11c-64 -20 -92 -52 -92 -101c0 -59 45 -95 117 -95z"/>
    <glyph glyph-name="nine.sups" horiz-adv-x="460" d="M220 828c127 0 198 -83 198 -257c0 -162 -60 -272 -197 -272c-98 0 -159 47 -174 134l74 13c10 -50 41 -86 103 -86c77 0 116 72 119 198c-28 -43 -79 -63 -135 -63c-101 0 -170 62 -170 164c0 98 69 169 182 169zM220 554c53 0 100 28 121 73c-9 89 -42 142 -120 142 c-66 0 -109 -44 -109 -108c0 -65 45 -107 108 -107z"/>
    <glyph glyph-name="colon.case" horiz-adv-x="257" d="M187 550v-118h-117v118h117zM187 118v-118h-117v118h117z"/>
    <glyph glyph-name="semicolon.case" horiz-adv-x="257" d="M187 550v-118h-117v118h117zM97 -140l-23 44c50 22 60 44 60 93v3h-64v118h117v-111c0 -80 -21 -118 -90 -147z"/>
    <glyph glyph-name="exclamdown.case" horiz-adv-x="310" d="M208 619h-106v106h106v-106zM125 543h60l25 -543h-110z"/>
    <glyph glyph-name="questiondown.case" horiz-adv-x="468" d="M294 720v-106h-105v106h105zM285 534v-42c0 -33 -2 -77 -57 -128l-49 -46c-34 -32 -69 -72 -69 -135c0 -68 45 -112 125 -112c78 0 133 48 133 134c0 14 0 25 -6 53l91 -11c5 -26 5 -43 5 -54c0 -116 -78 -200 -226 -200c-136 0 -217 68 -217 190c0 71 47 131 94 175 l50 47c30 28 41 53 41 101v28h85z"/>
    <glyph glyph-name="periodcentered.case" horiz-adv-x="257" d="M187 436v-118h-117v118h117z"/>
    <glyph glyph-name="bullet.case" horiz-adv-x="329" d="M164 283c-54 0 -94 37 -94 92c0 57 40 95 94 95c55 0 95 -37 95 -95c0 -55 -40 -92 -95 -92z"/>
    <glyph glyph-name="slash.case" horiz-adv-x="451" d="M124 -87h-79l282 877h79z"/>
    <glyph glyph-name="backslash.case" horiz-adv-x="451" d="M327 -87l-282 877h79l282 -877h-79z"/>
    <glyph glyph-name="asterisk.ss04" horiz-adv-x="295" d="M148 710l-31 -93h-97l79 -57l-30 -93l79 57l79 -57l-31 93l79 57h-97z"/>
    <glyph glyph-name="period.tf" horiz-adv-x="310" d="M213 118v-118h-117v118h117z"/>
    <glyph glyph-name="comma.tf" horiz-adv-x="310" d="M123 -140l-23 44c50 22 60 44 60 93v3h-64v118h117v-111c0 -80 -21 -118 -90 -147z"/>
    <glyph glyph-name="colon.tf" horiz-adv-x="310" d="M213 500v-118h-117v118h117zM213 118v-118h-117v118h117z"/>
    <glyph glyph-name="semicolon.tf" horiz-adv-x="310" d="M213 500v-118h-117v118h117zM123 -140l-23 44c50 22 60 44 60 93v3h-64v118h117v-111c0 -80 -21 -118 -90 -147z"/>
    <glyph glyph-name="slash.tf" d="M208 -117h-79l282 877h79z"/>
    <glyph glyph-name="parenleft.case" horiz-adv-x="306" d="M234 -110c-107 128 -174 297 -174 469s69 335 176 453l60 -36c-105 -137 -150 -263 -150 -420s45 -287 150 -428z"/>
    <glyph glyph-name="parenright.case" horiz-adv-x="306" d="M72 -110l-62 38c105 141 150 271 150 428s-45 283 -150 420l60 36c107 -118 176 -281 176 -453s-67 -341 -174 -469z"/>
    <glyph glyph-name="braceleft.case" horiz-adv-x="354" d="M269 -86c-86 0 -139 58 -139 141v160c0 62 -4 108 -70 110v68c66 2 69 40 69 106v160c0 82 57 142 156 142h26v-61h-16c-58 0 -86 -39 -86 -92v-139c0 -68 -12 -128 -72 -149c60 -25 71 -90 71 -156v-138c0 -55 29 -91 81 -91h25v-61h-45z"/>
    <glyph glyph-name="braceright.case" horiz-adv-x="354" d="M85 -86h-45v61h25c52 0 81 36 81 91v138c0 66 11 131 71 156c-60 21 -72 81 -72 149v139c0 53 -28 92 -86 92h-16v61h26c99 0 156 -60 156 -142v-160c0 -66 3 -104 69 -106v-68c-66 -2 -70 -48 -70 -110v-160c0 -83 -53 -141 -139 -141z"/>
    <glyph glyph-name="bracketleft.case" horiz-adv-x="333" d="M100 -74v871h193v-70h-117v-731h117v-70h-193z"/>
    <glyph glyph-name="bracketright.case" horiz-adv-x="333" d="M233 -74h-193v70h117v731h-117v70h193v-871z"/>
    <glyph glyph-name="parenleft.tf" d="M366 -140c-107 128 -174 297 -174 469s69 335 176 453l60 -36c-105 -137 -150 -263 -150 -420s45 -287 150 -428z"/>
    <glyph glyph-name="parenright.tf" d="M254 -140l-62 38c105 141 150 271 150 428s-45 283 -150 420l60 36c107 -118 176 -281 176 -453s-67 -341 -174 -469z"/>
    <glyph glyph-name="hyphen.case" horiz-adv-x="389" d="M50 398h289v-80h-289v80z"/>
    <glyph glyph-name="endash.case" horiz-adv-x="512" d="M50 390h412v-64h-412v64z"/>
    <glyph glyph-name="emdash.case" horiz-adv-x="795" d="M50 390h695v-64h-695v64z"/>
    <glyph glyph-name="underscore.case" horiz-adv-x="427" d="M0 -17h427v-60h-427v60z"/>
    <glyph glyph-name="hyphen.tf" d="M115 318h389v-80h-389v80z"/>
    <glyph glyph-name="underscore.tf" d="M0 -97h620v-60h-620v60z"/>
    <glyph glyph-name="guillemotleft.case" horiz-adv-x="503" d="M201 147l-171 208l171 208h90l-165 -208l165 -208h-90zM393 147l-171 208l171 208h90l-165 -208l165 -208h-90z"/>
    <glyph glyph-name="guillemotright.case" horiz-adv-x="503" d="M110 147h-90l165 208l-165 208h90l171 -208zM302 147h-90l165 208l-165 208h90l171 -208z"/>
    <glyph glyph-name="guilsinglleft.case" horiz-adv-x="311" d="M201 147l-171 208l171 208h90l-165 -208l165 -208h-90z"/>
    <glyph glyph-name="guilsinglright.case" horiz-adv-x="311" d="M110 147h-90l165 208l-165 208h90l171 -208z"/>
    <glyph glyph-name="parenleft.subs" horiz-adv-x="265" d="M196 -239c-79 92 -128 213 -128 339c0 127 50 240 129 327l57 -23c-78 -96 -113 -190 -113 -305s35 -214 113 -314z"/>
    <glyph glyph-name="parenright.subs" horiz-adv-x="265" d="M69 -239l-58 25c78 99 113 198 113 313s-35 209 -113 305l57 23c79 -87 129 -200 129 -327c0 -125 -49 -247 -128 -339z"/>
    <glyph glyph-name="parenleft.sups" horiz-adv-x="265" d="M196 211c-79 92 -128 214 -128 339c0 127 50 240 129 327l57 -23c-78 -96 -113 -190 -113 -305s35 -214 113 -313z"/>
    <glyph glyph-name="parenright.sups" horiz-adv-x="265" d="M69 211l-58 25c78 99 113 198 113 313s-35 209 -113 305l57 23c79 -87 129 -200 129 -327c0 -125 -49 -247 -128 -339z"/>
    <glyph glyph-name="uni0E3F" unicode="฿" horiz-adv-x="653" d="M459 362c90 -15 139 -73 139 -167c0 -123 -87 -195 -235 -195h-13v-107h-53v107h-197v695h197v91h53v-91c144 -2 228 -68 228 -179c0 -79 -43 -134 -119 -154zM190 618v-225h107v225h-107zM484 509c0 69 -46 107 -134 109v-225c87 2 134 43 134 116zM190 77h107v244h-107 v-244zM358 77c94 0 146 45 146 127c0 74 -50 117 -136 117h-18v-244h8z"/>
    <glyph glyph-name="uni20BA" unicode="₺" horiz-adv-x="560" d="M464 242l81 -19c-23 -101 -86 -223 -273 -223h-171v269l-71 -21v67l71 21v78l-71 -21v67l71 21v214h90v-188l247 73v-67l-247 -73v-78l247 73v-67l-247 -73v-215h67c137 0 183 84 206 162z"/>
    <glyph glyph-name="uni20BD" unicode="₽" horiz-adv-x="573" d="M312 285h-116v-84h167v-60h-167v-141h-90v141h-71v60h71v84h-70v65h70v345h206c148 0 241 -79 241 -205s-93 -205 -241 -205zM196 615v-265h111c93 0 153 53 153 135c0 79 -60 130 -153 130h-111z"/>
    <glyph glyph-name="uni20B9" unicode="₹" horiz-adv-x="541" d="M531 695v-65h-175c39 -25 63 -62 70 -111h105v-60h-105c-12 -111 -101 -175 -245 -175l239 -284h-107l-243 296v57h122c84 0 134 37 144 106h-266v60h266c-12 71 -63 111 -144 111h-122v65h461z"/>
    <glyph glyph-name="uni20A9" unicode="₩" horiz-adv-x="882" d="M862 695l-58 -238h53v-56h-66l-21 -85h87v-56h-101l-63 -260h-106l-64 260h-164l-64 -260h-106l-63 260h-101v56h87l-21 85h-66v56h53l-58 238h92l51 -238h174l61 238h86l61 -238h174l51 238h92zM415 485l-7 -28h66l-7 28c-11 46 -18 90 -24 137h-4 c-6 -47 -13 -91 -24 -137zM176 401l18 -85h106l22 85h-146zM373 316h136l-21 85h-94zM688 316l18 85h-146l22 -85h106zM266 182l20 78h-80l16 -74c10 -45 14 -64 19 -112h3c6 51 12 70 22 108zM660 186l16 74h-80l20 -78c10 -38 16 -57 22 -108h3c5 48 9 67 19 112z"/>
    <glyph glyph-name="uni0E3F.case" horiz-adv-x="653" d="M459 372c90 -15 139 -73 139 -167c0 -129 -87 -205 -235 -205h-13v-87h-53v87h-197v710h197v76h53v-76c144 -2 228 -70 228 -184c0 -79 -43 -134 -119 -154zM190 633v-230h107v230h-107zM484 519c0 72 -46 112 -134 114v-230c87 2 134 43 134 116zM190 77h107v254h-107 v-254zM358 77c94 0 146 49 146 137c0 74 -50 117 -136 117h-18v-254h8z"/>
    <glyph glyph-name="currency.case" horiz-adv-x="548" d="M499 353c0 -59 -18 -110 -49 -148l53 -59l-40 -36l-53 57c-36 -25 -81 -40 -132 -40c-53 0 -100 16 -137 43l-56 -61l-40 36l58 63c-30 39 -47 88 -47 145s17 107 47 146l-58 63l40 36l58 -61c36 27 83 42 135 42c50 0 94 -14 130 -39l55 59l40 -36l-55 -60 c32 -39 51 -91 51 -150zM278 198c84 0 143 64 143 155s-59 155 -143 155s-144 -64 -144 -155s60 -155 144 -155z"/>
    <glyph glyph-name="dollar.case" horiz-adv-x="609" d="M569 193c0 -115 -88 -199 -231 -209v-71h-60v71c-129 10 -222 81 -248 215l92 18c28 -97 80 -143 156 -154v273l-17 4c-139 30 -198 90 -198 198c0 104 86 179 215 188v74h60v-74c114 -11 193 -74 216 -185l-91 -26c-18 73 -57 120 -125 133v-235l9 -2 c151 -32 222 -92 222 -218zM157 538c0 -57 33 -90 121 -112v225c-73 -5 -121 -43 -121 -113zM338 62c85 7 137 53 137 131c0 72 -38 105 -137 130v-261z"/>
    <glyph glyph-name="Euro.case" horiz-adv-x="647" d="M559 181l68 -47c-51 -91 -137 -149 -256 -149c-172 0 -267 114 -296 273h-60v60h52c-1 17 -2 34 -2 52c0 11 0 22 1 33h-51v60h57c27 164 128 264 300 264c120 0 193 -44 249 -135l-72 -51c-39 64 -92 107 -184 107c-111 0 -178 -70 -200 -185h346v-60h-353 c-1 -10 -1 -21 -1 -32c0 -18 1 -36 2 -53h352v-60h-342c27 -117 98 -194 205 -194c73 0 138 38 185 117z"/>
    <glyph glyph-name="uni20BA.case" horiz-adv-x="560" d="M464 242l81 -19c-23 -101 -86 -223 -273 -223h-171v269l-71 -21v67l71 21v78l-71 -21v67l71 21v229h90v-203l247 73v-67l-247 -73v-78l247 73v-67l-247 -73v-215h67c137 0 183 84 206 162z"/>
    <glyph glyph-name="uni20BD.case" horiz-adv-x="573" d="M312 290h-116v-89h167v-60h-167v-141h-90v141h-71v60h71v89h-70v65h70v355h206c148 0 241 -78 241 -210c0 -126 -93 -210 -241 -210zM196 630v-275h111c93 0 153 58 153 140c0 85 -60 135 -153 135h-111z"/>
    <glyph glyph-name="uni20B9.case" horiz-adv-x="541" d="M531 710v-65h-177c43 -28 68 -70 73 -126h104v-60h-106c-15 -112 -103 -175 -244 -175l239 -284h-107l-243 296v57h122c82 0 131 37 143 106h-265v60h267c-8 81 -60 126 -145 126h-122v65h461z"/>
    <glyph glyph-name="sterling.case" horiz-adv-x="607" d="M517 171l80 -16c-15 -106 -81 -170 -177 -170c-89 0 -127 26 -228 26c-47 0 -102 -7 -153 -19l-19 63c95 32 142 93 142 186c0 35 -3 64 -7 91h-110v63h99c-8 39 -15 77 -15 123c0 127 79 209 212 209c110 0 181 -52 206 -151l-88 -22c-16 65 -55 98 -119 98 c-79 0 -116 -47 -116 -131c0 -47 7 -86 15 -126h189v-63h-179c3 -23 5 -46 5 -73c0 -87 -31 -143 -100 -180c20 5 41 7 74 7c73 0 118 -17 191 -17c54 0 90 37 98 102z"/>
    <glyph glyph-name="uni0E3F.tf.case" d="M421 366c87 -14 138 -75 138 -165c0 -134 -86 -201 -224 -201h-9v-87h-53v87h-177v710h177v76h53v-76c131 -4 213 -65 213 -185c0 -76 -44 -136 -118 -159zM273 635h-93v-238h93v238zM449 518c0 84 -42 114 -123 117v-238c81 4 123 46 123 121zM180 75h93v247h-93v-247z M329 75c90 0 140 37 140 135c0 72 -47 112 -130 112h-13v-247h3z"/>
    <glyph glyph-name="currency.tf.case" d="M535 353c0 -59 -18 -110 -49 -148l53 -59l-40 -36l-53 57c-36 -25 -81 -40 -132 -40c-53 0 -100 16 -137 43l-56 -61l-40 36l58 63c-30 39 -47 88 -47 145s17 107 47 146l-58 63l40 36l58 -61c36 27 83 42 135 42c50 0 94 -14 130 -39l55 59l40 -36l-55 -60 c32 -39 51 -91 51 -150zM314 198c84 0 143 64 143 155s-59 155 -143 155s-144 -64 -144 -155s60 -155 144 -155z"/>
    <glyph glyph-name="dollar.tf.case" d="M558 190c0 -127 -85 -200 -218 -205v-72h-45v73c-131 11 -215 92 -234 226l90 18c19 -103 66 -156 144 -167v262l-34 8c-115 29 -177 98 -177 197c0 117 83 190 211 197v73h45v-74c117 -8 200 -74 212 -203l-89 -26c-8 97 -50 145 -123 156v-252l34 -9 c124 -31 184 -85 184 -202zM290 413l5 -1v243c-75 -4 -126 -42 -126 -119c0 -70 48 -105 121 -123zM340 60c81 2 133 42 133 126c0 69 -41 104 -124 125l-9 2v-253z"/>
    <glyph glyph-name="Euro.tf.case" d="M525 176l66 -47c-45 -88 -123 -144 -230 -144c-152 0 -246 103 -273 273h-91v60h84c-1 15 -1 31 -1 47c0 13 0 26 1 38h-84v60h90c27 173 129 264 284 264c106 0 172 -48 219 -130l-70 -56c-31 59 -78 107 -156 107c-95 0 -162 -57 -184 -185h272v-60h-278 c-1 -12 -1 -24 -1 -37c0 -17 1 -33 2 -48h277v-60h-270c23 -132 92 -194 181 -194c64 0 121 36 162 112z"/>
    <glyph glyph-name="uni20BA.tf.case" d="M482 242l81 -19c-21 -101 -80 -223 -253 -223h-161v272l-71 -22v67l71 22v78l-71 -22v67l71 22v226h90v-199l217 66v-67l-217 -66v-78l217 66v-67l-217 -66v-219h57c124 0 165 84 186 162z"/>
    <glyph glyph-name="uni20BD.tf.case" d="M334 290h-106v-89h157v-60h-157v-141h-90v141h-71v60h71v89h-70v65h70v355h196c149 0 241 -79 241 -208c0 -128 -95 -212 -241 -212zM228 630v-275h101c91 0 153 57 153 142c0 82 -58 133 -153 133h-101z"/>
    <glyph glyph-name="uni20B9.tf.case" d="M572 710v-65h-216c42 -27 66 -69 72 -126h144v-60h-145c-14 -109 -94 -175 -225 -175l239 -284h-107l-243 296v57h102c82 0 132 39 143 106h-245v60h247c-10 80 -61 126 -145 126h-102v65h481z"/>
    <glyph glyph-name="sterling.tf.case" d="M499 171l80 -16c-18 -130 -103 -170 -177 -170c-77 0 -110 26 -198 26c-53 0 -108 -8 -153 -19l-19 63c84 28 142 83 142 186c0 34 -3 64 -7 91h-110v63h97c-10 43 -19 84 -19 132c0 130 86 200 205 200c108 0 176 -56 199 -152l-88 -22c-15 65 -53 99 -112 99 c-66 0 -109 -35 -109 -122c0 -48 9 -91 19 -135h171v-63h-160c4 -23 6 -47 6 -73c0 -98 -40 -148 -100 -180c28 7 54 7 74 7c62 0 100 -17 161 -17c42 0 88 22 98 102z"/>
    <glyph glyph-name="uni20A9.tf.case" d="M579 406h-39l-8 -75h47v-55h-52l-28 -276h-114l-33 276h-85l-33 -276h-114l-28 276h-52v55h47l-8 75h-39v55h34l-25 249h74l21 -249h85l32 249h97l32 -249h85l21 249h74l-25 -249h34v-55zM301 564l-12 -103h41l-12 103c-3 26 -5 42 -6 68h-5c-1 -26 -3 -42 -6 -68z M149 406l7 -75h57l9 75h-73zM273 331h73l-9 75h-55zM463 331l7 75h-73l9 -75h57zM187 128l19 148h-46l13 -148c2 -23 4 -39 4 -49h4c2 18 4 36 6 49zM446 128l13 148h-46l19 -148c2 -13 4 -31 6 -49h4c0 10 2 26 4 49z"/>
    <glyph glyph-name="yen.tf.case" d="M573 710l-218 -361h186v-60h-186v-86h186v-60h-186v-143h-90v143h-186v60h186v86h-186v60h186l-218 361h101l132 -229c17 -30 22 -42 29 -64h2c7 22 12 34 29 64l132 229h101z"/>
    <glyph glyph-name="uni20A9.case" horiz-adv-x="882" d="M862 710l-60 -253h55v-56h-69l-20 -85h89v-56h-102l-62 -260h-106l-62 260h-168l-62 -260h-106l-62 260h-102v56h89l-20 85h-69v56h55l-60 253h92l53 -253h170l63 253h86l63 -253h170l53 253h92zM415 500l-10 -43h72l-10 43c-11 46 -18 90 -24 137h-4 c-6 -47 -13 -91 -24 -137zM177 401l18 -85h105l21 85h-144zM371 316h140l-20 85h-100zM687 316l18 85h-144l22 -85h104zM266 182l20 78h-80l16 -74c9 -45 14 -64 19 -112h3c6 51 12 70 22 108zM660 186l16 74h-79l19 -78c10 -38 16 -57 22 -108h3c5 48 10 67 19 112z"/>
    <glyph glyph-name="yen.case" horiz-adv-x="525" d="M525 710l-213 -354h171v-60h-175v-63h175v-60h-175v-173h-91v173h-175v60h175v63h-175v60h171l-213 354h101l112 -195c18 -31 33 -57 48 -95h3c15 38 30 64 48 95l112 195h101z"/>
    <glyph glyph-name="uni0E3F.tf" d="M421 356c87 -14 138 -75 138 -165c0 -127 -86 -191 -224 -191h-9v-107h-53v107h-177v695h177v91h53v-91c131 -4 213 -63 213 -180c0 -76 -44 -136 -118 -159zM273 620h-93v-233h93v233zM449 508c0 80 -42 109 -123 112v-233c81 4 123 46 123 121zM180 75h93v237h-93v-237 zM329 75c90 0 140 34 140 125c0 72 -47 112 -130 112h-13v-237h3z"/>
    <glyph glyph-name="currency.tf" d="M535 303c0 -59 -18 -110 -49 -148l53 -59l-40 -36l-53 57c-36 -25 -81 -40 -132 -40c-53 0 -100 16 -137 43l-56 -61l-40 36l58 63c-30 39 -47 88 -47 145s17 107 47 146l-58 63l40 36l58 -61c36 27 83 42 135 42c50 0 94 -14 130 -39l55 59l40 -36l-55 -60 c32 -39 51 -91 51 -150zM314 148c84 0 143 64 143 155s-59 155 -143 155s-144 -64 -144 -155s60 -155 144 -155z"/>
    <glyph glyph-name="uni20BA.tf" d="M482 242l81 -19c-21 -101 -80 -223 -253 -223h-161v272l-71 -22v67l71 22v78l-71 -22v67l71 22v211h90v-184l217 66v-67l-217 -66v-78l217 66v-67l-217 -66v-219h57c124 0 165 84 186 162z"/>
    <glyph glyph-name="uni20BD.tf" d="M334 285h-106v-84h157v-60h-157v-141h-90v141h-71v60h71v84h-70v65h70v345h196c187 0 241 -113 241 -205s-54 -205 -241 -205zM228 615v-265h101c118 0 153 75 153 135c0 58 -35 130 -153 130h-101z"/>
    <glyph glyph-name="uni20B9.tf" d="M572 695v-65h-215c39 -25 63 -62 70 -111h145v-60h-144c-12 -111 -93 -175 -226 -175l239 -284h-107l-243 296v57h102c84 0 134 37 144 106h-246v60h246c-12 71 -63 111 -144 111h-102v65h481z"/>
    <glyph glyph-name="uni20A9.tf" d="M579 406h-39l-7 -75h46v-55h-52l-28 -276h-114l-34 276h-83l-34 -276h-114l-28 276h-52v55h46l-7 75h-39v55h33l-24 234h74l21 -234h86l31 234h97l31 -234h86l21 234h74l-24 -234h33v-55zM301 549l-11 -88h39l-11 88c-3 26 -5 42 -6 68h-5c-1 -26 -3 -42 -6 -68zM148 406 l7 -75h58l10 75h-75zM274 331h71l-10 75h-51zM464 331l7 75h-75l10 -75h58zM187 128l19 148h-46l13 -148c3 -23 4 -39 4 -49h4c2 18 4 36 6 49zM446 128l13 148h-46l19 -148c2 -13 4 -31 6 -49h4c0 10 1 26 4 49z"/>
    <glyph glyph-name="plus.case" horiz-adv-x="570" d="M520 416v-73h-193v-202h-85v202h-192v73h192v190h85v-190h193z"/>
    <glyph glyph-name="minus.case" horiz-adv-x="570" d="M50 338v80h470v-80h-470z"/>
    <glyph glyph-name="multiply.case" d="M553 563l-186 -186l186 -185l-57 -58l-186 186l-186 -186l-57 57l186 186l-186 186l57 57l186 -185l185 185z"/>
    <glyph glyph-name="divide.case" horiz-adv-x="570" d="M283 512c-30 0 -52 21 -52 52s22 52 52 52s52 -20 52 -52c0 -31 -22 -52 -52 -52zM50 338v76h470v-76h-470zM283 136c-30 0 -52 21 -52 52s22 52 52 52s52 -20 52 -52c0 -31 -22 -52 -52 -52z"/>
    <glyph glyph-name="equal.case" horiz-adv-x="570" d="M50 434v80h470v-80h-470zM50 244v80h470v-80h-470z"/>
    <glyph glyph-name="notequal.case" d="M520 434h-170l-43 -110h213v-80h-244l-51 -131h-56l51 131h-170v80h201l43 110h-244v80h275l50 127h56l-50 -127h139v-80z"/>
    <glyph glyph-name="greater.case" d="M98 135v81l371 161l-371 161v79l465 -205v-72z"/>
    <glyph glyph-name="less.case" d="M522 135l-465 205v72l465 205v-79l-371 -161l371 -161v-81z"/>
    <glyph glyph-name="greaterequal.case" d="M84 181v81l371 161l-371 161v79l465 -205v-72zM546 125v-75h-460v75h460z"/>
    <glyph glyph-name="lessequal.case" d="M536 181l-465 205v72l465 205v-79l-371 -161l371 -161v-81zM74 125h460v-75h-460v75z"/>
    <glyph glyph-name="plusminus.case" d="M351 415h194v-73h-194v-160h-85v160h-191v73h191v161h85v-161zM75 50v80h470v-80h-470z"/>
    <glyph glyph-name="approxequal.case" d="M421 414c-75 0 -157 50 -220 50c-49 0 -96 -17 -126 -40v80c27 23 80 40 126 40c87 0 155 -50 220 -50c49 0 95 17 124 40v-80c-24 -23 -77 -40 -124 -40zM421 224c-75 0 -157 50 -220 50c-49 0 -96 -17 -126 -40v80c27 23 80 40 126 40c87 0 155 -50 220 -50 c49 0 95 17 124 40v-80c-24 -23 -77 -40 -124 -40z"/>
    <glyph glyph-name="asciitilde.case" d="M407 287c-93 0 -133 79 -195 79c-39 0 -63 -23 -76 -68l-70 12c19 82 73 129 147 129c93 0 133 -79 195 -79c39 0 63 23 76 68l70 -12c-19 -82 -73 -129 -147 -129z"/>
    <glyph glyph-name="logicalnot.case" d="M67 424h465v-243h-80v163h-385v80z"/>
    <glyph glyph-name="infinity.case" d="M433 518c75 0 125 -58 125 -139c0 -80 -53 -141 -125 -141c-57 0 -97 34 -123 78c-34 -53 -68 -78 -123 -78c-75 0 -125 58 -125 139c0 80 53 141 125 141c57 0 97 -34 123 -78c34 53 68 78 123 78zM195 310c41 0 57 24 80 67c-25 46 -45 69 -83 69s-59 -28 -59 -68 c0 -39 21 -68 62 -68zM428 310c38 0 59 28 59 68c0 39 -21 68 -62 68s-57 -24 -80 -67c25 -46 45 -69 83 -69z"/>
    <glyph glyph-name="emptyset.case" horiz-adv-x="548" d="M503 563l-56 -60c32 -39 49 -90 49 -149c0 -132 -88 -226 -222 -226c-53 0 -98 15 -134 41l-55 -60l-40 36l56 61c-31 38 -49 89 -49 148c0 132 89 226 222 226c53 0 98 -15 134 -40l55 59zM130 354c0 -35 8 -66 24 -91l204 221c-23 16 -51 25 -84 25 c-87 0 -144 -64 -144 -155zM418 354c0 35 -8 66 -24 91l-203 -221c22 -16 51 -25 83 -25c88 0 144 64 144 155z"/>
    <glyph glyph-name="plus.tf.case" d="M545 416v-73h-193v-202h-85v202h-192v73h192v190h85v-190h193z"/>
    <glyph glyph-name="minus.tf.case" d="M75 338v80h470v-80h-470z"/>
    <glyph glyph-name="divide.tf.case" d="M308 512c-30 0 -52 21 -52 52s22 52 52 52s52 -20 52 -52c0 -31 -22 -52 -52 -52zM75 338v76h470v-76h-470zM308 136c-30 0 -52 21 -52 52s22 52 52 52s52 -20 52 -52c0 -31 -22 -52 -52 -52z"/>
    <glyph glyph-name="equal.tf.case" d="M50 434v80h470v-80h-470zM50 244v80h470v-80h-470z"/>
    <glyph glyph-name="emptyset.tf.case" d="M539 563l-56 -60c32 -39 49 -90 49 -149c0 -132 -88 -226 -222 -226c-53 0 -98 15 -134 41l-55 -60l-40 36l56 61c-31 38 -49 89 -49 148c0 132 89 226 222 226c53 0 98 -15 134 -40l55 59zM166 354c0 -35 8 -66 24 -91l204 221c-23 16 -51 25 -84 25 c-87 0 -144 -64 -144 -155zM454 354c0 35 -8 66 -24 91l-203 -221c22 -16 51 -25 83 -25c88 0 144 64 144 155z"/>
    <glyph glyph-name="plus.tf" d="M545 366v-73h-193v-202h-85v202h-192v73h192v190h85v-190h193z"/>
    <glyph glyph-name="minus.tf" d="M75 288v80h470v-80h-470z"/>
    <glyph glyph-name="divide.tf" d="M308 462c-30 0 -52 21 -52 52s22 52 52 52s52 -20 52 -52c0 -31 -22 -52 -52 -52zM75 288v76h470v-76h-470zM308 86c-30 0 -52 21 -52 52s22 52 52 52s52 -20 52 -52c0 -31 -22 -52 -52 -52z"/>
    <glyph glyph-name="equal.tf" d="M50 384v80h470v-80h-470zM50 194v80h470v-80h-470z"/>
    <glyph glyph-name="emptyset.tf" d="M539 513l-56 -60c32 -39 49 -90 49 -149c0 -132 -88 -226 -222 -226c-53 0 -98 15 -134 41l-55 -60l-40 36l56 61c-31 38 -49 89 -49 148c0 132 89 226 222 226c53 0 98 -15 134 -40l55 59zM166 304c0 -35 8 -66 24 -91l204 221c-23 16 -51 25 -84 25 c-87 0 -144 -64 -144 -155zM454 304c0 35 -8 66 -24 91l-203 -221c22 -16 51 -25 83 -25c88 0 144 64 144 155z"/>
    <glyph glyph-name="arrowup" unicode="↑" horiz-adv-x="446" d="M194 -35v621h-94l123 164l123 -164h-94v-621h-58z"/>
    <glyph glyph-name="uni2197" unicode="↗" horiz-adv-x="921" d="M742 589l-600 -600l-42 43l599 599l-79 80h201v-202z"/>
    <glyph glyph-name="arrowright" unicode="→" horiz-adv-x="1076" d="M100 358h712v95l164 -123l-164 -123v95h-712v56z"/>
    <glyph glyph-name="uni2198" unicode="↘" horiz-adv-x="921" d="M742 133l79 80v-202h-201l79 80l-599 599l42 43z"/>
    <glyph glyph-name="arrowdown" unicode="↓" horiz-adv-x="446" d="M252 745v-621h94l-123 -164l-123 164h94v621h58z"/>
    <glyph glyph-name="uni2199" unicode="↙" horiz-adv-x="921" d="M179 133l600 600l42 -43l-599 -599l79 -80h-201v202z"/>
    <glyph glyph-name="arrowleft" unicode="←" horiz-adv-x="1076" d="M976 302h-712v-95l-164 123l164 123v-95h712v-56z"/>
    <glyph glyph-name="uni2196" unicode="↖" horiz-adv-x="921" d="M179 588l-79 -80v202h201l-79 -80l599 -599l-42 -43z"/>
    <glyph glyph-name="arrowboth" unicode="↔" horiz-adv-x="1076" d="M812 302h-548v-95l-164 123l164 123v-95h548v95l164 -123l-164 -123v95z"/>
    <glyph glyph-name="arrowupdn" unicode="↕" horiz-adv-x="446" d="M100 124h94v462h-94l123 164l123 -164h-94v-462h94l-123 -164z"/>
    <glyph glyph-name="uni21A9" unicode="↩" horiz-adv-x="991" d="M264 207l-164 123l164 123v-95h414c91 0 149 47 149 135c0 90 -58 135 -149 135h-223v56h234c121 0 202 -67 202 -191c0 -123 -81 -191 -202 -191h-425v-95z"/>
    <glyph glyph-name="uni21AA" unicode="↪" horiz-adv-x="991" d="M727 207v95h-425c-121 0 -202 68 -202 191c0 124 81 191 202 191h234v-56h-223c-91 0 -149 -45 -149 -135c0 -88 58 -135 149 -135h414v95l164 -123z"/>
    <glyph glyph-name="uni21B0" unicode="↰" horiz-adv-x="834" d="M675 0v572h-411v-95l-164 123l164 123v-95h470v-628h-59z"/>
    <glyph glyph-name="uni21B1" unicode="↱" horiz-adv-x="834" d="M159 0h-59v628h470v95l164 -123l-164 -123v95h-411v-572z"/>
    <glyph glyph-name="uni21B2" unicode="↲" horiz-adv-x="834" d="M675 710h59v-628h-470v-95l-164 123l164 123v-95h411v572z"/>
    <glyph glyph-name="uni21B3" unicode="↳" horiz-adv-x="834" d="M159 710v-572h411v95l164 -123l-164 -123v95h-470v628h59z"/>
    <glyph glyph-name="uni21B4" unicode="↴" horiz-adv-x="923" d="M730 710v-558h93l-123 -164l-123 164h94v502h-571v56h630z"/>
    <glyph glyph-name="uni21BB" unicode="↻" horiz-adv-x="1018" d="M672 352h94v1c0 185 -135 304 -302 304c-166 0 -299 -117 -299 -302c0 -184 133 -305 299 -305c85 0 169 36 223 92l39 -49c-66 -67 -159 -104 -262 -104c-198 0 -364 145 -364 364c0 220 164 365 364 365s364 -145 364 -365v-1h90l-123 -164z"/>
    <glyph glyph-name="uni21C4" unicode="⇄" horiz-adv-x="1076" d="M913 418h-649v-95l-164 123l164 123v-95h649v-56zM812 242v95l164 -123l-164 -123v95h-648v56h648z"/>
    <glyph glyph-name="uni21C5" unicode="⇅" horiz-adv-x="678" d="M426 44v542h-94l123 164l123 -164h-94v-542h-58zM223 -40l-123 164h94v542h58v-542h94z"/>
    <glyph glyph-name="uni21BB.alt" horiz-adv-x="985" d="M850 352h90l-123 -164l-123 164h95v12c0 178 -120 293 -289 293c-93 0 -170 -33 -229 -89l-40 47c63 61 158 103 277 103c193 0 342 -141 342 -354v-12zM483 50c93 0 170 33 229 89l40 -47c-63 -61 -158 -103 -277 -103c-193 0 -342 141 -342 354v9h-88l123 164l123 -164 h-97v-9c0 -178 120 -293 289 -293z"/>
    <glyph glyph-name="arrowup.ss03" horiz-adv-x="774" d="M351 625l-204 -212l-47 50l288 287l286 -287l-48 -50l-203 212v-660h-72v660z"/>
    <glyph glyph-name="uni2197.ss03" horiz-adv-x="922" d="M758 597l-608 -609l-50 50l610 609l-294 -5v68h406v-407h-69z"/>
    <glyph glyph-name="arrowright.ss03" horiz-adv-x="1081" d="M855 295h-755v70h755l-210 203l48 49l288 -287l-288 -288l-49 49z"/>
    <glyph glyph-name="uni2198.ss03" horiz-adv-x="922" d="M758 101l-5 294h69v-407h-406v68l294 -5l-610 609l50 50z"/>
    <glyph glyph-name="arrowdown.ss03" horiz-adv-x="774" d="M351 85v660h72v-660l203 212l48 -50l-286 -287l-288 287l47 50z"/>
    <glyph glyph-name="uni2199.ss03" horiz-adv-x="922" d="M164 101l608 609l50 -50l-610 -609l294 5v-68h-406v407h69z"/>
    <glyph glyph-name="arrowleft.ss03" horiz-adv-x="1081" d="M226 295l211 -204l-49 -49l-288 288l288 287l48 -49l-210 -203h755v-70h-755z"/>
    <glyph glyph-name="uni2196.ss03" horiz-adv-x="922" d="M164 597l5 -294h-69v407h406v-68l-294 5l610 -609l-50 -50z"/>
    <glyph glyph-name="uni25CF" unicode="●" horiz-adv-x="836" d="M418 -17c-202 0 -373 143 -373 372s171 372 373 372s373 -143 373 -372s-171 -372 -373 -372z"/>
    <glyph glyph-name="circle" unicode="○" horiz-adv-x="836" d="M418 -17c-202 0 -373 143 -373 372c0 230 171 372 373 372s373 -142 373 -372c0 -229 -171 -372 -373 -372zM418 30c174 0 321 124 321 325c0 202 -147 325 -321 325s-321 -123 -321 -325c0 -201 147 -325 321 -325z"/>
    <glyph glyph-name="uni2105" unicode="℅" horiz-adv-x="875" d="M206 -13h-83l538 748h83zM40 543c0 112 54 191 176 191c82 0 144 -48 151 -132l-70 -12c-7 49 -36 77 -85 77c-63 0 -96 -49 -96 -123c0 -77 33 -128 98 -128c50 0 79 30 85 81l68 -15c-12 -73 -58 -133 -153 -133c-115 0 -174 85 -174 194zM664 -12 c-103 0 -171 77 -171 193s68 192 171 192s171 -76 171 -192c0 -117 -68 -193 -171 -193zM761 181c0 79 -36 127 -97 127s-97 -48 -97 -127c0 -80 36 -127 97 -127s97 47 97 127z"/>
    <glyph glyph-name="at.case" horiz-adv-x="828" d="M424 -31c-229 0 -379 150 -379 378c0 222 144 384 382 384c228 0 356 -149 356 -364c0 -136 -60 -224 -153 -224c-54 0 -91 27 -106 77c-25 -51 -79 -83 -139 -83c-84 0 -144 49 -144 118c0 73 52 113 168 130l107 15v7c0 74 -22 100 -87 100c-58 0 -90 -26 -95 -76h-77 c6 84 74 138 174 138c110 0 156 -50 156 -171v-112c0 -61 14 -86 50 -86c47 0 78 65 78 165c0 186 -94 307 -285 307c-203 0 -315 -133 -315 -325c0 -190 127 -317 317 -317c64 0 130 14 186 39l28 -53c-64 -32 -134 -47 -222 -47zM395 198c72 0 121 51 121 126v22l-90 -13 c-76 -11 -105 -32 -105 -76c0 -34 31 -59 74 -59z"/>
    <glyph glyph-name="section.case" horiz-adv-x="472" d="M379 223c28 -27 42 -60 42 -99c0 -88 -68 -141 -179 -141c-118 0 -197 61 -206 159l85 17c16 -71 53 -102 123 -102c59 0 89 22 89 67c0 35 -17 53 -74 76l-113 46c-80 33 -116 78 -116 138c0 44 19 78 55 100c-29 28 -43 60 -43 100c0 88 68 143 180 143 c114 0 187 -57 196 -150l-85 -17c-14 65 -48 93 -113 93c-59 0 -90 -23 -90 -67c0 -38 20 -58 81 -83l119 -49c71 -29 102 -70 102 -133c0 -45 -16 -76 -53 -98zM179 321l127 -53c10 -4 19 -8 27 -13c12 13 17 28 17 49c0 39 -16 60 -61 79l-126 54c-12 5 -23 10 -33 16 c-12 -13 -18 -29 -18 -49c0 -39 20 -63 67 -83z"/>
    <glyph glyph-name="bar.case" horiz-adv-x="262" d="M95 -87v877h72v-877h-72z"/>
    <glyph glyph-name="brokenbar.case" horiz-adv-x="261" d="M166 800v-378h-71v378h71zM166 301v-378h-71v378h71z"/>
    <glyph glyph-name="dagger.case" horiz-adv-x="488" d="M286 470v-530h-85v530h-131v70h131v220h85v-220h132v-70h-132z"/>
    <glyph glyph-name="daggerdbl.case" horiz-adv-x="488" d="M418 470h-132v-246h131v-70h-131v-214h-85v214h-130v70h130v246h-131v70h131v220h85v-220h132v-70z"/>
    <glyph glyph-name="bar.tf" horiz-adv-x="310" d="M119 -117v877h72v-877h-72z"/>
    <glyph glyph-name="plus.subs" horiz-adv-x="446" d="M400 127v-54h-147v-148h-61v148h-146v54h146v140h61v-140h147z"/>
    <glyph glyph-name="minus.subs" horiz-adv-x="446" d="M46 72v56h354v-56h-354z"/>
    <glyph glyph-name="multiply.subs" horiz-adv-x="485" d="M426 236l-140 -137l140 -136l-42 -43l-141 138l-141 -138l-42 42l140 137l-140 137l42 41l141 -137l140 137z"/>
    <glyph glyph-name="divide.subs" horiz-adv-x="446" d="M221 194c-23 0 -40 16 -40 39c0 24 17 40 40 40s40 -16 40 -40c0 -23 -17 -39 -40 -39zM46 72v54h354v-54h-354zM221 -75c-23 0 -40 15 -40 39s17 40 40 40s40 -16 40 -40c0 -23 -17 -39 -40 -39z"/>
    <glyph glyph-name="plus.sups" horiz-adv-x="446" d="M400 577v-54h-147v-148h-61v148h-146v54h146v140h61v-140h147z"/>
    <glyph glyph-name="minus.sups" horiz-adv-x="446" d="M46 522v56h354v-56h-354z"/>
    <glyph glyph-name="multiply.sups" horiz-adv-x="485" d="M426 686l-140 -137l140 -136l-42 -43l-141 138l-141 -138l-42 42l140 137l-140 137l42 41l141 -137l140 137z"/>
    <glyph glyph-name="divide.sups" horiz-adv-x="446" d="M221 644c-23 0 -40 16 -40 39c0 24 17 40 40 40s40 -16 40 -40c0 -23 -17 -39 -40 -39zM46 522v54h354v-54h-354zM221 375c-23 0 -40 15 -40 39s17 40 40 40s40 -16 40 -40c0 -23 -17 -39 -40 -39z"/>
    <glyph glyph-name="caronaccentcomb" horiz-adv-x="196" d="M73 531l-18 35c36 10 46 22 46 54h-51v90h96v-80c0 -56 -21 -84 -73 -99z"/>
    <glyph glyph-name="uniE000" unicode="" horiz-adv-x="923" d="M193 710h630v-56h-571v-502h94l-123 -164l-123 164h93v558z"/>
    </font>
</defs>
</svg>
