<svg xmlns="http://www.w3.org/2000/svg">
<defs>
<font id="GTAmerica-Bold" horiz-adv-x="620">
  <font-face font-family="GT America Bold" font-weight="700" font-stretch="normal" units-per-em="1000" panose-1="0 0 8 0 0 0 0 0 0 0" ascent="785" descent="-215" x-height="500" cap-height="710" bbox="-459 -241 1285.04 979" underline-thickness="50" underline-position="-100" stemh="130" stemv="168" unicode-range="U+000D-FB02"/>

<glyph glyph-name="fi" unicode="fi" horiz-adv-x="686" d="M373 500v-107h-116v-393h-160v393h-80v107h80v47c0 119 69 184 196 184c28 0 55 -3 80 -9v-115c-17 3 -34 5 -49 5c-44 0 -67 -24 -67 -69v-43h116zM455 572v146h167v-146h-167zM458 0v500h161v-500h-161z"/>
    <glyph glyph-name="fl" unicode="fl" horiz-adv-x="697" d="M373 500v-107h-116v-393h-160v393h-80v107h80v47c0 119 69 184 196 184c28 0 55 -3 80 -9v-115c-17 3 -34 5 -49 5c-44 0 -67 -24 -67 -69v-43h116zM624 725v-725h-161v725h161z"/>
    <glyph glyph-name="g_g.liga" unicode="gg" horiz-adv-x="1106" d="M395 494c15 56 62 91 137 91c7 0 14 0 21 -1v-107c-17 4 -29 6 -47 6c-21 0 -41 -5 -57 -18c38 -29 60 -71 60 -121c0 -103 -90 -169 -229 -169c-39 0 -74 5 -104 15c-8 -7 -14 -15 -14 -26c0 -26 21 -42 69 -42h109c132 0 191 -60 191 -152c0 -109 -94 -177 -267 -177 c-140 0 -242 37 -242 117c0 46 38 75 90 92c-49 18 -73 52 -73 96c0 56 38 94 90 112c-49 30 -78 76 -78 134c0 103 90 168 229 168c43 0 82 -6 115 -18zM1092 478c-17 4 -29 6 -47 6c-24 0 -45 -6 -63 -20c38 -29 59 -70 59 -121c0 -103 -89 -168 -228 -168 c-34 0 -65 4 -92 11c-7 -6 -11 -14 -11 -22c0 -27 21 -42 73 -42h112c132 0 191 -61 191 -152c0 -109 -97 -177 -270 -177c-141 0 -242 37 -242 116c0 46 37 75 88 92c-50 18 -75 52 -75 96c0 54 34 90 81 110c-53 29 -84 76 -84 136c0 104 90 169 229 169 c43 0 82 -6 114 -18c17 56 65 91 144 91c7 0 14 0 21 -2v-105zM280 257c46 0 77 34 77 87c0 52 -31 86 -77 86c-45 0 -77 -34 -77 -86c0 -53 32 -87 77 -87zM813 257c45 0 77 34 77 86c0 53 -32 87 -77 87c-46 0 -78 -34 -78 -87c0 -52 32 -86 78 -86zM325 -12l-128 1 c-13 0 -25 1 -37 2c-12 -12 -19 -27 -19 -46c0 -45 48 -64 127 -64c91 0 129 20 129 59c0 33 -25 48 -72 48zM880 -12l-131 1c-13 0 -25 1 -36 2c-14 -12 -21 -28 -21 -46c0 -46 49 -64 127 -64c92 0 133 20 133 59c0 33 -25 48 -72 48z"/>
    <glyph glyph-name=".notdef" horiz-adv-x="1018" d="M998 663h-552v-47h552v-48h-552v-47h552v-48h-552v-47h552v-47h-552v-48h552v-47h-978v426h978v-47zM67 667l13 9h-16l-5 15l-4 -15h-16l13 -9l-5 -15l12 9l13 -9zM142 676h-16l13 -9l-5 -15l12 10l13 -10l-5 15l12 9h-15l-5 15zM229 676h-16l13 -9l-5 -15l12 10l13 -10 l-5 15l12 9h-15l-5 15zM315 676h-15l13 -9l-5 -15l12 10l13 -10l-5 15l12 9h-15l-5 15zM415 667l12 9h-15l-5 15l-5 -15h-15l12 -9l-4 -15l12 10l13 -10zM98 632h-15l12 -9l-4 -14l12 9l12 -9l-4 14l12 9h-15l-5 15zM371 623l13 9h-16l-4 15l-5 -15h-15l12 -9l-5 -14l13 9 l12 -9zM273 364v93h94v80h-94v94h-80v-94h-93v-80h93v-93h80zM67 580l13 9h-16l-5 14l-4 -14h-16l13 -9l-5 -15l12 9l13 -9zM142 589h-16l13 -9l-5 -15l12 9l13 -9l-5 15l12 9h-15l-5 14zM315 589h-15l13 -9l-5 -15l12 9l13 -9l-5 15l12 9h-15l-5 14zM415 580l12 9h-15 l-5 14l-5 -14h-15l12 -9l-4 -15l12 9l13 -9zM67 492l13 10h-16l-5 14l-4 -14h-16l13 -10l-5 -14l12 9l13 -9zM415 492l12 10h-15l-5 14l-5 -14h-15l12 -10l-4 -14l12 9l13 -9zM67 405l13 9h-16l-5 15l-4 -15h-16l13 -9l-5 -14l12 9l13 -9zM154 405l12 9h-15l-5 15l-4 -15 h-16l13 -9l-5 -14l12 9l13 -9zM328 405l12 9h-15l-5 15l-5 -15h-15l13 -9l-5 -14l12 9l13 -9zM415 405l12 9h-15l-5 15l-5 -15h-15l12 -9l-4 -14l12 9l13 -9zM115 347l-4 15l12 9h-15l-5 14l-5 -14h-15l12 -9l-4 -15l12 9zM376 347l-5 15l13 9h-16l-4 14l-5 -14h-15l12 -9 l-5 -15l13 9zM72 303l-5 15l13 9h-16l-5 15l-4 -15h-16l13 -9l-5 -15l12 9zM159 303l-5 15l12 9h-15l-5 15l-4 -15h-16l13 -9l-5 -15l12 9zM246 303l-5 15l12 9h-15l-5 15l-4 -15h-16l13 -9l-5 -15l12 9zM333 303l-5 15l12 9h-15l-5 15l-5 -15h-15l13 -9l-5 -15l12 9z M420 303l-5 15l12 9h-15l-5 15l-5 -15h-15l12 -9l-4 -15l12 9zM20 189v48h977v-48h-977zM20 95v47h978v-47h-978zM20 0v47h978v-47h-978z"/>
    <glyph glyph-name="CR" unicode="&#xD;" horiz-adv-x="0"/>
    <glyph glyph-name=".null" horiz-adv-x="0"/>
    <glyph glyph-name="space" unicode=" " horiz-adv-x="247"/>
    <glyph glyph-name="A" unicode="A" horiz-adv-x="736" d="M553 0l-54 166h-262l-54 -166h-169l258 710h193l258 -710h-170zM276 285h184l-65 198c-10 31 -19 64 -26 100h-2c-6 -36 -16 -69 -26 -100z"/>
    <glyph glyph-name="B" unicode="B" horiz-adv-x="681" d="M502 370c92 -14 146 -76 146 -170c0 -112 -79 -200 -241 -200h-333v710h320c162 0 236 -79 236 -183c0 -74 -45 -135 -128 -157zM349 591h-106v-173h106c76 0 105 39 105 87c0 50 -32 86 -105 86zM360 119c77 0 112 41 112 95c0 55 -37 92 -108 92h-121v-187h117z"/>
    <glyph glyph-name="C" unicode="C" horiz-adv-x="719" d="M375 -17c-225 0 -346 147 -346 371s132 373 348 373c181 0 295 -100 314 -255l-171 -30c-10 94 -62 149 -147 149c-108 0 -171 -91 -171 -236c0 -141 64 -235 176 -235c79 0 132 54 146 146l171 -37c-34 -150 -144 -246 -320 -246z"/>
    <glyph glyph-name="D" unicode="D" horiz-adv-x="737" d="M74 0v710h283c213 0 351 -142 351 -351c0 -213 -138 -359 -353 -359h-281zM243 124h105c120 0 186 108 186 235c0 129 -62 227 -184 227h-107v-462z"/>
    <glyph glyph-name="E" unicode="E" horiz-adv-x="616" d="M243 125h324v-125h-493v710h486v-125h-317v-160h300v-124h-300v-176z"/>
    <glyph glyph-name="F" unicode="F" horiz-adv-x="587" d="M560 582h-317v-164h299v-126h-299v-292h-169v710h486v-128z"/>
    <glyph glyph-name="G" unicode="G" horiz-adv-x="745" d="M344 -17c-196 0 -315 146 -315 371c0 223 134 373 352 373c186 0 287 -100 309 -218l-167 -31c-12 67 -56 122 -143 122c-113 0 -178 -94 -178 -244c0 -149 61 -243 180 -243c108 0 157 84 157 146v15h-175v121h329v-395h-120l-7 104c-36 -76 -115 -121 -222 -121z"/>
    <glyph glyph-name="H" unicode="H" horiz-adv-x="759" d="M685 710v-710h-169v295h-273v-295h-169v710h169v-285h273v285h169z"/>
    <glyph glyph-name="I" unicode="I" horiz-adv-x="317" d="M243 0h-169v710h169v-710z"/>
    <glyph glyph-name="J" unicode="J" horiz-adv-x="419" d="M357 210c0 -154 -92 -222 -235 -222c-37 0 -79 3 -105 9v137c21 -3 47 -5 68 -5c64 0 103 30 103 114v467h169v-500z"/>
    <glyph glyph-name="K" unicode="K" horiz-adv-x="714" d="M509 0l-185 303l-81 -94v-209h-169v710h169v-305l251 305h193l-249 -288l263 -422h-192z"/>
    <glyph glyph-name="L" unicode="L" horiz-adv-x="548" d="M74 0v710h169v-573h288v-137h-457z"/>
    <glyph glyph-name="M" unicode="M" horiz-adv-x="908" d="M74 0v710h232l131 -435c10 -34 14 -61 17 -86h2c3 25 8 53 18 88l125 433h235v-710h-154v484c0 27 1 53 4 80h-3c-2 -20 -9 -50 -15 -69l-143 -495h-142l-149 495c-7 19 -13 49 -15 68h-3c2 -24 4 -51 4 -79v-484h-144z"/>
    <glyph glyph-name="N" unicode="N" horiz-adv-x="762" d="M74 0v710h187l228 -405c16 -30 34 -66 43 -92h2c0 28 -1 57 -1 91v406h155v-710h-180l-236 409c-19 33 -32 61 -42 87h-2c0 -29 1 -59 1 -94v-402h-155z"/>
    <glyph glyph-name="O" unicode="O" horiz-adv-x="758" d="M379 -17c-213 0 -350 144 -350 372c0 229 137 372 350 372s350 -143 350 -372s-137 -372 -350 -372zM379 115c111 0 176 90 176 240s-65 240 -176 240s-177 -90 -177 -240c0 -149 66 -240 177 -240z"/>
    <glyph glyph-name="P" unicode="P" horiz-adv-x="657" d="M389 710c154 0 255 -88 255 -223c0 -141 -99 -229 -259 -229h-142v-258h-169v710h315zM348 376c75 0 119 39 119 106s-43 106 -119 106h-105v-212h105z"/>
    <glyph glyph-name="Q" unicode="Q" horiz-adv-x="758" d="M532 12c36 -33 83 -37 112 -37c22 0 37 3 56 8v-131c-27 -4 -46 -6 -75 -6c-120 0 -198 51 -232 137h-14c-213 0 -350 144 -350 372c0 229 137 372 350 372s350 -143 350 -372c0 -168 -74 -290 -197 -343zM202 355c0 -149 66 -240 177 -240s176 90 176 240 s-65 240 -176 240s-177 -90 -177 -240z"/>
    <glyph glyph-name="R" unicode="R" horiz-adv-x="693" d="M481 0l-136 272h-102v-272h-169v710h312c180 0 260 -88 260 -218c0 -89 -47 -164 -139 -195l157 -297h-183zM243 591v-203h109c82 0 118 40 118 104c0 62 -35 99 -118 99h-109z"/>
    <glyph glyph-name="S" unicode="S" horiz-adv-x="626" d="M310 -17c-153 0 -263 65 -312 165l125 88c37 -73 99 -122 193 -122c68 0 122 25 122 81c0 53 -31 73 -103 88l-95 20c-124 27 -196 94 -196 213c0 130 106 211 277 211c126 0 232 -46 282 -141l-110 -93c-36 69 -102 109 -183 109c-67 0 -110 -28 -110 -73 c0 -46 28 -69 103 -86l103 -22c126 -28 194 -88 194 -210c0 -135 -104 -228 -290 -228z"/>
    <glyph glyph-name="T" unicode="T" horiz-adv-x="594" d="M588 710v-134h-207v-576h-168v576h-206v134h581z"/>
    <glyph glyph-name="U" unicode="U" horiz-adv-x="726" d="M62 710h169v-455c0 -83 49 -135 132 -135c84 0 132 52 132 135v455h169v-462c0 -162 -112 -265 -301 -265s-301 103 -301 265v462z"/>
    <glyph glyph-name="V" unicode="V" horiz-adv-x="677" d="M241 0l-239 710h180l132 -458c12 -42 19 -70 22 -98h4c4 28 10 56 23 98l132 458h180l-239 -710h-195z"/>
    <glyph glyph-name="W" unicode="W" horiz-adv-x="963" d="M188 0l-169 710h170l90 -461c4 -22 6 -40 7 -59h3c1 19 3 37 8 59l100 461h169l101 -461c5 -22 7 -40 8 -59h3c1 19 2 37 6 59l91 461h170l-169 -710h-189l-98 482c-3 16 -4 33 -5 52h-4c-1 -19 -3 -36 -6 -52l-98 -482h-188z"/>
    <glyph glyph-name="X" unicode="X" horiz-adv-x="699" d="M9 0l235 369l-221 341h187l117 -199c9 -16 16 -29 21 -45h2c5 16 12 29 21 45l120 199h183l-220 -351l237 -359h-190l-129 210c-15 24 -22 37 -28 53h-2c-5 -15 -15 -36 -27 -55l-123 -208h-183z"/>
    <glyph glyph-name="Y" unicode="Y" horiz-adv-x="636" d="M233 0v257l-236 453h178l125 -262c8 -18 14 -36 17 -52h2c3 16 9 34 17 52l124 262h179l-236 -453v-257h-170z"/>
    <glyph glyph-name="Z" unicode="Z" horiz-adv-x="608" d="M35 122l342 457h-328v131h521v-122l-340 -458h355v-130h-550v122z"/>
    <glyph glyph-name="Aacute" unicode="Á" horiz-adv-x="736" d="M545 871l-116 -118h-122l99 118h139zM553 0l-54 166h-262l-54 -166h-169l258 710h193l258 -710h-170zM276 285h184l-65 198c-10 31 -19 64 -26 100h-2c-6 -36 -16 -69 -26 -100z"/>
    <glyph glyph-name="Abreve" unicode="Ă" horiz-adv-x="736" d="M369 748c-107 0 -166 45 -174 123h101c4 -30 30 -48 73 -48c42 0 68 18 72 48h101c-8 -78 -67 -123 -173 -123zM553 0l-54 166h-262l-54 -166h-169l258 710h193l258 -710h-170zM276 285h184l-65 198c-10 31 -19 64 -26 100h-2c-6 -36 -16 -69 -26 -100z"/>
    <glyph glyph-name="Acircumflex" unicode="Â" horiz-adv-x="736" d="M368 827l-67 -74h-124l106 118h169l106 -118h-123zM553 0l-54 166h-262l-54 -166h-169l258 710h193l258 -710h-170zM276 285h184l-65 198c-10 31 -19 64 -26 100h-2c-6 -36 -16 -69 -26 -100z"/>
    <glyph glyph-name="Adieresis" unicode="Ä" horiz-adv-x="736" d="M321 868v-115h-133v115h133zM548 868v-115h-133v115h133zM553 0l-54 166h-262l-54 -166h-169l258 710h193l258 -710h-170zM276 285h184l-65 198c-10 31 -19 64 -26 100h-2c-6 -36 -16 -69 -26 -100z"/>
    <glyph glyph-name="AE" unicode="Æ" horiz-adv-x="997" d="M642 125h306v-125h-474v156h-236l-83 -156h-168l408 710h546v-125h-299v-160h282v-124h-282v-176zM301 276h173v326z"/>
    <glyph glyph-name="AEacute" unicode="Ǽ" horiz-adv-x="997" d="M862 871l-116 -118h-122l99 118h139zM642 125h306v-125h-474v156h-236l-83 -156h-168l408 710h546v-125h-299v-160h282v-124h-282v-176zM301 276h173v326z"/>
    <glyph glyph-name="Agrave" unicode="À" horiz-adv-x="736" d="M423 753h-122l-116 118h139zM553 0l-54 166h-262l-54 -166h-169l258 710h193l258 -710h-170zM276 285h184l-65 198c-10 31 -19 64 -26 100h-2c-6 -36 -16 -69 -26 -100z"/>
    <glyph glyph-name="Amacron" unicode="Ā" horiz-adv-x="736" d="M548 855v-97h-360v97h360zM553 0l-54 166h-262l-54 -166h-169l258 710h193l258 -710h-170zM276 285h184l-65 198c-10 31 -19 64 -26 100h-2c-6 -36 -16 -69 -26 -100z"/>
    <glyph glyph-name="Aogonek" unicode="Ą" horiz-adv-x="736" d="M592 -131c22 0 39 13 56 41l67 -35c-29 -53 -68 -78 -132 -78c-78 0 -122 35 -122 93c0 47 29 83 92 110l-54 166h-262l-54 -166h-169l258 710h193l258 -710h-56c-83 -20 -112 -60 -112 -95c0 -23 13 -36 37 -36zM276 285h184l-65 198c-10 31 -19 64 -26 100h-2 c-6 -36 -16 -69 -26 -100z"/>
    <glyph glyph-name="Aring" unicode="Å" horiz-adv-x="736" d="M368 744c-76 0 -127 48 -127 118s51 117 127 117s128 -47 128 -117s-52 -118 -128 -118zM368 915c-31 0 -52 -22 -52 -53s21 -53 52 -53s52 22 52 53s-21 53 -52 53zM553 0l-54 166h-262l-54 -166h-169l258 710h193l258 -710h-170zM276 285h184l-65 198 c-10 31 -19 64 -26 100h-2c-6 -36 -16 -69 -26 -100z"/>
    <glyph glyph-name="Atilde" unicode="Ã" horiz-adv-x="736" d="M295 803c-24 0 -37 -15 -48 -54l-78 27c14 74 60 116 125 116c76 0 100 -62 147 -62c24 0 37 16 48 54l77 -27c-13 -74 -59 -115 -124 -115c-76 0 -101 61 -147 61zM553 0l-54 166h-262l-54 -166h-169l258 710h193l258 -710h-170zM276 285h184l-65 198 c-10 31 -19 64 -26 100h-2c-6 -36 -16 -69 -26 -100z"/>
    <glyph glyph-name="Cacute" unicode="Ć" horiz-adv-x="719" d="M307 753l99 118h139l-116 -118h-122zM375 -17c-225 0 -346 147 -346 371s132 373 348 373c181 0 295 -100 314 -255l-171 -30c-10 94 -62 149 -147 149c-108 0 -171 -91 -171 -236c0 -141 64 -235 176 -235c79 0 132 54 146 146l171 -37c-34 -150 -144 -246 -320 -246z "/>
    <glyph glyph-name="Ccaron" unicode="Č" horiz-adv-x="719" d="M559 866l-106 -118h-169l-106 118h123l67 -74l67 74h124zM375 -17c-225 0 -346 147 -346 371s132 373 348 373c181 0 295 -100 314 -255l-171 -30c-10 94 -62 149 -147 149c-108 0 -171 -91 -171 -236c0 -141 64 -235 176 -235c79 0 132 54 146 146l171 -37 c-34 -150 -144 -246 -320 -246z"/>
    <glyph glyph-name="Ccedilla" unicode="Ç" horiz-adv-x="719" d="M695 229c-32 -142 -133 -236 -293 -245l-18 -30c12 9 31 15 54 15c54 0 91 -30 91 -87c0 -63 -53 -95 -131 -95c-64 0 -109 24 -127 65l84 21c7 -15 21 -24 39 -24c24 0 40 15 40 37c0 21 -16 36 -39 36c-14 0 -25 -5 -33 -15l-60 14l28 64c-196 18 -301 160 -301 369 c0 224 132 373 348 373c181 0 295 -100 314 -255l-171 -30c-10 94 -62 149 -147 149c-108 0 -171 -91 -171 -236c0 -141 64 -235 176 -235c79 0 132 54 146 146z"/>
    <glyph glyph-name="Ccircumflex" unicode="Ĉ" horiz-adv-x="719" d="M558 753h-123l-67 74l-67 -74h-124l106 118h169zM375 -17c-225 0 -346 147 -346 371s132 373 348 373c181 0 295 -100 314 -255l-171 -30c-10 94 -62 149 -147 149c-108 0 -171 -91 -171 -236c0 -141 64 -235 176 -235c79 0 132 54 146 146l171 -37 c-34 -150 -144 -246 -320 -246z"/>
    <glyph glyph-name="Cdotaccent" unicode="Ċ" horiz-adv-x="719" d="M286 753v118h164v-118h-164zM375 -17c-225 0 -346 147 -346 371s132 373 348 373c181 0 295 -100 314 -255l-171 -30c-10 94 -62 149 -147 149c-108 0 -171 -91 -171 -236c0 -141 64 -235 176 -235c79 0 132 54 146 146l171 -37c-34 -150 -144 -246 -320 -246z"/>
    <glyph glyph-name="Dcaron" unicode="Ď" horiz-adv-x="737" d="M540 866l-106 -118h-169l-106 118h123l67 -74l67 74h124zM74 0v710h283c213 0 351 -142 351 -351c0 -213 -138 -359 -353 -359h-281zM243 124h105c120 0 186 108 186 235c0 129 -62 227 -184 227h-107v-462z"/>
    <glyph glyph-name="Dcroat" unicode="Đ" horiz-adv-x="737" d="M357 710c213 0 351 -142 351 -351c0 -213 -138 -359 -353 -359h-281v322h-75v94h75v294h283zM348 124c120 0 186 108 186 235c0 129 -62 227 -184 227h-107v-170h142v-94h-142v-198h105z"/>
    <glyph glyph-name="Eacute" unicode="É" horiz-adv-x="616" d="M502 871l-116 -118h-122l99 118h139zM243 125h324v-125h-493v710h486v-125h-317v-160h300v-124h-300v-176z"/>
    <glyph glyph-name="Ebreve" unicode="Ĕ" horiz-adv-x="616" d="M326 748c-107 0 -166 45 -174 123h101c4 -30 30 -48 73 -48c42 0 68 18 72 48h101c-8 -78 -67 -123 -173 -123zM243 125h324v-125h-493v710h486v-125h-317v-160h300v-124h-300v-176z"/>
    <glyph glyph-name="Ecaron" unicode="Ě" horiz-adv-x="616" d="M410 748h-169l-106 118h123l67 -74l67 74h124zM243 125h324v-125h-493v710h486v-125h-317v-160h300v-124h-300v-176z"/>
    <glyph glyph-name="Ecircumflex" unicode="Ê" horiz-adv-x="616" d="M325 827l-67 -74h-124l106 118h169l106 -118h-123zM243 125h324v-125h-493v710h486v-125h-317v-160h300v-124h-300v-176z"/>
    <glyph glyph-name="Edieresis" unicode="Ë" horiz-adv-x="616" d="M278 868v-115h-133v115h133zM505 868v-115h-133v115h133zM243 125h324v-125h-493v710h486v-125h-317v-160h300v-124h-300v-176z"/>
    <glyph glyph-name="Edotaccent" unicode="Ė" horiz-adv-x="616" d="M407 871v-118h-164v118h164zM243 125h324v-125h-493v710h486v-125h-317v-160h300v-124h-300v-176z"/>
    <glyph glyph-name="Egrave" unicode="È" horiz-adv-x="616" d="M380 753h-122l-116 118h139zM243 125h324v-125h-493v710h486v-125h-317v-160h300v-124h-300v-176z"/>
    <glyph glyph-name="Emacron" unicode="Ē" horiz-adv-x="616" d="M505 855v-97h-360v97h360zM243 125h324v-125h-493v710h486v-125h-317v-160h300v-124h-300v-176z"/>
    <glyph glyph-name="Eogonek" unicode="Ę" horiz-adv-x="616" d="M548 -90l67 -35c-29 -53 -68 -78 -132 -78c-78 0 -122 35 -122 93c0 47 29 83 92 110h-379v710h486v-125h-317v-160h300v-124h-300v-176h324v-125c-83 -20 -112 -60 -112 -95c0 -23 13 -36 37 -36c22 0 39 13 56 41z"/>
    <glyph glyph-name="Eth" unicode="Ð" horiz-adv-x="737" d="M357 710c213 0 351 -142 351 -351c0 -213 -138 -359 -353 -359h-281v322h-75v94h75v294h283zM348 124c120 0 186 108 186 235c0 129 -62 227 -184 227h-107v-170h142v-94h-142v-198h105z"/>
    <glyph glyph-name="Gbreve" unicode="Ğ" horiz-adv-x="745" d="M301 871c4 -30 30 -48 73 -48c42 0 68 18 72 48h101c-8 -78 -67 -123 -173 -123c-107 0 -166 45 -174 123h101zM344 -17c-196 0 -315 146 -315 371c0 223 134 373 352 373c186 0 287 -100 309 -218l-167 -31c-12 67 -56 122 -143 122c-113 0 -178 -94 -178 -244 c0 -149 61 -243 180 -243c108 0 157 84 157 146v15h-175v121h329v-395h-120l-7 104c-36 -76 -115 -121 -222 -121z"/>
    <glyph glyph-name="Gcircumflex" unicode="Ĝ" horiz-adv-x="745" d="M563 753h-123l-67 74l-67 -74h-124l106 118h169zM344 -17c-196 0 -315 146 -315 371c0 223 134 373 352 373c186 0 287 -100 309 -218l-167 -31c-12 67 -56 122 -143 122c-113 0 -178 -94 -178 -244c0 -149 61 -243 180 -243c108 0 157 84 157 146v15h-175v121h329v-395 h-120l-7 104c-36 -76 -115 -121 -222 -121z"/>
    <glyph glyph-name="uni0122" unicode="Ģ" horiz-adv-x="745" d="M344 -17c-196 0 -315 146 -315 371c0 223 134 373 352 373c186 0 287 -100 309 -218l-167 -31c-12 67 -56 122 -143 122c-113 0 -178 -94 -178 -244c0 -149 61 -243 180 -243c108 0 157 84 157 146v15h-175v121h329v-395h-120l-7 104c-36 -76 -115 -121 -222 -121z M350 -240l-27 51c36 9 49 20 49 47h-65v102h132v-89c0 -55 -24 -98 -89 -111z"/>
    <glyph glyph-name="Gdotaccent" unicode="Ġ" horiz-adv-x="745" d="M291 753v118h164v-118h-164zM344 -17c-196 0 -315 146 -315 371c0 223 134 373 352 373c186 0 287 -100 309 -218l-167 -31c-12 67 -56 122 -143 122c-113 0 -178 -94 -178 -244c0 -149 61 -243 180 -243c108 0 157 84 157 146v15h-175v121h329v-395h-120l-7 104 c-36 -76 -115 -121 -222 -121z"/>
    <glyph glyph-name="Hbar" unicode="Ħ" horiz-adv-x="759" d="M754 597v-69h-69v-528h-169v295h-273v-295h-169v528h-68v69h68v113h169v-113h273v113h169v-113h69zM516 425v103h-273v-103h273z"/>
    <glyph glyph-name="Hcircumflex" unicode="Ĥ" horiz-adv-x="759" d="M570 753h-123l-67 74l-67 -74h-124l106 118h169zM685 710v-710h-169v295h-273v-295h-169v710h169v-285h273v285h169z"/>
    <glyph glyph-name="Iacute" unicode="Í" horiz-adv-x="317" d="M98 753l75 118h137l-92 -118h-120zM243 0h-169v710h169v-710z"/>
    <glyph glyph-name="Ibreve" unicode="Ĭ" horiz-adv-x="317" d="M108 871c1 -29 19 -47 51 -47c31 0 49 18 50 47h101c-5 -79 -58 -123 -151 -123c-94 0 -147 44 -152 123h101zM243 0h-169v710h169v-710z"/>
    <glyph glyph-name="Icircumflex" unicode="Î" horiz-adv-x="317" d="M315 753h-115l-41 74l-41 -74h-115l71 118h169zM243 0h-169v710h169v-710z"/>
    <glyph glyph-name="Idieresis" unicode="Ï" horiz-adv-x="317" d="M11 753v115h127v-115h-127zM181 753v115h127v-115h-127zM243 0h-169v710h169v-710z"/>
    <glyph glyph-name="Idotaccent" unicode="İ" horiz-adv-x="317" d="M77 753v118h164v-118h-164zM243 0h-169v710h169v-710z"/>
    <glyph glyph-name="Igrave" unicode="Ì" horiz-adv-x="317" d="M218 753h-120l-92 118h137zM243 0h-169v710h169v-710z"/>
    <glyph glyph-name="IJ" unicode="Ĳ" horiz-adv-x="736" d="M243 0h-169v710h169v-710zM674 210c0 -154 -92 -222 -235 -222c-37 0 -79 3 -105 9v137c21 -3 47 -5 68 -5c64 0 103 30 103 114v467h169v-500z"/>
    <glyph glyph-name="uni00A40301" horiz-adv-x="419" d="M212 753l75 118h137l-92 -118h-120zM357 210c0 -154 -92 -222 -235 -222c-37 0 -79 3 -105 9v137c21 -3 47 -5 68 -5c64 0 103 30 103 114v467h169v-500z"/>
    <glyph glyph-name="Imacron" unicode="Ī" horiz-adv-x="317" d="M23 758v97h271v-97h-271zM243 0h-169v710h169v-710z"/>
    <glyph glyph-name="Iogonek" unicode="Į" horiz-adv-x="317" d="M188 0c-83 -20 -112 -60 -112 -95c0 -23 13 -36 37 -36c22 0 39 13 56 41l67 -35c-29 -53 -68 -78 -132 -78c-78 0 -122 35 -122 93c0 47 29 83 92 110v710h169v-710h-55z"/>
    <glyph glyph-name="Itilde" unicode="Ĩ" horiz-adv-x="317" d="M232 748c-68 0 -97 62 -135 62c-18 0 -30 -14 -32 -49l-75 27c5 65 39 110 96 110c68 0 97 -62 135 -62c18 0 30 14 32 49l75 -27c-4 -65 -38 -110 -96 -110zM243 0h-169v710h169v-710z"/>
    <glyph glyph-name="Jcircumflex" unicode="Ĵ" horiz-adv-x="419" d="M429 753h-115l-41 74l-41 -74h-115l71 118h169zM357 210c0 -154 -92 -222 -235 -222c-37 0 -79 3 -105 9v137c21 -3 47 -5 68 -5c64 0 103 30 103 114v467h169v-500z"/>
    <glyph glyph-name="uni0136" unicode="Ķ" horiz-adv-x="714" d="M438 422l263 -422h-192l-185 303l-81 -94v-209h-169v710h169v-305l251 305h193zM293 -142v102h132v-89c0 -55 -24 -98 -89 -111l-27 51c36 9 49 20 49 47h-65z"/>
    <glyph glyph-name="Lacute" unicode="Ĺ" horiz-adv-x="548" d="M97 753l99 118h139l-116 -118h-122zM74 0v710h169v-573h288v-137h-457z"/>
    <glyph glyph-name="Lcaron" unicode="Ľ" horiz-adv-x="548" d="M74 0v710h169v-573h288v-137h-457zM340 521l-24 48c35 7 49 17 49 39h-65v102h132v-89c0 -52 -27 -89 -92 -100z"/>
    <glyph glyph-name="uni013B" unicode="Ļ" horiz-adv-x="548" d="M74 0v710h169v-573h288v-137h-457zM289 -240l-27 51c36 9 49 20 49 47h-65v102h132v-89c0 -55 -24 -98 -89 -111z"/>
    <glyph glyph-name="Ldot" unicode="Ŀ" horiz-adv-x="548" d="M74 0v710h169v-573h288v-137h-457zM495 500v-164h-171v164h171z"/>
    <glyph glyph-name="Lslash" unicode="Ł" horiz-adv-x="548" d="M243 137h288v-137h-457v243l-78 -41v96l78 41v371h169v-281l178 95v-96l-178 -95v-196z"/>
    <glyph glyph-name="Nacute" unicode="Ń" horiz-adv-x="762" d="M319 753l99 118h139l-116 -118h-122zM74 0v710h187l228 -405c16 -30 34 -66 43 -92h2c0 28 -1 57 -1 91v406h155v-710h-180l-236 409c-19 33 -32 61 -42 87h-2c0 -29 1 -59 1 -94v-402h-155z"/>
    <glyph glyph-name="Ncaron" unicode="Ň" horiz-adv-x="762" d="M572 866l-106 -118h-169l-106 118h123l67 -74l67 74h124zM74 0v710h187l228 -405c16 -30 34 -66 43 -92h2c0 28 -1 57 -1 91v406h155v-710h-180l-236 409c-19 33 -32 61 -42 87h-2c0 -29 1 -59 1 -94v-402h-155z"/>
    <glyph glyph-name="uni0145" unicode="Ņ" horiz-adv-x="762" d="M74 0v710h187l228 -405c16 -30 34 -66 43 -92h2c0 28 -1 57 -1 91v406h155v-710h-180l-236 409c-19 33 -32 61 -42 87h-2c0 -29 1 -59 1 -94v-402h-155zM358 -240l-27 51c36 9 49 20 49 47h-65v102h132v-89c0 -55 -24 -98 -89 -111z"/>
    <glyph glyph-name="Ntilde" unicode="Ñ" horiz-adv-x="762" d="M455 742c-76 0 -101 61 -147 61c-24 0 -37 -15 -48 -54l-78 27c14 74 60 116 125 116c76 0 100 -62 147 -62c24 0 37 16 48 54l77 -27c-13 -74 -59 -115 -124 -115zM74 0v710h187l228 -405c16 -30 34 -66 43 -92h2c0 28 -1 57 -1 91v406h155v-710h-180l-236 409 c-19 33 -32 61 -42 87h-2c0 -29 1 -59 1 -94v-402h-155z"/>
    <glyph glyph-name="Eng" unicode="Ŋ" horiz-adv-x="762" d="M533 710h155v-718c0 -157 -98 -200 -209 -200c-44 0 -77 4 -105 9v129c29 -5 66 -6 87 -6c33 0 71 14 71 67v9h-24l-236 409c-19 33 -32 61 -42 87h-2c0 -29 1 -59 1 -94v-402h-155v710h187l228 -405c16 -30 34 -66 43 -92h2c0 28 -1 57 -1 91v406z"/>
    <glyph glyph-name="Oacute" unicode="Ó" horiz-adv-x="758" d="M317 753l99 118h139l-116 -118h-122zM379 -17c-213 0 -350 144 -350 372c0 229 137 372 350 372s350 -143 350 -372s-137 -372 -350 -372zM379 115c111 0 176 90 176 240s-65 240 -176 240s-177 -90 -177 -240c0 -149 66 -240 177 -240z"/>
    <glyph glyph-name="Obreve" unicode="Ŏ" horiz-adv-x="758" d="M306 871c4 -30 30 -48 73 -48c42 0 68 18 72 48h101c-8 -78 -67 -123 -173 -123c-107 0 -166 45 -174 123h101zM379 -17c-213 0 -350 144 -350 372c0 229 137 372 350 372s350 -143 350 -372s-137 -372 -350 -372zM379 115c111 0 176 90 176 240s-65 240 -176 240 s-177 -90 -177 -240c0 -149 66 -240 177 -240z"/>
    <glyph glyph-name="Ocircumflex" unicode="Ô" horiz-adv-x="758" d="M569 753h-123l-67 74l-67 -74h-124l106 118h169zM379 -17c-213 0 -350 144 -350 372c0 229 137 372 350 372s350 -143 350 -372s-137 -372 -350 -372zM379 115c111 0 176 90 176 240s-65 240 -176 240s-177 -90 -177 -240c0 -149 66 -240 177 -240z"/>
    <glyph glyph-name="Odieresis" unicode="Ö" horiz-adv-x="758" d="M199 753v115h133v-115h-133zM426 753v115h133v-115h-133zM379 -17c-213 0 -350 144 -350 372c0 229 137 372 350 372s350 -143 350 -372s-137 -372 -350 -372zM379 115c111 0 176 90 176 240s-65 240 -176 240s-177 -90 -177 -240c0 -149 66 -240 177 -240z"/>
    <glyph glyph-name="OE" unicode="Œ" horiz-adv-x="999" d="M625 125h325v-125h-567c-219 0 -354 140 -354 356c0 217 134 354 352 354h562v-125h-318v-160h301v-124h-301v-176zM399 124h58v462h-60c-128 0 -195 -92 -195 -230c0 -136 72 -232 197 -232z"/>
    <glyph glyph-name="Ograve" unicode="Ò" horiz-adv-x="758" d="M434 753h-122l-116 118h139zM379 -17c-213 0 -350 144 -350 372c0 229 137 372 350 372s350 -143 350 -372s-137 -372 -350 -372zM379 115c111 0 176 90 176 240s-65 240 -176 240s-177 -90 -177 -240c0 -149 66 -240 177 -240z"/>
    <glyph glyph-name="Ohungarumlaut" unicode="Ő" horiz-adv-x="758" d="M223 754l97 117h132l-102 -117h-127zM408 754l97 117h131l-102 -117h-126zM379 -17c-213 0 -350 144 -350 372c0 229 137 372 350 372s350 -143 350 -372s-137 -372 -350 -372zM379 115c111 0 176 90 176 240s-65 240 -176 240s-177 -90 -177 -240 c0 -149 66 -240 177 -240z"/>
    <glyph glyph-name="Omacron" unicode="Ō" horiz-adv-x="758" d="M199 758v97h360v-97h-360zM379 -17c-213 0 -350 144 -350 372c0 229 137 372 350 372s350 -143 350 -372s-137 -372 -350 -372zM379 115c111 0 176 90 176 240s-65 240 -176 240s-177 -90 -177 -240c0 -149 66 -240 177 -240z"/>
    <glyph glyph-name="Oslash" unicode="Ø" horiz-adv-x="758" d="M634 626c61 -64 95 -157 95 -271c0 -229 -137 -372 -350 -372c-80 0 -149 20 -205 58l-48 -62l-54 39l52 66c-61 64 -95 157 -95 271c0 229 137 372 350 372c80 0 149 -20 205 -58l48 62l54 -39zM202 355c0 -55 9 -101 26 -139l263 336c-29 28 -66 43 -112 43 c-111 0 -177 -90 -177 -240zM379 115c111 0 176 90 176 240c0 55 -9 101 -25 138l-263 -335c29 -28 67 -43 112 -43z"/>
    <glyph glyph-name="Oslashacute" unicode="Ǿ" horiz-adv-x="758" d="M559 871l-116 -118h-122l99 118h139zM634 626c61 -64 95 -157 95 -271c0 -229 -137 -372 -350 -372c-80 0 -149 20 -205 58l-48 -62l-54 39l52 66c-61 64 -95 157 -95 271c0 229 137 372 350 372c80 0 149 -20 205 -58l48 62l54 -39zM202 355c0 -55 9 -101 26 -139 l263 336c-29 28 -66 43 -112 43c-111 0 -177 -90 -177 -240zM379 115c111 0 176 90 176 240c0 55 -9 101 -25 138l-263 -335c29 -28 67 -43 112 -43z"/>
    <glyph glyph-name="Otilde" unicode="Õ" horiz-adv-x="758" d="M453 742c-76 0 -101 61 -147 61c-24 0 -37 -15 -48 -54l-78 27c14 74 60 116 125 116c76 0 100 -62 147 -62c24 0 37 16 48 54l77 -27c-13 -74 -59 -115 -124 -115zM379 -17c-213 0 -350 144 -350 372c0 229 137 372 350 372s350 -143 350 -372s-137 -372 -350 -372z M379 115c111 0 176 90 176 240s-65 240 -176 240s-177 -90 -177 -240c0 -149 66 -240 177 -240z"/>
    <glyph glyph-name="Racute" unicode="Ŕ" horiz-adv-x="693" d="M506 871l-116 -118h-122l99 118h139zM481 0l-136 272h-102v-272h-169v710h312c180 0 260 -88 260 -218c0 -89 -47 -164 -139 -195l157 -297h-183zM243 591v-203h109c82 0 118 40 118 104c0 62 -35 99 -118 99h-109z"/>
    <glyph glyph-name="Rcaron" unicode="Ř" horiz-adv-x="693" d="M415 748h-169l-106 118h123l67 -74l67 74h124zM481 0l-136 272h-102v-272h-169v710h312c180 0 260 -88 260 -218c0 -89 -47 -164 -139 -195l157 -297h-183zM243 591v-203h109c82 0 118 40 118 104c0 62 -35 99 -118 99h-109z"/>
    <glyph glyph-name="uni0156" unicode="Ŗ" horiz-adv-x="693" d="M507 297l157 -297h-183l-136 272h-102v-272h-169v710h312c180 0 260 -88 260 -218c0 -89 -47 -164 -139 -195zM243 591v-203h109c82 0 118 40 118 104c0 62 -35 99 -118 99h-109zM287 -142v102h132v-89c0 -55 -24 -98 -89 -111l-27 51c36 9 49 20 49 47h-65z"/>
    <glyph glyph-name="Sacute" unicode="Ś" horiz-adv-x="626" d="M254 753l99 118h139l-116 -118h-122zM310 -17c-153 0 -263 65 -312 165l125 88c37 -73 99 -122 193 -122c68 0 122 25 122 81c0 53 -31 73 -103 88l-95 20c-124 27 -196 94 -196 213c0 130 106 211 277 211c126 0 232 -46 282 -141l-110 -93c-36 69 -102 109 -183 109 c-67 0 -110 -28 -110 -73c0 -46 28 -69 103 -86l103 -22c126 -28 194 -88 194 -210c0 -135 -104 -228 -290 -228z"/>
    <glyph glyph-name="Scaron" unicode="Š" horiz-adv-x="626" d="M506 866l-106 -118h-169l-106 118h123l67 -74l67 74h124zM310 -17c-153 0 -263 65 -312 165l125 88c37 -73 99 -122 193 -122c68 0 122 25 122 81c0 53 -31 73 -103 88l-95 20c-124 27 -196 94 -196 213c0 130 106 211 277 211c126 0 232 -46 282 -141l-110 -93 c-36 69 -102 109 -183 109c-67 0 -110 -28 -110 -73c0 -46 28 -69 103 -86l103 -22c126 -28 194 -88 194 -210c0 -135 -104 -228 -290 -228z"/>
    <glyph glyph-name="Scedilla" unicode="Ş" horiz-adv-x="626" d="M406 421c126 -28 194 -88 194 -210c0 -124 -87 -212 -245 -226l-19 -31c12 9 31 15 54 15c54 0 91 -30 91 -87c0 -63 -53 -95 -131 -95c-64 0 -109 24 -127 65l84 21c7 -15 21 -24 39 -24c24 0 40 15 40 37c0 21 -16 36 -39 36c-14 0 -25 -5 -33 -15l-60 14l28 63 c-139 7 -238 70 -284 164l125 88c37 -73 99 -122 193 -122c68 0 122 25 122 81c0 53 -31 73 -103 88l-95 20c-124 27 -196 94 -196 213c0 130 106 211 277 211c126 0 232 -46 282 -141l-110 -93c-36 69 -102 109 -183 109c-67 0 -110 -28 -110 -73c0 -46 28 -69 103 -86z "/>
    <glyph glyph-name="Scircumflex" unicode="Ŝ" horiz-adv-x="626" d="M505 753h-123l-67 74l-67 -74h-124l106 118h169zM310 -17c-153 0 -263 65 -312 165l125 88c37 -73 99 -122 193 -122c68 0 122 25 122 81c0 53 -31 73 -103 88l-95 20c-124 27 -196 94 -196 213c0 130 106 211 277 211c126 0 232 -46 282 -141l-110 -93 c-36 69 -102 109 -183 109c-67 0 -110 -28 -110 -73c0 -46 28 -69 103 -86l103 -22c126 -28 194 -88 194 -210c0 -135 -104 -228 -290 -228z"/>
    <glyph glyph-name="uni0218" unicode="Ș" horiz-adv-x="626" d="M310 -17c-153 0 -263 65 -312 165l125 88c37 -73 99 -122 193 -122c68 0 122 25 122 81c0 53 -31 73 -103 88l-95 20c-124 27 -196 94 -196 213c0 130 106 211 277 211c126 0 232 -46 282 -141l-110 -93c-36 69 -102 109 -183 109c-67 0 -110 -28 -110 -73 c0 -46 28 -69 103 -86l103 -22c126 -28 194 -88 194 -210c0 -135 -104 -228 -290 -228zM306 -240l-27 51c36 9 49 20 49 47h-65v102h132v-89c0 -55 -24 -98 -89 -111z"/>
    <glyph glyph-name="Tbar" unicode="Ŧ" horiz-adv-x="594" d="M588 576h-207v-122h171v-72h-171v-382h-168v382h-170v72h170v122h-206v134h581v-134z"/>
    <glyph glyph-name="Tcaron" unicode="Ť" horiz-adv-x="594" d="M382 748h-169l-106 118h123l67 -74l67 74h124zM588 710v-134h-207v-576h-168v576h-206v134h581z"/>
    <glyph glyph-name="uni0162" unicode="Ţ" horiz-adv-x="594" d="M381 0h-48l-28 -46c12 9 31 15 54 15c54 0 91 -30 91 -87c0 -63 -53 -95 -131 -95c-64 0 -109 24 -127 65l84 21c7 -15 21 -24 39 -24c24 0 40 15 40 37c0 21 -16 36 -39 36c-14 0 -25 -5 -33 -15l-60 14l35 79h-45v576h-206v134h581v-134h-207v-576z"/>
    <glyph glyph-name="uni021A" unicode="Ț" horiz-adv-x="594" d="M588 710v-134h-207v-576h-168v576h-206v134h581zM232 -142v102h132v-89c0 -55 -24 -98 -89 -111l-27 51c36 9 49 20 49 47h-65z"/>
    <glyph glyph-name="Thorn" unicode="Þ" horiz-adv-x="631" d="M369 593c151 0 248 -85 248 -217c0 -138 -97 -224 -251 -224h-123v-152h-169v710h169v-117h126zM330 270c69 0 110 37 110 100c0 65 -40 101 -110 101h-87v-201h87z"/>
    <glyph glyph-name="Uacute" unicode="Ú" horiz-adv-x="726" d="M302 753l99 118h139l-116 -118h-122zM62 710h169v-455c0 -83 49 -135 132 -135c84 0 132 52 132 135v455h169v-462c0 -162 -112 -265 -301 -265s-301 103 -301 265v462z"/>
    <glyph glyph-name="Ubreve" unicode="Ŭ" horiz-adv-x="726" d="M291 871c4 -30 30 -48 73 -48c42 0 68 18 72 48h101c-8 -78 -67 -123 -173 -123c-107 0 -166 45 -174 123h101zM62 710h169v-455c0 -83 49 -135 132 -135c84 0 132 52 132 135v455h169v-462c0 -162 -112 -265 -301 -265s-301 103 -301 265v462z"/>
    <glyph glyph-name="Ucircumflex" unicode="Û" horiz-adv-x="726" d="M553 753h-123l-67 74l-67 -74h-124l106 118h169zM62 710h169v-455c0 -83 49 -135 132 -135c84 0 132 52 132 135v455h169v-462c0 -162 -112 -265 -301 -265s-301 103 -301 265v462z"/>
    <glyph glyph-name="Udieresis" unicode="Ü" horiz-adv-x="726" d="M183 753v115h133v-115h-133zM410 753v115h133v-115h-133zM62 710h169v-455c0 -83 49 -135 132 -135c84 0 132 52 132 135v455h169v-462c0 -162 -112 -265 -301 -265s-301 103 -301 265v462z"/>
    <glyph glyph-name="Ugrave" unicode="Ù" horiz-adv-x="726" d="M418 753h-122l-116 118h139zM62 710h169v-455c0 -83 49 -135 132 -135c84 0 132 52 132 135v455h169v-462c0 -162 -112 -265 -301 -265s-301 103 -301 265v462z"/>
    <glyph glyph-name="Uhungarumlaut" unicode="Ű" horiz-adv-x="726" d="M207 754l97 117h132l-102 -117h-127zM392 754l97 117h131l-102 -117h-126zM62 710h169v-455c0 -83 49 -135 132 -135c84 0 132 52 132 135v455h169v-462c0 -162 -112 -265 -301 -265s-301 103 -301 265v462z"/>
    <glyph glyph-name="Umacron" unicode="Ū" horiz-adv-x="726" d="M183 758v97h360v-97h-360zM62 710h169v-455c0 -83 49 -135 132 -135c84 0 132 52 132 135v455h169v-462c0 -162 -112 -265 -301 -265s-301 103 -301 265v462z"/>
    <glyph glyph-name="Uogonek" unicode="Ų" horiz-adv-x="726" d="M495 710h169v-462c0 -137 -80 -232 -220 -258c-58 -22 -79 -55 -79 -85c0 -23 13 -36 37 -36c22 0 39 13 56 41l67 -35c-29 -53 -68 -78 -132 -78c-78 0 -122 35 -122 93c0 38 19 69 60 94c-169 11 -269 111 -269 264v462h169v-455c0 -83 49 -135 132 -135 c84 0 132 52 132 135v455z"/>
    <glyph glyph-name="Uring" unicode="Ů" horiz-adv-x="726" d="M363 744c-76 0 -127 48 -127 118s51 117 127 117s128 -47 128 -117s-52 -118 -128 -118zM363 809c31 0 52 22 52 53s-21 53 -52 53s-52 -22 -52 -53s21 -53 52 -53zM62 710h169v-455c0 -83 49 -135 132 -135c84 0 132 52 132 135v455h169v-462 c0 -162 -112 -265 -301 -265s-301 103 -301 265v462z"/>
    <glyph glyph-name="Utilde" unicode="Ũ" horiz-adv-x="726" d="M437 742c-76 0 -101 61 -147 61c-24 0 -37 -15 -48 -54l-78 27c14 74 60 116 125 116c76 0 100 -62 147 -62c24 0 37 16 48 54l77 -27c-13 -74 -59 -115 -124 -115zM62 710h169v-455c0 -83 49 -135 132 -135c84 0 132 52 132 135v455h169v-462 c0 -162 -112 -265 -301 -265s-301 103 -301 265v462z"/>
    <glyph glyph-name="Wacute" unicode="Ẃ" horiz-adv-x="963" d="M420 753l99 118h139l-116 -118h-122zM188 0l-169 710h170l90 -461c4 -22 6 -40 7 -59h3c1 19 3 37 8 59l100 461h169l101 -461c5 -22 7 -40 8 -59h3c1 19 2 37 6 59l91 461h170l-169 -710h-189l-98 482c-3 16 -4 33 -5 52h-4c-1 -19 -3 -36 -6 -52l-98 -482h-188z"/>
    <glyph glyph-name="Wcircumflex" unicode="Ŵ" horiz-adv-x="963" d="M672 753h-123l-67 74l-67 -74h-124l106 118h169zM188 0l-169 710h170l90 -461c4 -22 6 -40 7 -59h3c1 19 3 37 8 59l100 461h169l101 -461c5 -22 7 -40 8 -59h3c1 19 2 37 6 59l91 461h170l-169 -710h-189l-98 482c-3 16 -4 33 -5 52h-4c-1 -19 -3 -36 -6 -52l-98 -482 h-188z"/>
    <glyph glyph-name="Wdieresis" unicode="Ẅ" horiz-adv-x="963" d="M302 753v115h133v-115h-133zM529 753v115h133v-115h-133zM188 0l-169 710h170l90 -461c4 -22 6 -40 7 -59h3c1 19 3 37 8 59l100 461h169l101 -461c5 -22 7 -40 8 -59h3c1 19 2 37 6 59l91 461h170l-169 -710h-189l-98 482c-3 16 -4 33 -5 52h-4c-1 -19 -3 -36 -6 -52 l-98 -482h-188z"/>
    <glyph glyph-name="Wgrave" unicode="Ẁ" horiz-adv-x="963" d="M536 753h-122l-116 118h139zM188 0l-169 710h170l90 -461c4 -22 6 -40 7 -59h3c1 19 3 37 8 59l100 461h169l101 -461c5 -22 7 -40 8 -59h3c1 19 2 37 6 59l91 461h170l-169 -710h-189l-98 482c-3 16 -4 33 -5 52h-4c-1 -19 -3 -36 -6 -52l-98 -482h-188z"/>
    <glyph glyph-name="Yacute" unicode="Ý" horiz-adv-x="636" d="M256 753l99 118h139l-116 -118h-122zM233 0v257l-236 453h178l125 -262c8 -18 14 -36 17 -52h2c3 16 9 34 17 52l124 262h179l-236 -453v-257h-170z"/>
    <glyph glyph-name="Ycircumflex" unicode="Ŷ" horiz-adv-x="636" d="M508 753h-123l-67 74l-67 -74h-124l106 118h169zM233 0v257l-236 453h178l125 -262c8 -18 14 -36 17 -52h2c3 16 9 34 17 52l124 262h179l-236 -453v-257h-170z"/>
    <glyph glyph-name="Ydieresis" unicode="Ÿ" horiz-adv-x="636" d="M138 753v115h133v-115h-133zM365 753v115h133v-115h-133zM233 0v257l-236 453h178l125 -262c8 -18 14 -36 17 -52h2c3 16 9 34 17 52l124 262h179l-236 -453v-257h-170z"/>
    <glyph glyph-name="Ygrave" unicode="Ỳ" horiz-adv-x="636" d="M372 753h-122l-116 118h139zM233 0v257l-236 453h178l125 -262c8 -18 14 -36 17 -52h2c3 16 9 34 17 52l124 262h179l-236 -453v-257h-170z"/>
    <glyph glyph-name="Zacute" unicode="Ź" horiz-adv-x="608" d="M246 753l99 118h139l-116 -118h-122zM35 122l342 457h-328v131h521v-122l-340 -458h355v-130h-550v122z"/>
    <glyph glyph-name="Zcaron" unicode="Ž" horiz-adv-x="608" d="M499 866l-106 -118h-169l-106 118h123l67 -74l67 74h124zM35 122l342 457h-328v131h521v-122l-340 -458h355v-130h-550v122z"/>
    <glyph glyph-name="Zdotaccent" unicode="Ż" horiz-adv-x="608" d="M226 753v118h164v-118h-164zM35 122l342 457h-328v131h521v-122l-340 -458h355v-130h-550v122z"/>
    <glyph glyph-name="a" unicode="a" horiz-adv-x="573" d="M198 -12c-103 0 -172 59 -172 148c0 47 17 84 51 108c33 23 81 39 157 49l121 17v17c0 57 -24 82 -74 82c-49 0 -77 -26 -80 -74h-159c8 111 98 177 240 177c161 0 233 -63 233 -207v-166c0 -59 5 -108 14 -139h-156c-5 24 -7 51 -8 79c-25 -56 -89 -91 -167 -91zM258 90 c61 0 102 41 102 101v40l-86 -14c-59 -11 -86 -32 -86 -69c0 -35 28 -58 70 -58z"/>
    <glyph glyph-name="b" unicode="b" horiz-adv-x="615" d="M376 -12c-70 0 -125 34 -151 88l-10 -76h-143v725h161v-293c26 48 79 80 148 80c123 0 201 -104 201 -262c0 -159 -80 -262 -206 -262zM322 99c61 0 95 54 95 151c0 95 -33 151 -96 150c-58 0 -92 -49 -92 -129v-42c0 -81 34 -130 93 -130z"/>
    <glyph glyph-name="c" unicode="c" horiz-adv-x="557" d="M292 -12c-158 0 -263 103 -263 262c0 163 101 262 265 262c131 0 218 -64 237 -177l-151 -31c-9 59 -41 90 -90 90c-61 0 -98 -52 -98 -139c0 -94 36 -148 99 -148c50 0 81 33 90 93l150 -33c-18 -110 -111 -179 -239 -179z"/>
    <glyph glyph-name="d" unicode="d" horiz-adv-x="615" d="M232 -12c-120 0 -200 104 -200 260c0 159 84 264 209 264c66 0 116 -27 141 -79v292h160v-725h-152v86c-25 -60 -85 -98 -158 -98zM295 99c55 0 89 49 89 127v43c0 85 -34 132 -91 132c-61 0 -96 -54 -96 -150c0 -94 37 -152 98 -152z"/>
    <glyph glyph-name="e" unicode="e" horiz-adv-x="562" d="M528 262v-48h-347c1 -68 48 -111 115 -111c49 0 86 24 109 70l118 -54c-40 -82 -125 -131 -229 -131c-165 0 -265 95 -265 257c0 164 98 267 254 267c157 0 245 -91 245 -250zM373 304v4c0 71 -33 109 -93 109c-62 0 -97 -42 -99 -113h192z"/>
    <glyph glyph-name="f" unicode="f" horiz-adv-x="391" d="M373 500v-107h-116v-393h-160v393h-80v107h80v47c0 119 69 184 196 184c28 0 55 -3 80 -9v-115c-17 3 -34 5 -49 5c-44 0 -67 -24 -67 -69v-43h116z"/>
    <glyph glyph-name="g" unicode="g" horiz-adv-x="575" d="M561 477c-16 3 -30 5 -45 5c-27 0 -49 -6 -65 -18c37 -29 58 -70 58 -119c0 -102 -87 -170 -229 -170c-38 0 -73 5 -103 14c-9 -6 -14 -15 -14 -26c0 -25 21 -41 68 -41h140c122 0 185 -51 185 -146c0 -114 -100 -183 -288 -183c-167 0 -246 49 -246 120 c0 40 29 72 86 90c-46 18 -69 51 -69 94c0 54 33 93 90 114c-49 30 -77 76 -77 134c0 101 87 167 228 167c44 0 83 -6 116 -18c17 56 66 91 145 91c7 0 13 0 20 -1v-107zM280 257c47 0 78 36 78 88c0 51 -31 85 -78 85c-46 0 -77 -34 -77 -85s31 -88 77 -88zM354 -12l-157 1 c-13 0 -25 1 -36 2c-14 -13 -20 -29 -20 -47c0 -44 51 -63 134 -63c103 0 147 23 147 59c0 32 -22 48 -68 48z"/>
    <glyph glyph-name="h" unicode="h" horiz-adv-x="614" d="M72 0v725h161v-314c31 68 84 101 159 101c108 0 163 -68 163 -201v-311h-160v295c0 63 -25 95 -74 95c-57 0 -88 -43 -88 -121v-269h-161z"/>
    <glyph glyph-name="i" unicode="i" horiz-adv-x="295" d="M64 572v146h167v-146h-167zM67 0v500h161v-500h-161z"/>
    <glyph glyph-name="j" unicode="j" horiz-adv-x="300" d="M69 572v146h167v-146h-167zM41 -202c-24 0 -60 3 -75 6v115c17 -2 33 -2 43 -2c47 0 64 18 64 84v499h160v-510c0 -120 -45 -192 -192 -192z"/>
    <glyph glyph-name="k" unicode="k" horiz-adv-x="594" d="M407 0l-119 202l-55 -59v-143h-161v725h161v-421l162 196h186l-182 -199l187 -301h-179z"/>
    <glyph glyph-name="l" unicode="l" horiz-adv-x="305" d="M233 725v-725h-161v725h161z"/>
    <glyph glyph-name="m" unicode="m" horiz-adv-x="890" d="M67 500h154v-90c32 69 80 102 154 102c71 0 117 -32 142 -103c36 70 88 103 160 103c97 0 154 -68 154 -185v-327h-160v293c0 67 -21 97 -67 97c-48 0 -75 -36 -75 -103v-287h-160v294c0 65 -22 96 -66 96c-48 0 -75 -37 -75 -104v-286h-161v500z"/>
    <glyph glyph-name="n" unicode="n" horiz-adv-x="609" d="M67 0v500h154v-96c35 73 90 108 166 108c108 0 163 -69 163 -202v-310h-160v288c0 69 -24 102 -75 102c-56 0 -87 -43 -87 -120v-270h-161z"/>
    <glyph glyph-name="o" unicode="o" horiz-adv-x="577" d="M288 -12c-147 0 -259 91 -259 263s112 261 259 261c148 0 260 -89 260 -261s-112 -263 -260 -263zM288 99c63 0 100 50 100 152c0 103 -37 150 -100 150c-62 0 -99 -47 -99 -150c0 -102 37 -152 99 -152z"/>
    <glyph glyph-name="p" unicode="p" horiz-adv-x="610" d="M67 -195v695h154v-80c31 60 88 92 156 92c121 0 200 -102 200 -261c0 -160 -82 -263 -206 -263c-63 0 -110 28 -143 75v-258h-161zM318 99c58 0 94 58 94 152c0 96 -34 150 -95 150c-58 0 -93 -48 -93 -139v-28c0 -82 36 -135 94 -135z"/>
    <glyph glyph-name="q" unicode="q" horiz-adv-x="610" d="M382 -195v273c-28 -56 -81 -90 -151 -90c-119 0 -199 103 -199 260c0 163 85 264 211 264c70 0 121 -29 147 -86l13 74h139v-695h-160zM292 99c56 0 92 49 92 128v46c0 80 -35 128 -93 128c-59 0 -94 -53 -94 -150c0 -95 35 -152 95 -152z"/>
    <glyph glyph-name="r" unicode="r" horiz-adv-x="412" d="M218 371c26 90 81 141 167 141h10v-153c-10 1 -18 1 -30 1c-43 0 -75 -11 -97 -30c-32 -30 -40 -75 -40 -126v-204h-161v500h151v-129z"/>
    <glyph glyph-name="s" unicode="s" horiz-adv-x="510" d="M263 -12c-109 0 -200 40 -247 116l92 68c36 -49 89 -75 158 -75c55 0 81 18 81 45s-16 37 -71 45l-78 14c-103 17 -155 68 -155 153c0 95 83 158 220 158c100 0 185 -34 226 -93l-83 -74c-39 39 -89 60 -152 60c-47 0 -70 -14 -70 -42c0 -24 16 -34 55 -41l99 -17 c103 -17 146 -68 146 -152c0 -100 -80 -165 -221 -165z"/>
    <glyph glyph-name="t" unicode="t" horiz-adv-x="396" d="M5 393v107h87v120l160 62v-182h119v-107h-119v-194c0 -50 25 -76 73 -76c19 0 31 2 46 5v-127c-37 -7 -62 -10 -91 -10c-133 0 -188 60 -188 170v232h-87z"/>
    <glyph glyph-name="u" unicode="u" horiz-adv-x="603" d="M227 -12c-118 0 -168 71 -168 188v324h160v-296c0 -62 25 -94 72 -94c52 0 84 41 84 104v286h161v-500h-153v91c-24 -63 -83 -103 -156 -103z"/>
    <glyph glyph-name="v" unicode="v" horiz-adv-x="532" d="M178 0l-174 500h165l81 -295c6 -23 12 -48 15 -71h2c3 23 8 48 15 71l81 295h165l-175 -500h-175z"/>
    <glyph glyph-name="w" unicode="w" horiz-adv-x="778" d="M149 0l-134 500h153l63 -306c2 -14 5 -31 7 -48h2c2 17 4 34 8 48l73 306h136l73 -306c3 -14 6 -31 8 -48h2c2 17 4 34 7 48l62 306h153l-133 -500h-156l-73 283c-3 14 -9 42 -10 54h-2c-1 -12 -7 -40 -10 -54l-73 -283h-156z"/>
    <glyph glyph-name="x" unicode="x" horiz-adv-x="564" d="M9 0l181 260l-170 240h178l61 -100c11 -18 20 -35 24 -51h2c5 16 14 34 25 51l59 100h169l-167 -238l184 -262h-179l-73 114c-13 20 -23 39 -26 52h-2c-4 -12 -14 -31 -27 -52l-74 -114h-165z"/>
    <glyph glyph-name="y" unicode="y" horiz-adv-x="538" d="M102 -200c-15 0 -40 2 -66 6v117c25 -4 37 -5 49 -5c58 0 89 19 103 64l7 21l-191 497h174l88 -304c6 -21 9 -37 11 -58h3c1 17 5 33 12 58l81 304h161l-179 -522c-44 -129 -120 -178 -253 -178z"/>
    <glyph glyph-name="z" unicode="z" horiz-adv-x="482" d="M22 94l238 293h-226v113h413v-91l-231 -294h246v-115h-440v94z"/>
    <glyph glyph-name="aacute" unicode="á" horiz-adv-x="573" d="M225 567l110 156h151l-138 -156h-123zM198 -12c-103 0 -172 59 -172 148c0 47 17 84 51 108c33 23 81 39 157 49l121 17v17c0 57 -24 82 -74 82c-49 0 -77 -26 -80 -74h-159c8 111 98 177 240 177c161 0 233 -63 233 -207v-166c0 -59 5 -108 14 -139h-156 c-5 24 -7 51 -8 79c-25 -56 -89 -91 -167 -91zM258 90c61 0 102 41 102 101v40l-86 -14c-59 -11 -86 -32 -86 -69c0 -35 28 -58 70 -58z"/>
    <glyph glyph-name="abreve" unicode="ă" horiz-adv-x="573" d="M214 723c2 -52 28 -81 73 -81s70 29 72 81h101c-6 -114 -76 -161 -173 -161c-98 0 -168 47 -174 161h101zM198 -12c-103 0 -172 59 -172 148c0 47 17 84 51 108c33 23 81 39 157 49l121 17v17c0 57 -24 82 -74 82c-49 0 -77 -26 -80 -74h-159c8 111 98 177 240 177 c161 0 233 -63 233 -207v-166c0 -59 5 -108 14 -139h-156c-5 24 -7 51 -8 79c-25 -56 -89 -91 -167 -91zM258 90c61 0 102 41 102 101v40l-86 -14c-59 -11 -86 -32 -86 -69c0 -35 28 -58 70 -58z"/>
    <glyph glyph-name="acircumflex" unicode="â" horiz-adv-x="573" d="M472 567h-116l-70 105l-69 -105h-117l106 156h160zM198 -12c-103 0 -172 59 -172 148c0 47 17 84 51 108c33 23 81 39 157 49l121 17v17c0 57 -24 82 -74 82c-49 0 -77 -26 -80 -74h-159c8 111 98 177 240 177c161 0 233 -63 233 -207v-166c0 -59 5 -108 14 -139h-156 c-5 24 -7 51 -8 79c-25 -56 -89 -91 -167 -91zM258 90c61 0 102 41 102 101v40l-86 -14c-59 -11 -86 -32 -86 -69c0 -35 28 -58 70 -58z"/>
    <glyph glyph-name="adieresis" unicode="ä" horiz-adv-x="573" d="M107 573v133h139v-133h-139zM327 573v133h139v-133h-139zM198 -12c-103 0 -172 59 -172 148c0 47 17 84 51 108c33 23 81 39 157 49l121 17v17c0 57 -24 82 -74 82c-49 0 -77 -26 -80 -74h-159c8 111 98 177 240 177c161 0 233 -63 233 -207v-166c0 -59 5 -108 14 -139 h-156c-5 24 -7 51 -8 79c-25 -56 -89 -91 -167 -91zM258 90c61 0 102 41 102 101v40l-86 -14c-59 -11 -86 -32 -86 -69c0 -35 28 -58 70 -58z"/>
    <glyph glyph-name="ae" unicode="æ" horiz-adv-x="867" d="M833 259v-43h-327c1 -68 43 -113 105 -113c44 0 78 24 99 70l118 -54c-38 -82 -120 -131 -220 -131c-90 0 -159 34 -200 94c-39 -60 -113 -94 -201 -94c-112 0 -181 57 -181 151c0 84 55 133 182 149l141 19v16c0 58 -24 85 -75 85c-47 0 -74 -25 -77 -73h-158 c8 110 95 177 232 177c74 0 129 -21 164 -60c41 39 96 60 165 60c149 0 233 -94 233 -253zM677 306c1 71 -29 111 -82 111c-54 0 -89 -39 -89 -110v-1h171zM354 191v37l-80 -13c-59 -9 -86 -31 -86 -70c0 -33 27 -55 67 -55c51 0 99 33 99 101z"/>
    <glyph glyph-name="aeacute" unicode="ǽ" horiz-adv-x="867" d="M631 723l-138 -156h-123l110 156h151zM833 259v-43h-327c1 -68 43 -113 105 -113c44 0 78 24 99 70l118 -54c-38 -82 -120 -131 -220 -131c-90 0 -159 34 -200 94c-39 -60 -113 -94 -201 -94c-112 0 -181 57 -181 151c0 84 55 133 182 149l141 19v16c0 58 -24 85 -75 85 c-47 0 -74 -25 -77 -73h-158c8 110 95 177 232 177c74 0 129 -21 164 -60c41 39 96 60 165 60c149 0 233 -94 233 -253zM677 306c1 71 -29 111 -82 111c-54 0 -89 -39 -89 -110v-1h171zM354 191v37l-80 -13c-59 -9 -86 -31 -86 -70c0 -33 27 -55 67 -55c51 0 99 33 99 101z "/>
    <glyph glyph-name="agrave" unicode="à" horiz-adv-x="573" d="M346 567h-122l-139 156h151zM198 -12c-103 0 -172 59 -172 148c0 47 17 84 51 108c33 23 81 39 157 49l121 17v17c0 57 -24 82 -74 82c-49 0 -77 -26 -80 -74h-159c8 111 98 177 240 177c161 0 233 -63 233 -207v-166c0 -59 5 -108 14 -139h-156c-5 24 -7 51 -8 79 c-25 -56 -89 -91 -167 -91zM258 90c61 0 102 41 102 101v40l-86 -14c-59 -11 -86 -32 -86 -69c0 -35 28 -58 70 -58z"/>
    <glyph glyph-name="amacron" unicode="ā" horiz-adv-x="573" d="M115 592v96h343v-96h-343zM198 -12c-103 0 -172 59 -172 148c0 47 17 84 51 108c33 23 81 39 157 49l121 17v17c0 57 -24 82 -74 82c-49 0 -77 -26 -80 -74h-159c8 111 98 177 240 177c161 0 233 -63 233 -207v-166c0 -59 5 -108 14 -139h-156c-5 24 -7 51 -8 79 c-25 -56 -89 -91 -167 -91zM258 90c61 0 102 41 102 101v40l-86 -14c-59 -11 -86 -32 -86 -69c0 -35 28 -58 70 -58z"/>
    <glyph glyph-name="aogonek" unicode="ą" horiz-adv-x="573" d="M467 -90l67 -35c-29 -53 -68 -78 -132 -78c-78 0 -122 35 -122 93c0 47 29 83 92 110h1c-5 24 -7 51 -8 79c-25 -56 -89 -91 -167 -91c-103 0 -172 59 -172 148c0 47 17 84 51 108c33 23 81 39 157 49l121 17v17c0 57 -24 82 -74 82c-49 0 -77 -26 -80 -74h-159 c8 111 98 177 240 177c161 0 233 -63 233 -207v-166c0 -59 5 -108 14 -139h-43c-83 -20 -112 -60 -112 -95c0 -23 13 -36 37 -36c22 0 39 13 56 41zM360 191v40l-86 -14c-59 -11 -86 -32 -86 -69c0 -35 28 -58 70 -58c61 0 102 41 102 101z"/>
    <glyph glyph-name="aring" unicode="å" horiz-adv-x="573" d="M286 548c-76 0 -127 47 -127 117s51 118 127 118c77 0 128 -48 128 -118s-51 -117 -128 -117zM286 612c31 0 52 22 52 53s-21 53 -52 53s-52 -22 -52 -53s21 -53 52 -53zM198 -12c-103 0 -172 59 -172 148c0 47 17 84 51 108c33 23 81 39 157 49l121 17v17 c0 57 -24 82 -74 82c-49 0 -77 -26 -80 -74h-159c8 111 98 177 240 177c161 0 233 -63 233 -207v-166c0 -59 5 -108 14 -139h-156c-5 24 -7 51 -8 79c-25 -56 -89 -91 -167 -91zM258 90c61 0 102 41 102 101v40l-86 -14c-59 -11 -86 -32 -86 -69c0 -35 28 -58 70 -58z"/>
    <glyph glyph-name="atilde" unicode="ã" horiz-adv-x="573" d="M365 568c-77 0 -104 68 -152 68c-24 0 -38 -16 -50 -58l-77 27c14 78 58 127 127 127c77 0 104 -67 153 -67c24 0 38 15 49 57l78 -27c-14 -78 -58 -127 -128 -127zM198 -12c-103 0 -172 59 -172 148c0 47 17 84 51 108c33 23 81 39 157 49l121 17v17c0 57 -24 82 -74 82 c-49 0 -77 -26 -80 -74h-159c8 111 98 177 240 177c161 0 233 -63 233 -207v-166c0 -59 5 -108 14 -139h-156c-5 24 -7 51 -8 79c-25 -56 -89 -91 -167 -91zM258 90c61 0 102 41 102 101v40l-86 -14c-59 -11 -86 -32 -86 -69c0 -35 28 -58 70 -58z"/>
    <glyph glyph-name="cacute" unicode="ć" horiz-adv-x="557" d="M226 567l110 156h151l-138 -156h-123zM292 -12c-158 0 -263 103 -263 262c0 163 101 262 265 262c131 0 218 -64 237 -177l-151 -31c-9 59 -41 90 -90 90c-61 0 -98 -52 -98 -139c0 -94 36 -148 99 -148c50 0 81 33 90 93l150 -33c-18 -110 -111 -179 -239 -179z"/>
    <glyph glyph-name="ccaron" unicode="č" horiz-adv-x="557" d="M100 718h117l69 -105l70 105h116l-106 -156h-160zM292 -12c-158 0 -263 103 -263 262c0 163 101 262 265 262c131 0 218 -64 237 -177l-151 -31c-9 59 -41 90 -90 90c-61 0 -98 -52 -98 -139c0 -94 36 -148 99 -148c50 0 81 33 90 93l150 -33 c-18 -110 -111 -179 -239 -179z"/>
    <glyph glyph-name="ccedilla" unicode="ç" horiz-adv-x="557" d="M291 107c50 0 81 33 90 93l150 -33c-17 -103 -99 -170 -214 -178l-21 -35c12 9 31 15 54 15c54 0 91 -30 91 -87c0 -63 -53 -95 -131 -95c-64 0 -109 24 -127 65l84 21c7 -15 21 -24 39 -24c24 0 40 15 40 37c0 21 -16 36 -39 36c-14 0 -25 -5 -33 -15l-60 14l31 70 c-131 19 -216 116 -216 259c0 163 101 262 265 262c131 0 218 -64 237 -177l-151 -31c-9 59 -41 90 -90 90c-61 0 -98 -52 -98 -139c0 -94 36 -148 99 -148z"/>
    <glyph glyph-name="ccircumflex" unicode="ĉ" horiz-adv-x="557" d="M472 567h-116l-70 105l-69 -105h-117l106 156h160zM292 -12c-158 0 -263 103 -263 262c0 163 101 262 265 262c131 0 218 -64 237 -177l-151 -31c-9 59 -41 90 -90 90c-61 0 -98 -52 -98 -139c0 -94 36 -148 99 -148c50 0 81 33 90 93l150 -33 c-18 -110 -111 -179 -239 -179z"/>
    <glyph glyph-name="cdotaccent" unicode="ċ" horiz-adv-x="557" d="M203 572v146h167v-146h-167zM292 -12c-158 0 -263 103 -263 262c0 163 101 262 265 262c131 0 218 -64 237 -177l-151 -31c-9 59 -41 90 -90 90c-61 0 -98 -52 -98 -139c0 -94 36 -148 99 -148c50 0 81 33 90 93l150 -33c-18 -110 -111 -179 -239 -179z"/>
    <glyph glyph-name="dcaron" unicode="ď" horiz-adv-x="691" d="M232 -12c-120 0 -200 104 -200 260c0 159 84 264 209 264c66 0 116 -27 141 -79v292h160v-725h-152v86c-25 -60 -85 -98 -158 -98zM626 521l-24 48c34 7 49 17 49 39h-65v102h132v-89c0 -52 -28 -89 -92 -100zM295 99c55 0 89 49 89 127v43c0 85 -34 132 -91 132 c-61 0 -96 -54 -96 -150c0 -94 37 -152 98 -152z"/>
    <glyph glyph-name="dcroat" unicode="đ" horiz-adv-x="615" d="M617 639v-57h-75v-582h-152v86c-25 -60 -85 -98 -158 -98c-120 0 -200 104 -200 260c0 159 84 264 209 264c66 0 116 -27 141 -79v149h-158v57h158v86h160v-86h75zM384 226v43c0 85 -34 132 -91 132c-61 0 -96 -54 -96 -150c0 -94 37 -152 98 -152c55 0 89 49 89 127z "/>
    <glyph glyph-name="eacute" unicode="é" horiz-adv-x="562" d="M480 723l-138 -156h-123l110 156h151zM528 262v-48h-347c1 -68 48 -111 115 -111c49 0 86 24 109 70l118 -54c-40 -82 -125 -131 -229 -131c-165 0 -265 95 -265 257c0 164 98 267 254 267c157 0 245 -91 245 -250zM373 304v4c0 71 -33 109 -93 109 c-62 0 -97 -42 -99 -113h192z"/>
    <glyph glyph-name="ebreve" unicode="ĕ" horiz-adv-x="562" d="M281 562c-98 0 -168 47 -174 161h101c2 -52 28 -81 73 -81s70 29 72 81h101c-6 -114 -76 -161 -173 -161zM528 262v-48h-347c1 -68 48 -111 115 -111c49 0 86 24 109 70l118 -54c-40 -82 -125 -131 -229 -131c-165 0 -265 95 -265 257c0 164 98 267 254 267 c157 0 245 -91 245 -250zM373 304v4c0 71 -33 109 -93 109c-62 0 -97 -42 -99 -113h192z"/>
    <glyph glyph-name="ecaron" unicode="ě" horiz-adv-x="562" d="M360 562h-160l-106 156h117l69 -105l70 105h116zM528 262v-48h-347c1 -68 48 -111 115 -111c49 0 86 24 109 70l118 -54c-40 -82 -125 -131 -229 -131c-165 0 -265 95 -265 257c0 164 98 267 254 267c157 0 245 -91 245 -250zM373 304v4c0 71 -33 109 -93 109 c-62 0 -97 -42 -99 -113h192z"/>
    <glyph glyph-name="ecircumflex" unicode="ê" horiz-adv-x="562" d="M280 672l-69 -105h-117l106 156h160l106 -156h-116zM528 262v-48h-347c1 -68 48 -111 115 -111c49 0 86 24 109 70l118 -54c-40 -82 -125 -131 -229 -131c-165 0 -265 95 -265 257c0 164 98 267 254 267c157 0 245 -91 245 -250zM373 304v4c0 71 -33 109 -93 109 c-62 0 -97 -42 -99 -113h192z"/>
    <glyph glyph-name="edieresis" unicode="ë" horiz-adv-x="562" d="M240 706v-133h-139v133h139zM460 706v-133h-139v133h139zM528 262v-48h-347c1 -68 48 -111 115 -111c49 0 86 24 109 70l118 -54c-40 -82 -125 -131 -229 -131c-165 0 -265 95 -265 257c0 164 98 267 254 267c157 0 245 -91 245 -250zM373 304v4c0 71 -33 109 -93 109 c-62 0 -97 -42 -99 -113h192z"/>
    <glyph glyph-name="edotaccent" unicode="ė" horiz-adv-x="562" d="M364 718v-146h-167v146h167zM528 262v-48h-347c1 -68 48 -111 115 -111c49 0 86 24 109 70l118 -54c-40 -82 -125 -131 -229 -131c-165 0 -265 95 -265 257c0 164 98 267 254 267c157 0 245 -91 245 -250zM373 304v4c0 71 -33 109 -93 109c-62 0 -97 -42 -99 -113h192z "/>
    <glyph glyph-name="egrave" unicode="è" horiz-adv-x="562" d="M340 567h-122l-139 156h151zM528 262v-48h-347c1 -68 48 -111 115 -111c49 0 86 24 109 70l118 -54c-40 -82 -125 -131 -229 -131c-165 0 -265 95 -265 257c0 164 98 267 254 267c157 0 245 -91 245 -250zM373 304v4c0 71 -33 109 -93 109c-62 0 -97 -42 -99 -113h192z "/>
    <glyph glyph-name="emacron" unicode="ē" horiz-adv-x="562" d="M452 688v-96h-343v96h343zM528 262v-48h-347c1 -68 48 -111 115 -111c49 0 86 24 109 70l118 -54c-40 -82 -125 -131 -229 -131c-165 0 -265 95 -265 257c0 164 98 267 254 267c157 0 245 -91 245 -250zM373 304v4c0 71 -33 109 -93 109c-62 0 -97 -42 -99 -113h192z"/>
    <glyph glyph-name="eogonek" unicode="ę" horiz-adv-x="562" d="M528 262v-48h-347c1 -68 48 -111 115 -111c49 0 86 24 109 70l118 -54c-28 -58 -79 -100 -144 -119h1c-83 -20 -112 -60 -112 -95c0 -23 13 -36 37 -36c22 0 39 13 56 41l67 -35c-29 -53 -68 -78 -132 -78c-78 0 -122 35 -122 93c0 42 23 75 73 101 c-137 17 -218 108 -218 254c0 164 98 267 254 267c157 0 245 -91 245 -250zM373 304v4c0 71 -33 109 -93 109c-62 0 -97 -42 -99 -113h192z"/>
    <glyph glyph-name="gbreve" unicode="ğ" horiz-adv-x="575" d="M287 562c-98 0 -168 47 -174 161h101c2 -52 28 -81 73 -81s70 29 72 81h101c-6 -114 -76 -161 -173 -161zM561 477c-16 3 -30 5 -45 5c-27 0 -49 -6 -65 -18c37 -29 58 -70 58 -119c0 -102 -87 -170 -229 -170c-38 0 -73 5 -103 14c-9 -6 -14 -15 -14 -26 c0 -25 21 -41 68 -41h140c122 0 185 -51 185 -146c0 -114 -100 -183 -288 -183c-167 0 -246 49 -246 120c0 40 29 72 86 90c-46 18 -69 51 -69 94c0 54 33 93 90 114c-49 30 -77 76 -77 134c0 101 87 167 228 167c44 0 83 -6 116 -18c17 56 66 91 145 91c7 0 13 0 20 -1 v-107zM280 257c47 0 78 36 78 88c0 51 -31 85 -78 85c-46 0 -77 -34 -77 -85s31 -88 77 -88zM354 -12l-157 1c-13 0 -25 1 -36 2c-14 -13 -20 -29 -20 -47c0 -44 51 -63 134 -63c103 0 147 23 147 59c0 32 -22 48 -68 48z"/>
    <glyph glyph-name="gcircumflex" unicode="ĝ" horiz-adv-x="575" d="M286 679l-69 -88h-117l106 132h160l106 -132h-116zM561 477c-16 3 -30 5 -45 5c-27 0 -49 -6 -65 -18c37 -29 58 -70 58 -119c0 -102 -87 -170 -229 -170c-38 0 -73 5 -103 14c-9 -6 -14 -15 -14 -26c0 -25 21 -41 68 -41h140c122 0 185 -51 185 -146 c0 -114 -100 -183 -288 -183c-167 0 -246 49 -246 120c0 40 29 72 86 90c-46 18 -69 51 -69 94c0 54 33 93 90 114c-49 30 -77 76 -77 134c0 101 87 167 228 167c44 0 83 -6 116 -18c17 56 66 91 145 91c7 0 13 0 20 -1v-107zM280 257c47 0 78 36 78 88c0 51 -31 85 -78 85 c-46 0 -77 -34 -77 -85s31 -88 77 -88zM354 -12l-157 1c-13 0 -25 1 -36 2c-14 -13 -20 -29 -20 -47c0 -44 51 -63 134 -63c103 0 147 23 147 59c0 32 -22 48 -68 48z"/>
    <glyph glyph-name="uni0123" unicode="ģ" horiz-adv-x="575" d="M354 669v-102h-132v89c0 56 24 99 89 112l27 -52c-36 -9 -49 -19 -49 -47h65zM561 477c-16 3 -30 5 -45 5c-27 0 -49 -6 -65 -18c37 -29 58 -70 58 -119c0 -102 -87 -170 -229 -170c-38 0 -73 5 -103 14c-9 -6 -14 -15 -14 -26c0 -25 21 -41 68 -41h140 c122 0 185 -51 185 -146c0 -114 -100 -183 -288 -183c-167 0 -246 49 -246 120c0 40 29 72 86 90c-46 18 -69 51 -69 94c0 54 33 93 90 114c-49 30 -77 76 -77 134c0 101 87 167 228 167c44 0 83 -6 116 -18c17 56 66 91 145 91c7 0 13 0 20 -1v-107zM280 257 c47 0 78 36 78 88c0 51 -31 85 -78 85c-46 0 -77 -34 -77 -85s31 -88 77 -88zM354 -12l-157 1c-13 0 -25 1 -36 2c-14 -13 -20 -29 -20 -47c0 -44 51 -63 134 -63c103 0 147 23 147 59c0 32 -22 48 -68 48z"/>
    <glyph glyph-name="gdotaccent" unicode="ġ" horiz-adv-x="575" d="M370 718v-146h-167v146h167zM561 477c-16 3 -30 5 -45 5c-27 0 -49 -6 -65 -18c37 -29 58 -70 58 -119c0 -102 -87 -170 -229 -170c-38 0 -73 5 -103 14c-9 -6 -14 -15 -14 -26c0 -25 21 -41 68 -41h140c122 0 185 -51 185 -146c0 -114 -100 -183 -288 -183 c-167 0 -246 49 -246 120c0 40 29 72 86 90c-46 18 -69 51 -69 94c0 54 33 93 90 114c-49 30 -77 76 -77 134c0 101 87 167 228 167c44 0 83 -6 116 -18c17 56 66 91 145 91c7 0 13 0 20 -1v-107zM280 257c47 0 78 36 78 88c0 51 -31 85 -78 85c-46 0 -77 -34 -77 -85 s31 -88 77 -88zM354 -12l-157 1c-13 0 -25 1 -36 2c-14 -13 -20 -29 -20 -47c0 -44 51 -63 134 -63c103 0 147 23 147 59c0 32 -22 48 -68 48z"/>
    <glyph glyph-name="hbar" unicode="ħ" horiz-adv-x="605" d="M392 512c108 0 163 -68 163 -201v-311h-160v295c0 63 -25 95 -74 95c-57 0 -88 -43 -88 -121v-269h-161v579h-72v57h72v89h161v-89h180v-57h-180v-168c31 68 84 101 159 101z"/>
    <glyph glyph-name="hcircumflex" unicode="ĥ" horiz-adv-x="614" d="M343 753h-123l-67 74l-67 -74h-124l106 118h169zM72 0v725h161v-314c31 68 84 101 159 101c108 0 163 -68 163 -201v-311h-160v295c0 63 -25 95 -74 95c-57 0 -88 -43 -88 -121v-269h-161z"/>
    <glyph glyph-name="iacute" unicode="í" horiz-adv-x="295" d="M87 567l82 156h142l-101 -156h-123zM67 0v500h161v-500h-161z"/>
    <glyph glyph-name="ibreve" unicode="ĭ" horiz-adv-x="295" d="M107 723c0 -60 14 -81 41 -81c26 0 39 21 40 81h99c-2 -119 -59 -161 -139 -161c-81 0 -138 42 -140 161h99zM67 0v500h161v-500h-161z"/>
    <glyph glyph-name="icircumflex" unicode="î" horiz-adv-x="295" d="M303 567h-111l-45 106l-44 -106h-112l76 156h160zM67 0v500h161v-500h-161z"/>
    <glyph glyph-name="idieresis" unicode="ï" horiz-adv-x="295" d="M-1 573v133h127v-133h-127zM170 573v133h128v-133h-128zM67 0v500h161v-500h-161z"/>
    <glyph glyph-name="i.loclTRK" horiz-adv-x="295" d="M64 572v146h167v-146h-167zM67 0v500h161v-500h-161z"/>
    <glyph glyph-name="dotlessi" unicode="ı" horiz-adv-x="295" d="M67 0v500h161v-500h-161z"/>
    <glyph glyph-name="igrave" unicode="ì" horiz-adv-x="295" d="M206 567h-123l-101 156h142zM67 0v500h161v-500h-161z"/>
    <glyph glyph-name="ij" unicode="ĳ" horiz-adv-x="595" d="M64 572v146h167v-146h-167zM364 572v146h167v-146h-167zM67 0v500h161v-500h-161zM336 -202c-24 0 -60 3 -75 6v115c17 -2 33 -2 43 -2c47 0 64 18 64 84v499h160v-510c0 -120 -45 -192 -192 -192z"/>
    <glyph glyph-name="uni006A0301" horiz-adv-x="300" d="M92 567l82 156h142l-101 -156h-123zM41 -202c-24 0 -60 3 -75 6v115c17 -2 33 -2 43 -2c47 0 64 18 64 84v499h160v-510c0 -120 -45 -192 -192 -192z"/>
    <glyph glyph-name="imacron" unicode="ī" horiz-adv-x="295" d="M20 592v96h256v-96h-256zM67 0v500h161v-500h-161z"/>
    <glyph glyph-name="iogonek" unicode="į" horiz-adv-x="295" d="M64 718h167v-146h-167v146zM106 -131c22 0 39 13 56 41l67 -35c-29 -53 -68 -78 -132 -78c-78 0 -122 35 -122 93c0 47 29 83 92 110v500h161v-500h-47c-83 -20 -112 -60 -112 -95c0 -23 13 -36 37 -36z"/>
    <glyph glyph-name="itilde" unicode="ĩ" horiz-adv-x="295" d="M212 568c-62 0 -89 68 -119 68c-15 0 -24 -16 -29 -56l-77 27c10 78 47 125 101 125c62 0 89 -67 119 -67c15 0 24 15 29 56l77 -28c-10 -78 -47 -125 -101 -125zM67 0v500h161v-500h-161z"/>
    <glyph glyph-name="jcircumflex" unicode="ĵ" horiz-adv-x="300" d="M308 567h-111l-45 106l-44 -106h-112l76 156h160zM41 -202c-24 0 -60 3 -75 6v115c17 -2 33 -2 43 -2c47 0 64 18 64 84v499h160v-510c0 -120 -45 -192 -192 -192z"/>
    <glyph glyph-name="uni0237" unicode="ȷ" horiz-adv-x="300" d="M41 -202c-24 0 -60 3 -75 6v115c17 -2 33 -2 43 -2c47 0 64 18 64 84v499h160v-510c0 -120 -45 -192 -192 -192z"/>
    <glyph glyph-name="uni0137" unicode="ķ" horiz-adv-x="594" d="M399 301l187 -301h-179l-119 202l-55 -59v-143h-161v725h161v-421l162 196h186zM249 -142v102h132v-89c0 -55 -24 -98 -89 -111l-27 51c36 9 49 20 49 47h-65z"/>
    <glyph glyph-name="kgreenlandic" unicode="ĸ" horiz-adv-x="589" d="M402 0l-119 202l-55 -59v-143h-161v500h161v-196l162 196h186l-182 -199l187 -301h-179z"/>
    <glyph glyph-name="lacute" unicode="ĺ" horiz-adv-x="305" d="M91 753l99 118h139l-116 -118h-122zM233 725v-725h-161v725h161z"/>
    <glyph glyph-name="lcaron" unicode="ľ" horiz-adv-x="382" d="M233 725v-725h-161v725h161zM317 521l-24 48c35 7 49 17 49 39h-65v102h132v-89c0 -52 -27 -89 -92 -100z"/>
    <glyph glyph-name="uni013C" unicode="ļ" horiz-adv-x="305" d="M233 725v-725h-161v725h161zM130 -240l-27 51c36 9 49 20 49 47h-65v102h132v-89c0 -55 -24 -98 -89 -111z"/>
    <glyph glyph-name="ldot" unicode="ŀ" horiz-adv-x="441" d="M233 725v-725h-161v725h161zM467 500v-164h-170v164h170z"/>
    <glyph glyph-name="lslash" unicode="ł" horiz-adv-x="305" d="M286 554v-78l-53 -48v-428h-161v281l-55 -50v78l55 50v366h161v-219z"/>
    <glyph glyph-name="nacute" unicode="ń" horiz-adv-x="609" d="M259 567l110 156h151l-138 -156h-123zM67 0v500h154v-96c35 73 90 108 166 108c108 0 163 -69 163 -202v-310h-160v288c0 69 -24 102 -75 102c-56 0 -87 -43 -87 -120v-270h-161z"/>
    <glyph glyph-name="napostrophe" unicode="ŉ" d="M53 521l-25 48c35 7 50 17 50 39h-66v102h133v-89c0 -52 -28 -89 -92 -100zM78 0v500h154v-96c35 73 89 108 165 108c108 0 164 -69 164 -202v-310h-161v288c0 69 -24 102 -75 102c-55 0 -87 -43 -87 -120v-270h-160z"/>
    <glyph glyph-name="ncaron" unicode="ň" horiz-adv-x="609" d="M134 718h117l69 -105l70 105h116l-106 -156h-160zM67 0v500h154v-96c35 73 90 108 166 108c108 0 163 -69 163 -202v-310h-160v288c0 69 -24 102 -75 102c-56 0 -87 -43 -87 -120v-270h-161z"/>
    <glyph glyph-name="uni0146" unicode="ņ" horiz-adv-x="609" d="M67 0v500h154v-96c35 73 90 108 166 108c108 0 163 -69 163 -202v-310h-160v288c0 69 -24 102 -75 102c-56 0 -87 -43 -87 -120v-270h-161zM282 -240l-27 51c36 9 49 20 49 47h-65v102h132v-89c0 -55 -24 -98 -89 -111z"/>
    <glyph glyph-name="ntilde" unicode="ñ" horiz-adv-x="609" d="M398 568c-77 0 -104 68 -152 68c-24 0 -38 -16 -50 -58l-77 27c14 78 58 127 127 127c77 0 104 -67 153 -67c24 0 38 15 49 57l78 -27c-14 -78 -58 -127 -128 -127zM67 0v500h154v-96c35 73 90 108 166 108c108 0 163 -69 163 -202v-310h-160v288c0 69 -24 102 -75 102 c-56 0 -87 -43 -87 -120v-270h-161z"/>
    <glyph glyph-name="eng" unicode="ŋ" horiz-adv-x="609" d="M387 512c108 0 163 -69 163 -202v-311c0 -128 -42 -201 -184 -201c-26 0 -60 2 -82 6v115c23 -2 34 -2 47 -2c43 0 59 20 59 85v286c0 69 -24 102 -75 102c-56 0 -87 -43 -87 -120v-270h-161v500h154v-96c35 73 90 108 166 108z"/>
    <glyph glyph-name="oacute" unicode="ó" horiz-adv-x="577" d="M227 567l110 156h151l-138 -156h-123zM288 -12c-147 0 -259 91 -259 263s112 261 259 261c148 0 260 -89 260 -261s-112 -263 -260 -263zM288 99c63 0 100 50 100 152c0 103 -37 150 -100 150c-62 0 -99 -47 -99 -150c0 -102 37 -152 99 -152z"/>
    <glyph glyph-name="obreve" unicode="ŏ" horiz-adv-x="577" d="M216 723c2 -52 28 -81 73 -81s70 29 72 81h101c-6 -114 -76 -161 -173 -161c-98 0 -168 47 -174 161h101zM288 -12c-147 0 -259 91 -259 263s112 261 259 261c148 0 260 -89 260 -261s-112 -263 -260 -263zM288 99c63 0 100 50 100 152c0 103 -37 150 -100 150 c-62 0 -99 -47 -99 -150c0 -102 37 -152 99 -152z"/>
    <glyph glyph-name="ocircumflex" unicode="ô" horiz-adv-x="577" d="M474 567h-116l-70 105l-69 -105h-117l106 156h160zM288 -12c-147 0 -259 91 -259 263s112 261 259 261c148 0 260 -89 260 -261s-112 -263 -260 -263zM288 99c63 0 100 50 100 152c0 103 -37 150 -100 150c-62 0 -99 -47 -99 -150c0 -102 37 -152 99 -152z"/>
    <glyph glyph-name="odieresis" unicode="ö" horiz-adv-x="577" d="M109 573v133h139v-133h-139zM329 573v133h139v-133h-139zM288 -12c-147 0 -259 91 -259 263s112 261 259 261c148 0 260 -89 260 -261s-112 -263 -260 -263zM288 99c63 0 100 50 100 152c0 103 -37 150 -100 150c-62 0 -99 -47 -99 -150c0 -102 37 -152 99 -152z"/>
    <glyph glyph-name="oe" unicode="œ" horiz-adv-x="921" d="M887 262v-48h-347c1 -68 47 -111 115 -111c49 0 86 24 109 70l118 -54c-40 -82 -126 -131 -230 -131c-81 0 -146 23 -191 65c-42 -41 -100 -65 -173 -65c-156 0 -259 104 -259 262c0 159 101 262 259 262c73 0 132 -24 174 -67c44 43 105 67 180 67 c156 0 245 -91 245 -250zM731 308c1 71 -33 109 -93 109c-62 0 -96 -42 -98 -113h191v4zM288 99c64 0 100 54 100 151s-36 151 -100 151c-63 0 -99 -54 -99 -151s36 -151 99 -151z"/>
    <glyph glyph-name="ograve" unicode="ò" horiz-adv-x="577" d="M348 567h-122l-139 156h151zM288 -12c-147 0 -259 91 -259 263s112 261 259 261c148 0 260 -89 260 -261s-112 -263 -260 -263zM288 99c63 0 100 50 100 152c0 103 -37 150 -100 150c-62 0 -99 -47 -99 -150c0 -102 37 -152 99 -152z"/>
    <glyph glyph-name="ohungarumlaut" unicode="ő" horiz-adv-x="577" d="M146 567l88 156h115l-92 -156h-111zM318 567l88 156h115l-92 -156h-111zM288 -12c-147 0 -259 91 -259 263s112 261 259 261c148 0 260 -89 260 -261s-112 -263 -260 -263zM288 99c63 0 100 50 100 152c0 103 -37 150 -100 150c-62 0 -99 -47 -99 -150 c0 -102 37 -152 99 -152z"/>
    <glyph glyph-name="omacron" unicode="ō" horiz-adv-x="577" d="M117 592v96h343v-96h-343zM288 -12c-147 0 -259 91 -259 263s112 261 259 261c148 0 260 -89 260 -261s-112 -263 -260 -263zM288 99c63 0 100 50 100 152c0 103 -37 150 -100 150c-62 0 -99 -47 -99 -150c0 -102 37 -152 99 -152z"/>
    <glyph glyph-name="ordfeminine" unicode="ª" horiz-adv-x="460" d="M155 301c-77 0 -129 44 -129 108c0 76 55 101 144 114l103 15v15c0 33 -16 48 -48 48c-33 0 -51 -16 -54 -49h-134c7 85 77 132 189 132c127 0 184 -47 184 -151v-129c0 -38 4 -74 10 -94h-132c-4 17 -6 35 -6 57c-20 -41 -69 -66 -127 -66zM210 378c41 0 68 26 68 62v43 l-51 -9c-48 -8 -70 -22 -70 -53c0 -25 20 -43 53 -43z"/>
    <glyph glyph-name="ordmasculine" unicode="º" horiz-adv-x="459" d="M229 301c-112 0 -200 64 -200 193c0 128 88 190 200 190s201 -62 201 -190c0 -129 -89 -193 -201 -193zM229 391c41 0 66 33 66 103s-25 100 -66 100s-66 -30 -66 -100s25 -103 66 -103z"/>
    <glyph glyph-name="oslash" unicode="ø" horiz-adv-x="577" d="M475 445c46 -44 73 -109 73 -194c0 -172 -112 -263 -260 -263c-57 0 -109 14 -151 41l-37 -46l-36 26l38 47c-45 44 -73 110 -73 195c0 172 112 261 259 261c57 0 109 -13 151 -39l36 44l37 -27zM189 251c0 -30 3 -55 9 -76l159 196c-17 20 -40 30 -69 30 c-62 0 -99 -47 -99 -150zM288 99c63 0 100 50 100 152c0 30 -3 55 -9 75l-159 -196c17 -21 40 -31 68 -31z"/>
    <glyph glyph-name="oslashacute" unicode="ǿ" horiz-adv-x="577" d="M490 723l-138 -156h-123l110 156h151zM475 445c46 -44 73 -109 73 -194c0 -172 -112 -263 -260 -263c-57 0 -109 14 -151 41l-37 -46l-36 26l38 47c-45 44 -73 110 -73 195c0 172 112 261 259 261c57 0 109 -13 151 -39l36 44l37 -27zM189 251c0 -30 3 -55 9 -76l159 196 c-17 20 -40 30 -69 30c-62 0 -99 -47 -99 -150zM288 99c63 0 100 50 100 152c0 30 -3 55 -9 75l-159 -196c17 -21 40 -31 68 -31z"/>
    <glyph glyph-name="otilde" unicode="õ" horiz-adv-x="577" d="M367 568c-77 0 -104 68 -152 68c-24 0 -38 -16 -50 -58l-77 27c14 78 58 127 127 127c77 0 104 -67 153 -67c24 0 38 15 49 57l78 -27c-14 -78 -58 -127 -128 -127zM288 -12c-147 0 -259 91 -259 263s112 261 259 261c148 0 260 -89 260 -261s-112 -263 -260 -263z M288 99c63 0 100 50 100 152c0 103 -37 150 -100 150c-62 0 -99 -47 -99 -150c0 -102 37 -152 99 -152z"/>
    <glyph glyph-name="racute" unicode="ŕ" horiz-adv-x="412" d="M154 567l110 156h151l-138 -156h-123zM218 371c26 90 81 141 167 141h10v-153c-10 1 -18 1 -30 1c-43 0 -75 -11 -97 -30c-32 -30 -40 -75 -40 -126v-204h-161v500h151v-129z"/>
    <glyph glyph-name="rcaron" unicode="ř" horiz-adv-x="412" d="M28 718h117l69 -105l70 105h116l-106 -156h-160zM218 371c26 90 81 141 167 141h10v-153c-10 1 -18 1 -30 1c-43 0 -75 -11 -97 -30c-32 -30 -40 -75 -40 -126v-204h-161v500h151v-129z"/>
    <glyph glyph-name="uni0157" unicode="ŗ" horiz-adv-x="412" d="M218 371c26 90 81 141 167 141h10v-153c-10 1 -18 1 -30 1c-43 0 -75 -11 -97 -30c-32 -30 -40 -75 -40 -126v-204h-161v500h151v-129zM125 -240l-27 51c36 9 49 20 49 47h-65v102h132v-89c0 -55 -24 -98 -89 -111z"/>
    <glyph glyph-name="sacute" unicode="ś" horiz-adv-x="510" d="M193 567l110 156h151l-138 -156h-123zM263 -12c-109 0 -200 40 -247 116l92 68c36 -49 89 -75 158 -75c55 0 81 18 81 45s-16 37 -71 45l-78 14c-103 17 -155 68 -155 153c0 95 83 158 220 158c100 0 185 -34 226 -93l-83 -74c-39 39 -89 60 -152 60 c-47 0 -70 -14 -70 -42c0 -24 16 -34 55 -41l99 -17c103 -17 146 -68 146 -152c0 -100 -80 -165 -221 -165z"/>
    <glyph glyph-name="scaron" unicode="š" horiz-adv-x="510" d="M68 718h117l69 -105l70 105h116l-106 -156h-160zM263 -12c-109 0 -200 40 -247 116l92 68c36 -49 89 -75 158 -75c55 0 81 18 81 45s-16 37 -71 45l-78 14c-103 17 -155 68 -155 153c0 95 83 158 220 158c100 0 185 -34 226 -93l-83 -74c-39 39 -89 60 -152 60 c-47 0 -70 -14 -70 -42c0 -24 16 -34 55 -41l99 -17c103 -17 146 -68 146 -152c0 -100 -80 -165 -221 -165z"/>
    <glyph glyph-name="scedilla" unicode="ş" horiz-adv-x="510" d="M338 305c103 -17 146 -68 146 -152c0 -92 -67 -154 -188 -164l-21 -35c12 9 31 15 54 15c54 0 91 -30 91 -87c0 -63 -53 -95 -131 -95c-64 0 -109 24 -127 65l84 21c7 -15 21 -24 39 -24c24 0 40 15 40 37c0 21 -16 36 -39 36c-14 0 -25 -5 -33 -15l-60 14l30 69 c-91 8 -166 47 -207 114l92 68c36 -49 89 -75 158 -75c55 0 81 18 81 45s-16 37 -71 45l-78 14c-103 17 -155 68 -155 153c0 95 83 158 220 158c100 0 185 -34 226 -93l-83 -74c-39 39 -89 60 -152 60c-47 0 -70 -14 -70 -42c0 -24 16 -34 55 -41z"/>
    <glyph glyph-name="scircumflex" unicode="ŝ" horiz-adv-x="510" d="M440 567h-116l-70 105l-69 -105h-117l106 156h160zM263 -12c-109 0 -200 40 -247 116l92 68c36 -49 89 -75 158 -75c55 0 81 18 81 45s-16 37 -71 45l-78 14c-103 17 -155 68 -155 153c0 95 83 158 220 158c100 0 185 -34 226 -93l-83 -74c-39 39 -89 60 -152 60 c-47 0 -70 -14 -70 -42c0 -24 16 -34 55 -41l99 -17c103 -17 146 -68 146 -152c0 -100 -80 -165 -221 -165z"/>
    <glyph glyph-name="uni0219" unicode="ș" horiz-adv-x="510" d="M263 -12c-109 0 -200 40 -247 116l92 68c36 -49 89 -75 158 -75c55 0 81 18 81 45s-16 37 -71 45l-78 14c-103 17 -155 68 -155 153c0 95 83 158 220 158c100 0 185 -34 226 -93l-83 -74c-39 39 -89 60 -152 60c-47 0 -70 -14 -70 -42c0 -24 16 -34 55 -41l99 -17 c103 -17 146 -68 146 -152c0 -100 -80 -165 -221 -165zM245 -240l-27 51c36 9 49 20 49 47h-65v102h132v-89c0 -55 -24 -98 -89 -111z"/>
    <glyph glyph-name="tbar" unicode="ŧ" horiz-adv-x="398" d="M371 393h-119v-79h108v-84h-108v-31c0 -50 25 -76 73 -76c19 0 31 2 46 5v-127c-37 -7 -62 -10 -91 -10c-133 0 -188 60 -188 170v69h-72v84h72v79h-87v107h87v120l160 62v-182h119v-107z"/>
    <glyph glyph-name="tcaron" unicode="ť" horiz-adv-x="403" d="M322 521l-24 48c35 7 49 17 49 39h-65v102h132v-89c0 -52 -27 -89 -92 -100zM5 393v107h87v120l160 62v-182h119v-107h-119v-194c0 -50 25 -76 73 -76c19 0 31 2 46 5v-127c-37 -7 -62 -10 -91 -10c-133 0 -188 60 -188 170v232h-87z"/>
    <glyph glyph-name="uni0163" unicode="ţ" horiz-adv-x="396" d="M314 -31c54 0 91 -30 91 -87c0 -63 -53 -95 -131 -95c-64 0 -109 24 -127 65l84 21c7 -15 21 -24 39 -24c24 0 40 15 40 37c0 21 -16 36 -39 36c-14 0 -25 -5 -33 -15l-60 14l34 77c-84 18 -120 74 -120 163v232h-87v107h87v120l160 62v-182h119v-107h-119v-194 c0 -50 25 -76 73 -76c19 0 31 2 46 5v-127c-36 -7 -61 -10 -89 -10l-22 -37c12 9 31 15 54 15z"/>
    <glyph glyph-name="uni021B" unicode="ț" horiz-adv-x="396" d="M5 393v107h87v120l160 62v-182h119v-107h-119v-194c0 -50 25 -76 73 -76c19 0 31 2 46 5v-127c-37 -7 -62 -10 -91 -10c-133 0 -188 60 -188 170v232h-87zM229 -240l-27 51c36 9 49 20 49 47h-65v102h132v-89c0 -55 -24 -98 -89 -111z"/>
    <glyph glyph-name="thorn" unicode="þ" horiz-adv-x="615" d="M72 -195v920h161v-292c31 51 86 79 152 79c121 0 197 -107 197 -261c0 -155 -78 -263 -205 -263c-64 0 -115 27 -144 77v-260h-161zM323 99c59 0 94 63 94 152c0 91 -34 150 -95 150c-60 0 -93 -50 -93 -139v-28c0 -82 35 -135 94 -135z"/>
    <glyph glyph-name="uacute" unicode="ú" horiz-adv-x="603" d="M236 567l110 156h151l-138 -156h-123zM227 -12c-118 0 -168 71 -168 188v324h160v-296c0 -62 25 -94 72 -94c52 0 84 41 84 104v286h161v-500h-153v91c-24 -63 -83 -103 -156 -103z"/>
    <glyph glyph-name="ubreve" unicode="ŭ" horiz-adv-x="603" d="M225 723c2 -52 28 -81 73 -81s70 29 72 81h101c-6 -114 -76 -161 -173 -161c-98 0 -168 47 -174 161h101zM227 -12c-118 0 -168 71 -168 188v324h160v-296c0 -62 25 -94 72 -94c52 0 84 41 84 104v286h161v-500h-153v91c-24 -63 -83 -103 -156 -103z"/>
    <glyph glyph-name="ucircumflex" unicode="û" horiz-adv-x="603" d="M483 567h-116l-70 105l-69 -105h-117l106 156h160zM227 -12c-118 0 -168 71 -168 188v324h160v-296c0 -62 25 -94 72 -94c52 0 84 41 84 104v286h161v-500h-153v91c-24 -63 -83 -103 -156 -103z"/>
    <glyph glyph-name="udieresis" unicode="ü" horiz-adv-x="603" d="M118 573v133h139v-133h-139zM338 573v133h139v-133h-139zM227 -12c-118 0 -168 71 -168 188v324h160v-296c0 -62 25 -94 72 -94c52 0 84 41 84 104v286h161v-500h-153v91c-24 -63 -83 -103 -156 -103z"/>
    <glyph glyph-name="ugrave" unicode="ù" horiz-adv-x="603" d="M357 567h-122l-139 156h151zM227 -12c-118 0 -168 71 -168 188v324h160v-296c0 -62 25 -94 72 -94c52 0 84 41 84 104v286h161v-500h-153v91c-24 -63 -83 -103 -156 -103z"/>
    <glyph glyph-name="uhungarumlaut" unicode="ű" horiz-adv-x="603" d="M155 567l88 156h115l-92 -156h-111zM327 567l88 156h115l-92 -156h-111zM227 -12c-118 0 -168 71 -168 188v324h160v-296c0 -62 25 -94 72 -94c52 0 84 41 84 104v286h161v-500h-153v91c-24 -63 -83 -103 -156 -103z"/>
    <glyph glyph-name="umacron" unicode="ū" horiz-adv-x="603" d="M126 592v96h343v-96h-343zM227 -12c-118 0 -168 71 -168 188v324h160v-296c0 -62 25 -94 72 -94c52 0 84 41 84 104v286h161v-500h-153v91c-24 -63 -83 -103 -156 -103z"/>
    <glyph glyph-name="uogonek" unicode="ų" horiz-adv-x="603" d="M478 -90l67 -35c-29 -53 -68 -78 -132 -78c-78 0 -122 35 -122 93c0 47 29 83 92 110v91c-24 -63 -83 -103 -156 -103c-118 0 -168 71 -168 188v324h160v-296c0 -62 25 -94 72 -94c52 0 84 41 84 104v286h161v-500h-39c-83 -20 -112 -60 -112 -95c0 -23 13 -36 37 -36 c22 0 39 13 56 41z"/>
    <glyph glyph-name="uring" unicode="ů" horiz-adv-x="603" d="M297 548c-76 0 -127 47 -127 117s51 118 127 118c77 0 128 -48 128 -118s-51 -117 -128 -117zM297 612c31 0 52 22 52 53s-21 53 -52 53s-52 -22 -52 -53s21 -53 52 -53zM227 -12c-118 0 -168 71 -168 188v324h160v-296c0 -62 25 -94 72 -94c52 0 84 41 84 104v286h161 v-500h-153v91c-24 -63 -83 -103 -156 -103z"/>
    <glyph glyph-name="utilde" unicode="ũ" horiz-adv-x="603" d="M376 568c-77 0 -104 68 -152 68c-24 0 -38 -16 -50 -58l-77 27c14 78 58 127 127 127c77 0 104 -67 153 -67c24 0 38 15 49 57l78 -27c-14 -78 -58 -127 -128 -127zM227 -12c-118 0 -168 71 -168 188v324h160v-296c0 -62 25 -94 72 -94c52 0 84 41 84 104v286h161v-500 h-153v91c-24 -63 -83 -103 -156 -103z"/>
    <glyph glyph-name="wacute" unicode="ẃ" horiz-adv-x="778" d="M328 567l110 156h151l-138 -156h-123zM149 0l-134 500h153l63 -306c2 -14 5 -31 7 -48h2c2 17 4 34 8 48l73 306h136l73 -306c3 -14 6 -31 8 -48h2c2 17 4 34 7 48l62 306h153l-133 -500h-156l-73 283c-3 14 -9 42 -10 54h-2c-1 -12 -7 -40 -10 -54l-73 -283h-156z"/>
    <glyph glyph-name="wcircumflex" unicode="ŵ" horiz-adv-x="778" d="M575 567h-116l-70 105l-69 -105h-117l106 156h160zM149 0l-134 500h153l63 -306c2 -14 5 -31 7 -48h2c2 17 4 34 8 48l73 306h136l73 -306c3 -14 6 -31 8 -48h2c2 17 4 34 7 48l62 306h153l-133 -500h-156l-73 283c-3 14 -9 42 -10 54h-2c-1 -12 -7 -40 -10 -54l-73 -283 h-156z"/>
    <glyph glyph-name="wdieresis" unicode="ẅ" horiz-adv-x="778" d="M210 573v133h139v-133h-139zM430 573v133h139v-133h-139zM149 0l-134 500h153l63 -306c2 -14 5 -31 7 -48h2c2 17 4 34 8 48l73 306h136l73 -306c3 -14 6 -31 8 -48h2c2 17 4 34 7 48l62 306h153l-133 -500h-156l-73 283c-3 14 -9 42 -10 54h-2c-1 -12 -7 -40 -10 -54 l-73 -283h-156z"/>
    <glyph glyph-name="wgrave" unicode="ẁ" horiz-adv-x="778" d="M449 567h-122l-139 156h151zM149 0l-134 500h153l63 -306c2 -14 5 -31 7 -48h2c2 17 4 34 8 48l73 306h136l73 -306c3 -14 6 -31 8 -48h2c2 17 4 34 7 48l62 306h153l-133 -500h-156l-73 283c-3 14 -9 42 -10 54h-2c-1 -12 -7 -40 -10 -54l-73 -283h-156z"/>
    <glyph glyph-name="yacute" unicode="ý" horiz-adv-x="538" d="M214 567l110 156h151l-138 -156h-123zM102 -200c-15 0 -40 2 -66 6v117c25 -4 37 -5 49 -5c58 0 89 19 103 64l7 21l-191 497h174l88 -304c6 -21 9 -37 11 -58h3c1 17 5 33 12 58l81 304h161l-179 -522c-44 -129 -120 -178 -253 -178z"/>
    <glyph glyph-name="ycircumflex" unicode="ŷ" horiz-adv-x="538" d="M461 567h-116l-70 105l-69 -105h-117l106 156h160zM102 -200c-15 0 -40 2 -66 6v117c25 -4 37 -5 49 -5c58 0 89 19 103 64l7 21l-191 497h174l88 -304c6 -21 9 -37 11 -58h3c1 17 5 33 12 58l81 304h161l-179 -522c-44 -129 -120 -178 -253 -178z"/>
    <glyph glyph-name="ydieresis" unicode="ÿ" horiz-adv-x="538" d="M96 573v133h139v-133h-139zM316 573v133h139v-133h-139zM102 -200c-15 0 -40 2 -66 6v117c25 -4 37 -5 49 -5c58 0 89 19 103 64l7 21l-191 497h174l88 -304c6 -21 9 -37 11 -58h3c1 17 5 33 12 58l81 304h161l-179 -522c-44 -129 -120 -178 -253 -178z"/>
    <glyph glyph-name="ygrave" unicode="ỳ" horiz-adv-x="538" d="M335 567h-122l-139 156h151zM102 -200c-15 0 -40 2 -66 6v117c25 -4 37 -5 49 -5c58 0 89 19 103 64l7 21l-191 497h174l88 -304c6 -21 9 -37 11 -58h3c1 17 5 33 12 58l81 304h161l-179 -522c-44 -129 -120 -178 -253 -178z"/>
    <glyph glyph-name="zacute" unicode="ź" horiz-adv-x="482" d="M183 567l110 156h151l-138 -156h-123zM22 94l238 293h-226v113h413v-91l-231 -294h246v-115h-440v94z"/>
    <glyph glyph-name="zcaron" unicode="ž" horiz-adv-x="482" d="M58 718h117l69 -105l70 105h116l-106 -156h-160zM22 94l238 293h-226v113h413v-91l-231 -294h246v-115h-440v94z"/>
    <glyph glyph-name="zdotaccent" unicode="ż" horiz-adv-x="482" d="M161 572v146h167v-146h-167zM22 94l238 293h-226v113h413v-91l-231 -294h246v-115h-440v94z"/>
    <glyph glyph-name="germandbls" unicode="ß" horiz-adv-x="628" d="M69 486c0 155 84 241 249 241c150 0 236 -59 236 -169c0 -85 -55 -148 -143 -159c120 -11 186 -76 186 -185c0 -144 -96 -226 -253 -226c-19 0 -43 2 -65 7v112c12 -3 28 -5 40 -5c73 0 118 43 118 122c0 72 -47 111 -136 113h-23v109h25c59 2 91 38 91 100 c0 47 -29 73 -79 73c-57 0 -86 -40 -86 -108v-511h-160v486z"/>
    <glyph glyph-name="eth" unicode="ð" horiz-adv-x="581" d="M442 636c73 -92 112 -211 112 -348c0 -189 -105 -300 -269 -300c-161 0 -253 95 -253 260c0 162 83 264 214 264c65 0 110 -37 132 -82h2c-14 55 -42 108 -83 156l-101 -34l-16 44l82 28c-21 20 -44 39 -70 57l136 59c30 -20 57 -42 81 -67l73 25l15 -44zM292 99 c65 0 102 56 102 153c0 95 -37 150 -100 150c-64 0 -100 -53 -100 -151c0 -93 37 -152 98 -152z"/>
    <glyph glyph-name="grave" unicode="`" horiz-adv-x="600" d="M245 567h-122l-139 156h151z"/>
    <glyph glyph-name="acute" unicode="´" horiz-adv-x="600" d="M49 567l110 156h151l-138 -156h-123z"/>
    <glyph glyph-name="circumflex" unicode="ˆ" horiz-adv-x="600" d="M414 567h-116l-70 105l-69 -105h-117l106 156h160z"/>
    <glyph glyph-name="tilde" unicode="˜" horiz-adv-x="600" d="M330 568c-77 0 -104 68 -152 68c-24 0 -38 -16 -50 -58l-77 27c14 78 58 127 127 127c77 0 104 -67 153 -67c24 0 38 15 49 57l78 -27c-14 -78 -58 -127 -128 -127z"/>
    <glyph glyph-name="caron" unicode="ˇ" horiz-adv-x="600" d="M42 718h117l69 -105l70 105h116l-106 -156h-160z"/>
    <glyph glyph-name="dieresis" unicode="¨" horiz-adv-x="600" d="M50 573v133h139v-133h-139zM270 573v133h139v-133h-139z"/>
    <glyph glyph-name="macron" unicode="¯" horiz-adv-x="600" d="M50 592v96h343v-96h-343z"/>
    <glyph glyph-name="breve" unicode="˘" horiz-adv-x="600" d="M152 723c2 -52 28 -81 73 -81s70 29 72 81h101c-6 -114 -76 -161 -173 -161c-98 0 -168 47 -174 161h101z"/>
    <glyph glyph-name="ring" unicode="˚" horiz-adv-x="600" d="M165 548c-76 0 -127 47 -127 117s51 118 127 118c77 0 128 -48 128 -118s-51 -117 -128 -117zM165 612c31 0 52 22 52 53s-21 53 -52 53s-52 -22 -52 -53s21 -53 52 -53z"/>
    <glyph glyph-name="hungarumlaut" unicode="˝" horiz-adv-x="600" d="M74 567l88 156h115l-92 -156h-111zM246 567l88 156h115l-92 -156h-111z"/>
    <glyph glyph-name="dotaccent" unicode="˙" horiz-adv-x="600" d="M50 572v146h167v-146h-167z"/>
    <glyph glyph-name="cedilla" unicode="¸" horiz-adv-x="600" d="M121 7h76l-32 -53c12 9 31 15 54 15c54 0 91 -30 91 -87c0 -63 -53 -95 -131 -95c-64 0 -109 24 -127 65l84 21c7 -15 21 -24 39 -24c24 0 40 15 40 37c0 21 -16 36 -39 36c-14 0 -25 -5 -33 -15l-60 14z"/>
    <glyph glyph-name="ogonek" unicode="˛" horiz-adv-x="600" d="M304 -125c-29 -53 -68 -78 -132 -78c-78 0 -122 35 -122 93c0 47 29 83 92 110h114c-83 -20 -112 -60 -112 -95c0 -23 13 -36 37 -36c22 0 39 13 56 41z"/>
    <glyph glyph-name="comma" unicode="," horiz-adv-x="285" d="M98 -155l-33 66c58 19 72 42 72 87v2h-80v164h171v-155c0 -83 -36 -135 -130 -164z"/>
    <glyph glyph-name="semicolon" unicode=";" horiz-adv-x="285" d="M228 500v-164h-171v164h171zM98 -155l-33 66c58 19 72 42 72 87v2h-80v164h171v-155c0 -83 -36 -135 -130 -164z"/>
    <glyph glyph-name="colon" unicode=":" horiz-adv-x="285" d="M228 500v-164h-171v164h171zM228 164v-164h-171v164h171z"/>
    <glyph glyph-name="period" unicode="." horiz-adv-x="285" d="M228 164v-164h-171v164h171z"/>
    <glyph glyph-name="ellipsis" unicode="…" horiz-adv-x="849" d="M228 159v-159h-171v159h171zM510 159v-159h-171v159h171zM792 159v-159h-171v159h171z"/>
    <glyph glyph-name="hyphen" unicode="-" horiz-adv-x="415" d="M44 346h327v-136h-327v136z"/>
    <glyph glyph-name="exclam" unicode="!" horiz-adv-x="330" d="M101 232l-27 493h182l-27 -493h-128zM252 153v-153h-174v153h174z"/>
    <glyph glyph-name="exclamdown" unicode="¡" horiz-adv-x="330" d="M252 427h-174v153h174v-153zM101 348h128l27 -493h-182z"/>
    <glyph glyph-name="question" unicode="?" horiz-adv-x="530" d="M176 214v48c0 39 15 77 64 115l51 39c38 29 60 60 60 109c0 50 -33 82 -88 82c-60 0 -98 -34 -98 -95c0 -17 1 -33 6 -50l-154 13c-5 23 -7 41 -7 58c0 116 95 194 254 194c158 0 251 -68 251 -185c0 -73 -38 -134 -94 -179l-46 -38c-32 -26 -43 -46 -43 -82v-29h-156z M169 0v153h172v-153h-172z"/>
    <glyph glyph-name="questiondown" unicode="¿" horiz-adv-x="530" d="M361 580v-153h-173v153h173zM354 366v-48c0 -39 -15 -77 -64 -115l-51 -39c-38 -29 -60 -60 -60 -109c0 -50 33 -82 88 -82c60 0 98 34 98 95c0 17 -2 33 -6 50l154 -13c5 -23 7 -41 7 -58c0 -116 -95 -194 -254 -194c-158 0 -251 68 -251 185c0 73 37 134 94 179l45 38 c33 26 43 46 43 82v29h157z"/>
    <glyph glyph-name="quoteleft" unicode="‘" horiz-adv-x="285" d="M187 737l33 -66c-59 -19 -72 -42 -72 -87v-2h80v-164h-171v155c0 83 36 135 130 164z"/>
    <glyph glyph-name="quoteright" unicode="’" horiz-adv-x="285" d="M98 392l-33 65c58 19 72 42 72 87v2h-80v164h171v-155c0 -82 -36 -135 -130 -163z"/>
    <glyph glyph-name="quotedblleft" unicode="“" horiz-adv-x="501" d="M187 737l33 -66c-59 -19 -72 -41 -72 -86v-3h80v-163h-171v154c0 83 36 136 130 164zM404 737l32 -66c-58 -19 -71 -41 -71 -86v-3h79v-163h-170v154c0 83 36 136 130 164z"/>
    <glyph glyph-name="quotedblright" unicode="”" horiz-adv-x="501" d="M98 392l-33 65c58 19 72 42 72 87v2h-80v164h171v-155c0 -82 -36 -135 -130 -163zM314 392l-32 65c58 19 71 42 71 87v2h-79v164h170v-155c0 -82 -36 -135 -130 -163z"/>
    <glyph glyph-name="quotesinglbase" unicode="‚" horiz-adv-x="285" d="M98 -155l-33 66c58 19 72 42 72 87v2h-80v164h171v-155c0 -83 -36 -135 -130 -164z"/>
    <glyph glyph-name="quotedblbase" unicode="„" horiz-adv-x="501" d="M98 -155l-33 66c58 19 72 42 72 87v2h-80v164h171v-155c0 -83 -36 -135 -130 -164zM314 -155l-32 66c58 19 71 42 71 87v2h-79v164h170v-155c0 -83 -36 -135 -130 -164z"/>
    <glyph glyph-name="guilsinglleft" unicode="‹" horiz-adv-x="338" d="M180 67l-163 209l166 206h138l-163 -205l161 -210h-139z"/>
    <glyph glyph-name="guilsinglright" unicode="›" horiz-adv-x="338" d="M158 67h-139l161 210l-163 205h138l166 -206z"/>
    <glyph glyph-name="periodcentered" unicode="·" horiz-adv-x="285" d="M228 418v-164h-171v164h171z"/>
    <glyph glyph-name="slash" unicode="/" horiz-adv-x="506" d="M182 -117h-140l282 877h140z"/>
    <glyph glyph-name="bar" unicode="|" horiz-adv-x="245" d="M72 -117v877h100v-877h-100z"/>
    <glyph glyph-name="endash" unicode="–" horiz-adv-x="621" d="M44 335h534v-114h-534v114z"/>
    <glyph glyph-name="emdash" unicode="—" horiz-adv-x="857" d="M44 335h769v-114h-769v114z"/>
    <glyph glyph-name="bullet" unicode="•" horiz-adv-x="373" d="M186 212c-74 0 -129 52 -129 127c0 77 55 129 129 129c75 0 130 -50 130 -129c0 -75 -55 -127 -130 -127z"/>
    <glyph glyph-name="parenleft" unicode="(" horiz-adv-x="355" d="M231 -140c-109 124 -177 286 -177 467c0 184 69 334 177 455l120 -46c-101 -128 -147 -254 -147 -410s46 -290 147 -420z"/>
    <glyph glyph-name="parenright" unicode=")" horiz-adv-x="355" d="M124 -140l-120 46c101 130 147 264 147 420s-46 282 -147 410l119 46c109 -121 178 -271 178 -455c0 -181 -68 -343 -177 -467z"/>
    <glyph glyph-name="bracketleft" unicode="[" horiz-adv-x="359" d="M74 -114v871h264v-112h-117v-647h117v-112h-264z"/>
    <glyph glyph-name="bracketright" unicode="]" horiz-adv-x="359" d="M284 -114h-263v112h117v647h-117v112h263v-871z"/>
    <glyph glyph-name="braceleft" unicode="{" horiz-adv-x="383" d="M290 -115c-121 0 -176 51 -176 156v138c0 65 -14 95 -80 97v106c68 2 79 27 79 93v133c0 95 66 154 180 154h66v-112h-27c-50 0 -72 -29 -72 -76v-95c0 -79 -20 -131 -97 -149c76 -22 96 -76 96 -156v-106c0 -46 21 -70 67 -70h36v-113h-72z"/>
    <glyph glyph-name="braceright" unicode="}" horiz-adv-x="383" d="M93 -115h-72v113h36c46 0 66 24 66 70v106c0 80 20 134 97 156c-77 18 -98 70 -98 149v95c0 47 -21 76 -71 76h-27v112h66c114 0 180 -59 180 -154v-133c0 -66 11 -91 79 -93v-106c-66 -2 -80 -32 -80 -97v-138c0 -105 -55 -156 -176 -156z"/>
    <glyph glyph-name="guillemotleft" unicode="«" horiz-adv-x="569" d="M180 67l-163 209l166 206h138l-163 -205l161 -210h-139zM411 67l-163 209l166 206h138l-163 -205l162 -210h-140z"/>
    <glyph glyph-name="guillemotright" unicode="»" horiz-adv-x="569" d="M158 67h-139l161 210l-163 205h138l166 -206zM389 67h-139l161 210l-163 205h138l166 -206z"/>
    <glyph glyph-name="zero" unicode="0" horiz-adv-x="667" d="M333 -15c-188 0 -299 134 -299 362c0 229 111 363 299 363c189 0 300 -134 300 -363c0 -228 -111 -362 -300 -362zM333 110c86 0 134 82 134 237c0 156 -48 238 -134 238c-85 0 -133 -82 -133 -238c0 -155 48 -237 133 -237z"/>
    <glyph glyph-name="one" unicode="1" horiz-adv-x="438" d="M179 0v477c-26 -25 -73 -38 -121 -38h-28v145h19c84 3 132 35 160 111h131v-695h-161z"/>
    <glyph glyph-name="two" unicode="2" horiz-adv-x="587" d="M29 0v118c104 63 190 123 251 180c68 63 95 115 95 183c0 66 -32 102 -90 102c-59 0 -94 -38 -94 -100c0 -17 3 -36 7 -57l-164 16c-4 18 -6 37 -6 54c0 130 102 214 265 214c160 0 254 -79 254 -217c0 -93 -41 -172 -125 -247c-46 -40 -103 -79 -173 -118h304v-128h-524 z"/>
    <glyph glyph-name="three" unicode="3" horiz-adv-x="604" d="M299 -15c-167 0 -272 87 -274 226l163 15c1 -73 44 -117 112 -117c66 0 101 35 101 96s-39 93 -120 93h-38v110h36c71 0 107 33 107 92c0 56 -34 88 -93 88c-65 0 -102 -45 -102 -122l-159 21c0 136 105 223 269 223c160 0 251 -70 251 -191c0 -78 -56 -140 -139 -159 c102 -15 157 -72 157 -166c0 -128 -106 -209 -271 -209z"/>
    <glyph glyph-name="four" unicode="4" horiz-adv-x="643" d="M608 153h-104v-153h-159v153h-320v109l301 433h178v-424h104v-118zM351 471c0 36 0 52 2 77h-2c-9 -23 -21 -42 -40 -71l-99 -146c-20 -29 -32 -45 -46 -60h185v200z"/>
    <glyph glyph-name="five" unicode="5" horiz-adv-x="595" d="M294 -15c-144 0 -243 73 -263 193l157 25c11 -56 48 -92 105 -92c69 0 109 45 109 121c0 77 -39 128 -106 128c-54 0 -91 -30 -106 -83l-144 14l43 404h437v-128h-319l-19 -159c31 45 84 69 153 69c138 0 221 -91 221 -240c0 -155 -101 -252 -268 -252z"/>
    <glyph glyph-name="six" unicode="6" horiz-adv-x="607" d="M362 469c133 0 215 -89 215 -233c0 -148 -106 -251 -258 -251c-179 0 -285 129 -285 350c0 234 109 375 288 375c141 0 224 -62 244 -182l-152 -24c-13 56 -44 85 -95 85c-79 0 -127 -75 -130 -201c35 52 93 81 173 81zM316 107c66 0 107 46 107 122 c0 74 -44 123 -109 123c-57 0 -102 -35 -124 -95c9 -93 55 -150 126 -150z"/>
    <glyph glyph-name="seven" unicode="7" horiz-adv-x="536" d="M117 0v12c0 199 93 390 244 549h-339v134h499v-124c-147 -153 -228 -328 -228 -546v-25h-176z"/>
    <glyph glyph-name="eight" unicode="8" horiz-adv-x="630" d="M459 384c98 -37 141 -97 141 -191c0 -125 -113 -208 -287 -208c-170 0 -283 78 -283 196c0 86 41 139 133 167c-77 36 -112 90 -112 169c0 116 102 193 257 193c158 0 260 -69 260 -177c0 -73 -34 -122 -109 -149zM309 601c-65 0 -103 -31 -103 -84c0 -45 33 -74 109 -93 l40 -11c43 23 60 53 60 97c0 57 -40 91 -106 91zM316 103c73 0 120 37 120 94c0 50 -34 82 -112 103l-54 14c-53 -25 -75 -58 -75 -111c0 -60 48 -100 121 -100z"/>
    <glyph glyph-name="nine" unicode="9" horiz-adv-x="608" d="M294 710c181 0 280 -119 280 -351c0 -231 -89 -374 -284 -374c-138 0 -229 65 -249 186l152 27c12 -54 47 -88 105 -88c81 0 121 79 122 211c-33 -51 -91 -74 -156 -74c-142 0 -234 88 -234 225c0 140 101 238 264 238zM294 364c54 0 105 36 125 91 c-4 74 -40 137 -123 137c-68 0 -112 -46 -112 -115c0 -66 45 -113 110 -113z"/>
    <glyph glyph-name="zero.zero" horiz-adv-x="667" d="M333 710c189 0 300 -134 300 -363c0 -228 -111 -362 -300 -362c-188 0 -299 134 -299 362c0 229 111 363 299 363zM333 585c-85 0 -133 -82 -133 -238c0 -42 4 -79 11 -111l219 292c-22 38 -55 57 -97 57zM333 110c86 0 134 82 134 237c0 43 -4 80 -11 112l-219 -292 c22 -38 55 -57 96 -57z"/>
    <glyph glyph-name="asterisk" unicode="*" horiz-adv-x="381" d="M377 549l-135 -19l100 -92l-94 -69l-57 121l-58 -121l-94 69l100 92l-135 19l37 111l116 -67l-25 132h117l-26 -132l117 67z"/>
    <glyph glyph-name="asciitilde" unicode="~" d="M412 201c-98 0 -140 80 -202 80c-37 0 -64 -25 -75 -70l-90 22c21 93 82 146 162 146c98 0 140 -81 202 -81c37 0 64 25 76 70l90 -21c-22 -93 -82 -146 -163 -146z"/>
    <glyph glyph-name="brokenbar" unicode="¦" horiz-adv-x="244" d="M172 760v-375h-100v375h100zM172 264v-381h-100v381h100z"/>
    <glyph glyph-name="backslash" unicode="\" horiz-adv-x="506" d="M324 -117l-282 877h140l282 -877h-140z"/>
    <glyph glyph-name="underscore" unicode="_" horiz-adv-x="469" d="M0 -89h469v-89h-469v89z"/>
    <glyph glyph-name="quotesingle" unicode="'" horiz-adv-x="258" d="M75 410l-18 300h143l-18 -300h-107z"/>
    <glyph glyph-name="quotedbl" unicode="&quot;" horiz-adv-x="458" d="M75 410l-18 300h143l-18 -300h-107zM276 410l-18 300h143l-18 -300h-107z"/>
    <glyph glyph-name="ampersand" unicode="&amp;" horiz-adv-x="700" d="M657 117c21 0 25 0 31 2v-119c-23 -6 -43 -9 -67 -9c-56 0 -105 20 -146 56c-59 -41 -129 -64 -207 -64c-158 0 -256 81 -256 205c0 81 39 137 144 194c-56 65 -78 116 -78 173c0 113 79 182 210 182c130 0 212 -66 212 -169c0 -79 -51 -141 -144 -191l-4 -2l130 -136 c21 46 36 101 44 166l125 -27c-10 -90 -38 -169 -80 -231c23 -20 51 -30 86 -30zM292 639c-43 0 -69 -27 -70 -76c0 -33 15 -62 62 -115l7 4c47 23 71 60 71 109s-25 78 -70 78zM173 199c0 -58 52 -101 123 -101c36 0 70 11 99 31l-165 174c-42 -29 -57 -58 -57 -104z"/>
    <glyph glyph-name="at" unicode="@" horiz-adv-x="842" d="M431 -102c-246 0 -402 147 -402 378c0 225 161 384 402 384c236 0 382 -144 382 -364c0 -142 -70 -231 -181 -231c-70 0 -118 28 -134 78c-25 -51 -76 -80 -140 -80c-84 0 -142 51 -142 126c0 76 49 116 161 134l111 16v19c0 48 -17 68 -61 68c-42 0 -63 -21 -65 -64 h-133c4 93 81 153 199 153c124 0 187 -55 187 -165v-140c0 -51 12 -73 44 -73c49 0 79 60 79 157c0 187 -109 301 -308 301c-202 0 -323 -126 -323 -319c0 -188 132 -311 335 -311c62 0 132 16 183 40l28 -60c-64 -32 -134 -47 -222 -47zM405 153c52 0 85 34 85 88v26 l-62 -9c-52 -8 -77 -27 -77 -58c0 -27 23 -47 54 -47z"/>
    <glyph glyph-name="copyright" unicode="©" horiz-adv-x="801" d="M401 -17c-202 0 -372 143 -372 372c0 230 170 372 372 372c201 0 371 -142 371 -372c0 -229 -170 -372 -371 -372zM401 42c164 0 303 120 303 313c0 194 -139 313 -303 313c-165 0 -304 -119 -304 -313c0 -193 139 -313 304 -313zM408 142c-122 0 -198 82 -198 214 c0 130 76 213 198 213c104 0 171 -54 181 -144l-104 -19c-5 47 -33 78 -78 78c-57 0 -92 -50 -92 -128c0 -79 36 -129 93 -129c41 0 72 31 78 76l103 -21c-18 -89 -85 -140 -181 -140z"/>
    <glyph glyph-name="registered" unicode="®" horiz-adv-x="801" d="M401 727c201 0 371 -142 371 -372c0 -229 -170 -372 -371 -372c-202 0 -372 143 -372 372c0 230 170 372 372 372zM401 42c164 0 303 120 303 313c0 194 -139 313 -303 313c-165 0 -304 -119 -304 -313c0 -193 139 -313 304 -313zM576 433c0 -52 -30 -93 -81 -111 l93 -167h-112l-81 155h-45v-155h-102v407h177c97 0 151 -47 151 -129zM350 487v-107h56c41 0 65 19 65 53c0 36 -22 54 -65 54h-56z"/>
    <glyph glyph-name="trademark" unicode="™" horiz-adv-x="903" d="M128 304v324h-123v82h350v-82h-129v-324h-98zM398 304v406h140l73 -243c6 -23 9 -45 10 -63h3c1 18 4 40 10 63l72 243h140v-406h-89v238c0 40 0 55 2 88h-1c-5 -24 -9 -40 -19 -74l-75 -252h-84l-75 252c-10 34 -14 50 -18 74h-2c2 -33 2 -48 2 -88v-238h-89z"/>
    <glyph glyph-name="paragraph" unicode="¶" horiz-adv-x="708" d="M286 348c-117 0 -231 39 -231 186c0 140 114 186 236 186h332v-75h-74v-744h-84v744h-95v-744h-84v447z"/>
    <glyph glyph-name="section" unicode="§" horiz-adv-x="492" d="M413 193c35 -30 50 -68 50 -116c0 -110 -88 -168 -226 -168c-111 0 -196 42 -239 116l89 76c33 -54 88 -83 155 -83c48 0 74 16 74 48c0 26 -15 39 -70 58l-107 37c-90 32 -131 82 -131 156c0 55 27 95 79 118c-39 30 -57 68 -57 118c0 105 83 162 214 162 c94 0 173 -35 217 -95l-86 -79c-31 45 -78 69 -132 69c-44 0 -68 -16 -68 -46c0 -26 13 -39 63 -56l104 -34c89 -28 130 -78 130 -156c0 -53 -21 -96 -59 -125zM226 268l102 -32l4 -1c13 12 18 27 18 45c0 34 -19 51 -83 76l-103 38c-17 -11 -26 -27 -26 -49 c0 -36 19 -52 88 -77z"/>
    <glyph glyph-name="asciicircum" unicode="^" horiz-adv-x="466" d="M173 709h120l153 -262h-125l-88 164l-89 -164h-124z"/>
    <glyph glyph-name="dagger" unicode="†" horiz-adv-x="494" d="M304 406v-506h-114v506h-139v94h139v220h114v-220h140v-94h-140z"/>
    <glyph glyph-name="daggerdbl" unicode="‡" horiz-adv-x="494" d="M444 406h-140v-188h139v-94h-139v-224h-114v224h-139v94h139v188h-139v94h139v220h114v-220h140v-94z"/>
    <glyph glyph-name="emptyset" unicode="∅" horiz-adv-x="541" d="M512 519l-56 -60c33 -40 52 -93 52 -154c0 -141 -99 -237 -238 -237c-53 0 -100 14 -138 39l-57 -61l-46 43l56 61c-33 40 -52 93 -52 154c0 141 99 236 238 236c53 0 100 -14 138 -39l57 62zM154 305c0 -25 5 -46 15 -64l159 172c-17 9 -36 14 -57 14 c-67 0 -117 -49 -117 -122zM386 304c0 24 -5 45 -14 63l-159 -171c17 -9 36 -14 57 -14c68 0 116 48 116 122z"/>
    <glyph glyph-name="uni2126" unicode="Ω" horiz-adv-x="682" d="M640 0h-250l-17 270c78 15 119 73 119 165c0 98 -59 161 -151 161s-151 -63 -151 -161c0 -92 41 -150 120 -165l-18 -270h-250v130h139l5 56c-99 36 -154 127 -154 252c0 172 124 287 309 287s310 -115 310 -287c0 -125 -56 -216 -154 -252l4 -56h139v-130z"/>
    <glyph glyph-name="uni2206" unicode="∆" horiz-adv-x="670" d="M9 0l239 710h176l236 -710h-651zM335 548l-137 -429h268z"/>
    <glyph glyph-name="uni00B5" unicode="µ" horiz-adv-x="612" d="M384 500h160v-500h-152v91c-24 -63 -84 -103 -156 -103c-9 0 -17 0 -25 1v-184h-144v695h161v-296c0 -62 24 -94 72 -94c51 0 84 41 84 104v286z"/>
    <glyph glyph-name="uniF8FF" unicode="" horiz-adv-x="1018" d="M998 663h-552v-47h552v-48h-552v-47h552v-48h-552v-47h552v-47h-552v-48h552v-47h-978v426h978v-47zM67 667l13 9h-16l-5 15l-4 -15h-16l13 -9l-5 -15l12 9l13 -9zM142 676h-16l13 -9l-5 -15l12 10l13 -10l-5 15l12 9h-15l-5 15zM229 676h-16l13 -9l-5 -15l12 10l13 -10 l-5 15l12 9h-15l-5 15zM315 676h-15l13 -9l-5 -15l12 10l13 -10l-5 15l12 9h-15l-5 15zM415 667l12 9h-15l-5 15l-5 -15h-15l12 -9l-4 -15l12 10l13 -10zM98 632h-15l12 -9l-4 -14l12 9l12 -9l-4 14l12 9h-15l-5 15zM371 623l13 9h-16l-4 15l-5 -15h-15l12 -9l-5 -14l13 9 l12 -9zM273 364v93h94v80h-94v94h-80v-94h-93v-80h93v-93h80zM67 580l13 9h-16l-5 14l-4 -14h-16l13 -9l-5 -15l12 9l13 -9zM142 589h-16l13 -9l-5 -15l12 9l13 -9l-5 15l12 9h-15l-5 14zM315 589h-15l13 -9l-5 -15l12 9l13 -9l-5 15l12 9h-15l-5 14zM415 580l12 9h-15 l-5 14l-5 -14h-15l12 -9l-4 -15l12 9l13 -9zM67 492l13 10h-16l-5 14l-4 -14h-16l13 -10l-5 -14l12 9l13 -9zM415 492l12 10h-15l-5 14l-5 -14h-15l12 -10l-4 -14l12 9l13 -9zM67 405l13 9h-16l-5 15l-4 -15h-16l13 -9l-5 -14l12 9l13 -9zM154 405l12 9h-15l-5 15l-4 -15 h-16l13 -9l-5 -14l12 9l13 -9zM328 405l12 9h-15l-5 15l-5 -15h-15l13 -9l-5 -14l12 9l13 -9zM415 405l12 9h-15l-5 15l-5 -15h-15l12 -9l-4 -14l12 9l13 -9zM115 347l-4 15l12 9h-15l-5 14l-5 -14h-15l12 -9l-4 -15l12 9zM376 347l-5 15l13 9h-16l-4 14l-5 -14h-15l12 -9 l-5 -15l13 9zM72 303l-5 15l13 9h-16l-5 15l-4 -15h-16l13 -9l-5 -15l12 9zM159 303l-5 15l12 9h-15l-5 15l-4 -15h-16l13 -9l-5 -15l12 9zM246 303l-5 15l12 9h-15l-5 15l-4 -15h-16l13 -9l-5 -15l12 9zM333 303l-5 15l12 9h-15l-5 15l-5 -15h-15l13 -9l-5 -15l12 9z M420 303l-5 15l12 9h-15l-5 15l-5 -15h-15l12 -9l-4 -15l12 9zM20 189v48h977v-48h-977zM20 95v47h978v-47h-978zM20 0v47h978v-47h-978z"/>
    <glyph glyph-name="uni2113" unicode="ℓ" horiz-adv-x="557" d="M267 210c6 -75 38 -100 110 -100c26 0 49 2 72 7v-117c-29 -9 -66 -14 -112 -14c-143 0 -214 55 -230 164l-75 -21l-35 112c39 11 75 22 107 33v231c0 150 78 222 208 222c132 0 210 -69 210 -193c0 -141 -89 -246 -255 -324zM266 552v-210c71 44 100 98 100 186 c0 67 -17 92 -52 92c-31 0 -48 -24 -48 -68z"/>
    <glyph glyph-name="estimated" unicode="℮" horiz-adv-x="722" d="M693 346h-479v-239c50 -36 110 -46 161 -46c108 0 181 36 243 125l55 -43c-71 -112 -173 -158 -298 -158c-182 0 -346 108 -346 366c0 242 159 364 340 364c198 0 324 -132 324 -329v-40zM516 603c-47 35 -106 44 -152 44c-44 0 -102 -11 -150 -47v-187h302v190z"/>
    <glyph glyph-name="dollar" unicode="$" horiz-adv-x="619" d="M599 200c0 -121 -100 -203 -258 -214v-93h-66v93c-131 8 -230 64 -277 154l121 83c37 -69 88 -106 156 -116v197l-38 9c-133 30 -200 98 -200 202c0 113 91 185 238 194v91h66v-91c105 -8 186 -52 242 -129l-108 -88c-31 55 -75 89 -134 101v-168l43 -10 c149 -34 215 -96 215 -215zM180 522c0 -40 24 -63 95 -82v156c-59 -4 -95 -29 -95 -74zM341 105c68 6 110 36 110 87c0 53 -31 77 -110 97v-184z"/>
    <glyph glyph-name="cent" unicode="¢" horiz-adv-x="559" d="M319 95c51 10 77 46 85 101l129 -28c-19 -103 -99 -170 -214 -179v-90h-59v90c-144 13 -231 110 -231 261s86 247 231 260v84h59v-83c119 -7 197 -72 215 -180l-131 -22c-9 56 -34 90 -84 99v-313zM166 250c0 -86 31 -141 94 -154v312c-61 -13 -94 -71 -94 -158z"/>
    <glyph glyph-name="sterling" unicode="£" horiz-adv-x="655" d="M504 197l144 -23c-16 -117 -90 -189 -196 -189c-99 0 -141 26 -254 26c-48 0 -105 -7 -159 -19l-32 92c94 27 139 81 139 167c0 25 -2 47 -6 68h-101v76h86c-7 29 -12 59 -12 93c0 141 92 222 240 222c142 0 228 -62 250 -179l-150 -33c-9 62 -43 95 -96 95 c-61 0 -91 -36 -91 -102c0 -36 6 -66 12 -96h176v-76h-161c2 -15 3 -31 3 -48c0 -73 -35 -127 -100 -155c21 6 45 9 74 9c58 0 94 -14 152 -14c46 0 75 31 82 86z"/>
    <glyph glyph-name="florin" unicode="ƒ" horiz-adv-x="459" d="M403 586c-63 0 -82 -33 -92 -99l-8 -59h105v-106h-119l-64 -472h-162l63 472h-102v106h116l6 45c21 155 81 235 239 235c25 0 44 -3 65 -7l-1 -120c-18 3 -33 5 -46 5z"/>
    <glyph glyph-name="yen" unicode="¥" horiz-adv-x="604" d="M607 695l-217 -378h159v-69h-168v-54h168v-69h-168v-125h-158v125h-167v69h167v54h-167v69h158l-217 378h177l85 -170c20 -41 33 -73 42 -105h2c9 32 23 64 42 105l85 170h177z"/>
    <glyph glyph-name="Euro" unicode="€" horiz-adv-x="680" d="M518 207l149 -41c-46 -115 -146 -181 -293 -181c-175 0 -284 103 -316 267h-53v67h45c-1 12 -1 24 -1 36v24h-44v66h51c30 166 143 265 322 265c147 0 249 -65 284 -174l-148 -42c-21 55 -69 91 -139 91c-83 0 -135 -50 -154 -140h239v-66h-248v-23c0 -13 0 -25 1 -37 h247v-67h-236c23 -89 78 -141 156 -141c66 0 116 38 138 96z"/>
    <glyph glyph-name="currency" unicode="¤" horiz-adv-x="567" d="M525 303c0 -55 -15 -102 -42 -140l55 -61l-72 -68l-58 62c-35 -19 -75 -29 -120 -29c-47 0 -90 11 -126 32l-61 -66l-72 68l60 66c-25 37 -39 84 -39 136c0 53 14 99 40 137l-61 66l72 68l62 -66c36 20 78 31 125 31c44 0 84 -10 118 -28l60 64l72 -68l-56 -62 c27 -38 43 -87 43 -142zM288 181c65 0 114 48 114 122s-49 122 -114 122c-66 0 -117 -48 -117 -122s51 -122 117 -122z"/>
    <glyph glyph-name="fraction" unicode="⁄" horiz-adv-x="211" d="M-170 -17l444 744h106l-442 -744h-108z"/>
    <glyph glyph-name="onequarter" unicode="¼" horiz-adv-x="806" d="M104 -17l444 744h106l-442 -744h-108zM109 320v255c-14 -9 -41 -13 -65 -13h-20v90h14c46 0 74 18 89 58h79v-390h-97zM795 83h-62v-83h-95v83h-188v67l172 241h111v-235h62v-73zM638 300l-99 -144h99v144z"/>
    <glyph glyph-name="onehalf" unicode="½" horiz-adv-x="850" d="M104 -17l444 744h106l-442 -744h-108zM109 320v255c-14 -9 -41 -13 -65 -13h-20v90h14c46 0 74 18 89 58h79v-390h-97zM510 0v74c107 61 199 118 199 195c0 33 -17 51 -49 51c-31 0 -50 -20 -50 -50c0 -8 2 -19 5 -32l-102 10c-2 11 -3 21 -3 29c0 75 59 123 155 123 c94 0 149 -45 149 -124c0 -100 -91 -158 -167 -195h170v-81h-307z"/>
    <glyph glyph-name="threequarters" unicode="¾" horiz-adv-x="906" d="M204 -17l444 744h106l-442 -744h-108zM185 311c-98 0 -163 48 -163 127l100 10c0 -38 26 -59 64 -59c36 0 54 17 54 47c0 32 -20 46 -70 46h-22v72h23c41 0 59 17 59 46c0 28 -18 43 -50 43c-36 0 -56 -24 -56 -66l-97 15c0 78 62 127 159 127c93 0 146 -39 146 -107 c0 -42 -30 -76 -78 -88c59 -11 90 -40 90 -93c0 -73 -62 -120 -159 -120zM896 83h-62v-83h-95v83h-188v67l172 241h111v-235h62v-73zM739 300l-99 -144h99v144z"/>
    <glyph glyph-name="uni2153" unicode="⅓" horiz-adv-x="858" d="M104 -17l444 744h106l-442 -744h-108zM109 320v255c-14 -9 -41 -13 -65 -13h-20v90h14c46 0 74 18 89 58h79v-390h-97zM669 -9c-98 0 -163 49 -163 127l100 11c0 -39 26 -60 64 -60c36 0 54 17 54 48s-20 45 -70 45h-22v72h23c41 0 59 17 59 47c0 28 -18 42 -50 42 c-36 0 -56 -24 -56 -66l-97 16c0 77 62 127 159 127c93 0 146 -40 146 -107c0 -43 -30 -77 -78 -89c59 -11 90 -40 90 -93c0 -73 -62 -120 -159 -120z"/>
    <glyph glyph-name="uni2154" unicode="⅔" horiz-adv-x="950" d="M196 -17l444 744h106l-442 -744h-108zM26 320v74c107 60 199 118 199 195c0 33 -17 51 -49 51c-31 0 -50 -20 -50 -50c0 -9 2 -20 5 -32l-102 10c-2 11 -3 20 -3 29c0 74 59 122 155 122c94 0 149 -44 149 -124c0 -99 -91 -158 -167 -194h170v-81h-307zM761 -9 c-98 0 -163 49 -163 127l100 11c0 -39 26 -60 64 -60c36 0 54 17 54 48s-20 45 -70 45h-22v72h23c41 0 59 17 59 47c0 28 -18 42 -50 42c-36 0 -56 -24 -56 -66l-97 16c0 77 62 127 159 127c93 0 146 -40 146 -107c0 -43 -30 -77 -78 -89c59 -11 90 -40 90 -93 c0 -73 -62 -120 -159 -120z"/>
    <glyph glyph-name="oneeighth" unicode="⅛" horiz-adv-x="870" d="M548 727h106l-442 -744h-108zM109 320v255c-14 -9 -41 -13 -65 -13h-20v90h14c46 0 74 18 89 58h79v-390h-97zM769 216c51 -21 76 -53 76 -104c0 -72 -68 -121 -169 -121c-99 0 -167 46 -167 112c0 49 22 79 72 94c-39 20 -59 50 -59 92c0 66 62 111 152 111 c93 0 153 -39 153 -102c0 -39 -19 -66 -58 -82zM674 331c-35 0 -56 -15 -56 -41c0 -24 22 -38 60 -48l21 -5c22 12 32 28 32 49c0 28 -21 45 -57 45zM678 65c40 0 66 19 66 48c0 24 -24 41 -59 51l-36 10c-29 -13 -39 -29 -39 -57c0 -30 28 -52 68 -52z"/>
    <glyph glyph-name="threeeighths" unicode="⅜" horiz-adv-x="970" d="M648 727h106l-442 -744h-108zM344 431c0 -73 -62 -120 -159 -120c-98 0 -163 48 -163 127l100 10c0 -38 26 -59 64 -59c36 0 54 17 54 47c0 32 -20 46 -70 46h-22v72h23c41 0 59 17 59 46c0 28 -18 43 -50 43c-36 0 -56 -24 -56 -66l-97 15c0 78 62 127 159 127 c93 0 146 -39 146 -107c0 -42 -30 -76 -78 -88c59 -11 90 -40 90 -93zM870 216c51 -21 76 -53 76 -104c0 -72 -68 -121 -169 -121c-99 0 -167 46 -167 112c0 49 22 79 72 94c-39 20 -59 50 -59 92c0 66 62 111 152 111c93 0 153 -39 153 -102c0 -39 -19 -66 -58 -82z M775 331c-35 0 -56 -15 -56 -41c0 -24 22 -38 60 -48l21 -5c22 12 32 28 32 49c0 28 -21 45 -57 45zM779 65c40 0 66 19 66 48c0 24 -24 41 -59 51l-36 10c-29 -13 -39 -29 -39 -57c0 -30 28 -52 68 -52z"/>
    <glyph glyph-name="fiveeighths" unicode="⅝" horiz-adv-x="968" d="M645 727h106l-442 -744h-108zM342 453c0 -87 -60 -142 -158 -142c-85 0 -143 42 -155 109l98 16c7 -26 25 -46 57 -46c38 0 59 21 59 59c0 39 -20 67 -58 67c-31 0 -48 -14 -57 -41l-90 8l26 227h256v-80h-183l-11 -74c18 22 47 34 86 34c81 0 130 -53 130 -137zM867 216 c51 -21 76 -53 76 -104c0 -72 -68 -121 -169 -121c-99 0 -167 46 -167 112c0 49 22 79 72 94c-39 20 -59 50 -59 92c0 66 62 111 152 111c93 0 153 -39 153 -102c0 -39 -19 -66 -58 -82zM772 331c-35 0 -56 -15 -56 -41c0 -24 22 -38 60 -48l21 -5c22 12 32 28 32 49 c0 28 -21 45 -57 45zM776 65c40 0 66 19 66 48c0 24 -24 41 -59 51l-36 10c-29 -13 -39 -29 -39 -57c0 -30 28 -52 68 -52z"/>
    <glyph glyph-name="seveneighths" unicode="⅞" horiz-adv-x="877" d="M554 727h106l-442 -744h-108zM69 320v4c1 103 59 221 140 302h-191v84h293v-75c-83 -80 -131 -186 -132 -306v-9h-110zM776 216c51 -21 76 -53 76 -104c0 -72 -68 -121 -169 -121c-99 0 -167 46 -167 112c0 49 22 79 72 94c-39 20 -59 50 -59 92c0 66 62 111 152 111 c93 0 153 -39 153 -102c0 -39 -19 -66 -58 -82zM681 331c-35 0 -56 -15 -56 -41c0 -24 22 -38 60 -48l21 -5c22 12 32 28 32 49c0 28 -21 45 -57 45zM685 65c40 0 66 19 66 48c0 24 -24 41 -59 51l-36 10c-29 -13 -39 -29 -39 -57c0 -30 28 -52 68 -52z"/>
    <glyph glyph-name="percent" unicode="%" horiz-adv-x="875" d="M151 -14l468 737h104l-467 -737h-105zM208 341c-120 0 -199 74 -198 191c-1 115 78 189 197 189s199 -74 197 -190c2 -116 -78 -190 -196 -190zM208 431c48 0 80 31 80 100s-32 100 -81 100c-48 0 -81 -31 -81 -99c0 -70 33 -101 82 -101zM668 -13 c-120 0 -199 74 -198 191c-1 115 78 189 197 189s199 -75 197 -190c2 -116 -78 -190 -196 -190zM668 77c48 0 80 31 80 100s-32 99 -81 99c-48 0 -81 -30 -81 -98c0 -70 33 -101 82 -101z"/>
    <glyph glyph-name="perthousand" unicode="‰" horiz-adv-x="1296" d="M151 -14l468 737h104l-467 -737h-105zM208 341c-120 0 -199 74 -198 191c-1 115 78 189 197 189s199 -74 197 -190c2 -116 -78 -190 -196 -190zM208 431c48 0 80 31 80 100s-32 100 -81 100c-48 0 -81 -31 -81 -99c0 -70 33 -101 82 -101zM668 -13 c-120 0 -199 74 -198 191c-1 115 78 189 197 189s199 -75 197 -190c2 -116 -78 -190 -196 -190zM1089 -13c-120 0 -199 74 -198 191c-1 115 78 189 197 189s199 -75 197 -190c2 -116 -78 -190 -196 -190zM668 77c48 0 80 31 80 100s-32 99 -81 99c-48 0 -81 -30 -81 -98 c0 -70 33 -101 82 -101zM1089 77c48 0 80 31 80 100s-32 99 -81 99c-48 0 -81 -30 -81 -98c0 -70 33 -101 82 -101z"/>
    <glyph glyph-name="uni03BC" unicode="μ" horiz-adv-x="612" d="M384 500h160v-500h-152v91c-24 -63 -84 -103 -156 -103c-9 0 -17 0 -25 1v-184h-144v695h161v-296c0 -62 24 -94 72 -94c51 0 84 41 84 104v286z"/>
    <glyph glyph-name="numbersign" unicode="#" horiz-adv-x="653" d="M643 410h-128l-23 -125h117v-109h-137l-33 -176h-122l33 176h-115l-33 -176h-122l33 176h-103v109h123l23 125h-106v109h127l32 173h122l-32 -173h115l32 173h122l-32 -173h107v-109zM370 285l23 125h-115l-23 -125h115z"/>
    <glyph glyph-name="uni2116" unicode="№" horiz-adv-x="1273" d="M74 0v710h187l228 -405c16 -30 34 -66 43 -92h2c0 28 -1 57 -1 91v406h155v-710h-180l-236 409c-19 33 -32 61 -42 87h-2c0 -29 1 -59 1 -94v-402h-155zM992 175c-148 0 -244 95 -244 243s96 243 244 243s244 -95 244 -243s-96 -243 -244 -243zM992 289 c58 0 94 49 94 129c0 79 -36 128 -94 128c-59 0 -94 -49 -94 -128s36 -129 94 -129zM748 0v105h488v-105h-488z"/>
    <glyph glyph-name="uni0394" unicode="Δ" horiz-adv-x="670" d="M9 0l239 710h176l236 -710h-651zM335 548l-137 -429h268z"/>
    <glyph glyph-name="uni03A9" unicode="Ω" horiz-adv-x="682" d="M640 0h-250l-17 270c78 15 119 73 119 165c0 98 -59 161 -151 161s-151 -63 -151 -161c0 -92 41 -150 120 -165l-18 -270h-250v130h139l5 56c-99 36 -154 127 -154 252c0 172 124 287 309 287s310 -115 310 -287c0 -125 -56 -216 -154 -252l4 -56h139v-130z"/>
    <glyph glyph-name="pi" unicode="π" horiz-adv-x="640" d="M615 6c-22 -6 -56 -12 -79 -12c-112 0 -156 52 -156 155v244h-119v-393h-157v393h-80v107h592v-107h-79v-235c0 -34 17 -49 48 -49c13 0 24 2 30 3v-106z"/>
    <glyph glyph-name="plus" unicode="+" horiz-adv-x="562" d="M518 381v-104h-180v-190h-115v190h-179v104h179v179h115v-179h180z"/>
    <glyph glyph-name="minus" unicode="−" horiz-adv-x="562" d="M44 275v107h474v-107h-474z"/>
    <glyph glyph-name="plusminus" unicode="±" d="M366 389h183v-104h-183v-145h-114v145h-181v104h181v154h114v-154zM71 0v106h478v-106h-478z"/>
    <glyph glyph-name="multiply" unicode="×" d="M568 504l-177 -177l176 -176l-80 -82l-177 178l-177 -177l-80 80l177 177l-177 177l80 80l177 -176l176 176z"/>
    <glyph glyph-name="divide" unicode="÷" horiz-adv-x="562" d="M278 436c-39 0 -68 27 -68 68s29 68 68 68s69 -26 69 -68c0 -40 -30 -68 -69 -68zM44 275v105h474v-105h-474zM278 80c-39 0 -68 28 -68 68c0 42 29 69 68 69s69 -26 69 -69c0 -40 -30 -68 -69 -68z"/>
    <glyph glyph-name="equal" unicode="=" horiz-adv-x="562" d="M44 372v106h474v-106h-474zM44 180v106h474v-106h-474z"/>
    <glyph glyph-name="less" unicode="&lt;" d="M527 73l-473 198v110l473 198v-119l-338 -133l338 -133v-121z"/>
    <glyph glyph-name="greater" unicode="&gt;" d="M93 73v121l338 133l-338 133v119l473 -198v-110z"/>
    <glyph glyph-name="degree" unicode="°" horiz-adv-x="416" d="M208 344c-108 0 -191 73 -191 187c0 113 83 186 191 186s192 -73 192 -186c0 -114 -84 -187 -192 -187zM208 431c56 0 97 39 97 100c0 60 -41 100 -97 100s-96 -40 -96 -100c0 -61 40 -100 96 -100z"/>
    <glyph glyph-name="approxequal" unicode="≈" d="M427 345c-80 0 -165 63 -232 63c-45 0 -95 -20 -124 -47v112c27 25 79 44 124 44c92 0 162 -63 232 -63c45 0 94 19 122 46v-112c-25 -25 -76 -43 -122 -43zM427 151c-80 0 -165 63 -232 63c-45 0 -95 -19 -124 -46v112c27 25 79 43 124 43c92 0 162 -63 232 -63 c45 0 94 20 122 47v-112c-25 -25 -76 -44 -122 -44z"/>
    <glyph glyph-name="greaterequal" unicode="≥" d="M84 134v122l338 132l-338 133v120l473 -199v-109zM556 103v-103h-471v103h471z"/>
    <glyph glyph-name="infinity" unicode="∞" d="M444 491c87 0 149 -62 149 -162c0 -97 -63 -164 -148 -164c-66 0 -108 37 -135 80c-30 -46 -67 -80 -134 -80c-87 0 -149 62 -149 162c0 97 63 164 148 164c66 0 108 -37 135 -80c30 46 67 80 134 80zM187 260c35 0 55 27 76 65c-19 39 -42 71 -77 71 c-34 0 -56 -23 -56 -68s23 -68 57 -68zM434 260c34 0 56 23 56 68s-23 68 -57 68c-35 0 -55 -27 -76 -65c19 -39 42 -71 77 -71z"/>
    <glyph glyph-name="lessequal" unicode="≤" d="M536 134l-473 199v109l473 199v-120l-338 -133l338 -132v-122zM64 103h471v-103h-471v103z"/>
    <glyph glyph-name="logicalnot" unicode="¬" d="M63 386h474v-264h-108v160h-366v104z"/>
    <glyph glyph-name="notequal" unicode="≠" d="M518 372h-159l-34 -86h193v-106h-234l-46 -117h-82l46 117h-158v106h199l34 86h-233v106h274l44 113h82l-44 -113h118v-106z"/>
    <glyph glyph-name="integral" unicode="∫" d="M165 -115c-16 0 -40 2 -63 5v112c17 -1 33 -3 48 -3c63 0 86 30 86 103v408c0 127 72 205 214 205c31 0 50 -2 71 -5v-114c-16 3 -33 4 -49 4c-62 0 -85 -34 -85 -103v-410c0 -128 -75 -203 -222 -202z"/>
    <glyph glyph-name="partialdiff" unicode="∂" horiz-adv-x="643" d="M277 721c207 0 320 -131 320 -383c0 -229 -105 -355 -296 -355c-159 0 -265 91 -265 243c0 140 92 234 235 234c71 0 129 -25 169 -72c-5 135 -62 200 -170 200c-41 0 -81 -11 -123 -33l-59 116c50 29 120 50 189 50zM311 99c79 0 127 65 129 170c-30 50 -70 78 -127 78 c-70 0 -115 -48 -115 -120c0 -76 46 -128 113 -128z"/>
    <glyph glyph-name="product" unicode="∏" horiz-adv-x="674" d="M452 -88v662h-229v-662h-151v793h530v-793h-150z"/>
    <glyph glyph-name="radical" unicode="√" d="M30 363h164l79 -285l178 656h139l-243 -828h-146l-107 337h-64v120z"/>
    <glyph glyph-name="summation" unicode="∑" horiz-adv-x="590" d="M50 -88v126l246 289l-233 253v125h470v-122h-298l232 -256l-250 -293h328v-122h-495z"/>
    <glyph glyph-name="lozenge" unicode="◊" horiz-adv-x="589" d="M357 -17h-127l-196 372l196 372h127l198 -372zM293 605l-126 -250l126 -250l130 250z"/>
    <glyph glyph-name="zero.tf" d="M310 -15c-171 0 -274 106 -274 362c0 257 103 363 274 363s274 -106 274 -363c0 -256 -103 -362 -274 -362zM310 102c75 0 114 59 115 245c-1 188 -40 246 -115 246s-114 -58 -115 -246c1 -186 40 -245 115 -245z"/>
    <glyph glyph-name="one.tf" d="M411 129h165v-129h-503v129h177v351c-29 -25 -77 -41 -142 -41h-32v145h26c100 0 148 39 178 111h131v-566z"/>
    <glyph glyph-name="two.tf" d="M53 0v118c73 51 163 127 236 199c64 64 90 114 90 176c0 58 -30 90 -81 90c-53 0 -84 -35 -84 -94c0 -15 2 -33 5 -49l-159 17c-3 16 -4 27 -4 39c0 129 96 214 245 214c155 0 239 -76 239 -211c0 -82 -34 -150 -111 -227c-52 -51 -107 -96 -178 -144h302v-128h-500z"/>
    <glyph glyph-name="three.tf" d="M314 -15c-167 0 -265 89 -266 226l162 15c2 -71 36 -117 102 -117c61 0 93 36 93 97c0 56 -39 92 -110 92h-35v110h33c63 0 97 38 97 93s-29 86 -83 86c-61 0 -93 -40 -93 -116l-160 22c0 132 96 217 261 217c148 0 236 -73 236 -187c0 -77 -50 -142 -126 -161 c89 -19 144 -77 144 -174c0 -122 -100 -203 -255 -203z"/>
    <glyph glyph-name="four.tf" d="M345 0v153h-316v109l287 433h177v-424h98v-118h-98v-153h-148zM162 271h183v197c0 29 0 53 3 92h-1c-11 -31 -20 -49 -40 -78l-106 -160c-16 -24 -27 -39 -39 -51z"/>
    <glyph glyph-name="five.tf" d="M301 -15c-140 0 -237 75 -250 194l151 23c10 -55 47 -91 104 -91c64 0 103 46 103 120c0 80 -35 129 -101 129c-54 0 -91 -32 -104 -84l-134 13l43 406h414v-128h-309l-20 -160c30 43 82 70 151 70c132 0 214 -90 214 -242c0 -153 -104 -250 -262 -250z"/>
    <glyph glyph-name="six.tf" d="M358 469c131 0 213 -90 213 -233c0 -151 -100 -251 -250 -251c-179 0 -278 126 -278 350c0 237 104 375 283 375c133 0 216 -65 234 -182l-152 -24c-10 57 -39 85 -88 85c-76 0 -121 -74 -124 -200c33 51 92 80 162 80zM316 107c62 0 101 48 101 122 c0 75 -37 123 -98 123c-54 0 -100 -36 -122 -95c8 -95 51 -150 119 -150z"/>
    <glyph glyph-name="seven.tf" d="M160 0v12c0 199 93 390 244 549h-343v134h503v-124c-147 -153 -228 -328 -228 -546v-24z"/>
    <glyph glyph-name="eight.tf" d="M443 387c88 -32 142 -86 142 -194c0 -125 -109 -208 -277 -208c-164 0 -272 78 -272 196c0 85 39 139 130 165c-68 32 -110 82 -110 170c0 116 101 194 251 194c145 0 246 -65 246 -177c0 -70 -34 -120 -110 -146zM303 601c-57 0 -92 -32 -92 -85c0 -50 37 -75 99 -92 l39 -10c41 22 58 52 58 96c0 57 -39 91 -104 91zM313 103c69 0 114 37 114 94c0 56 -41 84 -107 103l-54 14c-51 -25 -72 -59 -72 -111c0 -60 47 -100 119 -100z"/>
    <glyph glyph-name="nine.tf" d="M298 710c175 0 275 -119 275 -351c0 -231 -86 -374 -277 -374c-135 0 -224 64 -243 186l152 27c11 -55 47 -88 98 -88c79 0 118 74 118 207c-32 -48 -85 -70 -145 -70c-141 0 -234 88 -234 225c0 140 96 238 256 238zM306 364c51 0 97 34 115 85c-3 77 -36 143 -117 143 c-66 0 -108 -46 -108 -115c0 -66 45 -113 110 -113z"/>
    <glyph glyph-name="zero.tf.zero" d="M310 710c171 0 274 -106 274 -363c0 -256 -103 -362 -274 -362s-274 106 -274 362c0 257 103 363 274 363zM310 593c-75 0 -114 -58 -115 -246c0 -38 2 -72 5 -100l203 274c-18 53 -50 72 -93 72zM310 102c75 0 114 59 115 245c0 39 -2 72 -5 100l-203 -274 c19 -52 50 -71 93 -71z"/>
    <glyph glyph-name="dollar.tf" d="M574 195c0 -131 -89 -205 -237 -210v-92h-45v93c-139 9 -225 81 -255 194l139 45c18 -71 58 -110 116 -121v180l-46 12c-125 33 -188 111 -188 212c0 122 90 197 234 202v90h45v-91c129 -9 217 -77 230 -191l-133 -39c-9 67 -40 106 -97 116v-180l65 -18 c115 -32 172 -92 172 -202zM204 516c0 -47 32 -73 88 -88v168c-54 -4 -88 -30 -88 -80zM337 101c56 3 87 28 87 80c0 48 -27 74 -87 91v-171z"/>
    <glyph glyph-name="cent.tf" d="M339 97c49 9 77 47 86 105l130 -27c-16 -94 -85 -178 -216 -186v-90h-49v90c-153 12 -232 123 -232 263c0 142 75 247 232 259v83h49v-82c120 -7 199 -73 216 -184l-132 -22c-9 59 -38 93 -84 102v-311zM196 257c0 -86 29 -147 94 -160v311c-64 -11 -94 -70 -94 -151z "/>
    <glyph glyph-name="sterling.tf" d="M442 197l145 -23c-17 -126 -96 -189 -190 -189c-80 0 -113 26 -205 26c-43 0 -91 -7 -133 -19l-32 95c77 26 119 79 119 170c0 22 -2 43 -5 62h-89v76h71c-10 35 -18 69 -18 109c0 130 86 206 225 206c131 0 208 -62 228 -180l-144 -32c-8 64 -37 98 -84 98 c-49 0 -79 -28 -79 -89c0 -43 9 -77 17 -112h140v-76h-124c2 -15 3 -30 3 -47c0 -78 -43 -133 -107 -159c19 5 39 5 58 5c50 0 80 -10 129 -10c37 0 69 27 75 89z"/>
    <glyph glyph-name="florin.tf" d="M474 594c-55 0 -79 -27 -88 -100l-8 -63h99v-106h-113l-60 -475h-162l60 475h-95v106h108l6 47c21 167 89 232 238 232c25 0 47 -3 65 -6v-115c-18 4 -29 5 -50 5z"/>
    <glyph glyph-name="yen.tf" d="M590 695l-187 -367h138v-70h-152v-61h152v-70h-152v-127h-158v127h-152v70h152v61h-152v70h138l-187 367h171l91 -219c10 -24 13 -37 17 -60h2c4 23 7 36 17 60l91 219h171z"/>
    <glyph glyph-name="Euro.tf" d="M453 200l142 -42c-30 -111 -121 -173 -248 -173c-166 0 -251 110 -269 270h-63v67h59v60h-59v66h62c18 163 115 262 278 262c121 0 212 -52 238 -169l-142 -45c-15 60 -42 98 -101 98c-63 0 -106 -43 -114 -146h180v-66h-182v-60h182v-67h-179c10 -104 50 -150 113 -150 c52 0 84 34 103 95z"/>
    <glyph glyph-name="percent.tf" d="M73 -15l386 745h80l-382 -745h-84zM165 386c-87 0 -142 64 -142 169c0 101 55 167 140 167c82 0 140 -67 140 -170c0 -102 -58 -166 -138 -166zM164 468c30 0 46 29 46 82v11c0 49 -17 78 -46 78c-30 0 -47 -29 -47 -77v-11c0 -54 17 -83 47 -83zM459 -11 c-87 0 -142 64 -142 169c0 101 55 167 141 167c81 0 139 -67 139 -170c0 -102 -58 -166 -138 -166zM459 71c29 0 45 30 45 82v11c0 49 -16 79 -46 79s-47 -30 -47 -78v-11c0 -53 17 -83 48 -83z"/>
    <glyph glyph-name="perthousand.tf" d="M160 420c-79 0 -131 52 -131 149s52 149 131 149s131 -52 131 -149s-52 -149 -131 -149zM119 579v-20c0 -44 15 -68 41 -68s41 24 41 68v20c0 44 -15 68 -41 68s-41 -24 -41 -68zM549 603v-78l-498 -323v80zM460 285c79 0 131 -51 131 -148s-52 -149 -131 -149 c-33 0 -60 10 -80 30c-21 -20 -48 -30 -81 -30c-79 0 -131 52 -131 149s52 148 131 148c33 0 60 -10 81 -30c20 20 47 30 80 30zM340 126v21c0 43 -15 67 -41 67s-41 -24 -41 -67v-21c0 -43 15 -67 41 -67s41 24 41 67zM501 126v21c0 43 -15 67 -41 67s-41 -24 -41 -67v-21 c0 -43 15 -67 41 -67s41 24 41 67z"/>
    <glyph glyph-name="uni0308" unicode="̈" horiz-adv-x="0" d="M-407 573v133h139v-133h-139zM-187 573v133h139v-133h-139z"/>
    <glyph glyph-name="uni0307" unicode="̇" horiz-adv-x="0" d="M-216 572v146h167v-146h-167z"/>
    <glyph glyph-name="gravecomb" unicode="̀" horiz-adv-x="0" d="M-33 567h-122l-139 156h151z"/>
    <glyph glyph-name="acutecomb" unicode="́" horiz-adv-x="0" d="M-291 567l110 156h151l-138 -156h-123z"/>
    <glyph glyph-name="uni030B" unicode="̋" horiz-adv-x="0" d="M-459 567l88 156h115l-92 -156h-111zM-287 567l88 156h115l-92 -156h-111z"/>
    <glyph glyph-name="uni0302" unicode="̂" horiz-adv-x="0" d="M-42 567h-116l-70 105l-69 -105h-117l106 156h160z"/>
    <glyph glyph-name="uni030C" unicode="̌" horiz-adv-x="0" d="M-414 718h117l69 -105l70 105h116l-106 -156h-160z"/>
    <glyph glyph-name="uni0306" unicode="̆" horiz-adv-x="0" d="M-297 723c2 -52 28 -81 73 -81s70 29 72 81h101c-6 -114 -76 -161 -173 -161c-98 0 -168 47 -174 161h101z"/>
    <glyph glyph-name="uni030A" unicode="̊" horiz-adv-x="0" d="M-166 548c-76 0 -127 47 -127 117s51 118 127 118c77 0 128 -48 128 -118s-51 -117 -128 -117zM-166 612c31 0 52 22 52 53s-21 53 -52 53s-52 -22 -52 -53s21 -53 52 -53z"/>
    <glyph glyph-name="tildecomb" unicode="̃" horiz-adv-x="0" d="M-178 568c-77 0 -104 68 -152 68c-24 0 -38 -16 -50 -58l-77 27c14 78 58 127 127 127c77 0 104 -67 153 -67c24 0 38 15 49 57l78 -27c-14 -78 -58 -127 -128 -127z"/>
    <glyph glyph-name="uni0304" unicode="̄" horiz-adv-x="0" d="M-389 592v96h343v-96h-343z"/>
    <glyph glyph-name="uni0312" unicode="̒" horiz-adv-x="0" d="M-93 768l27 -52c-36 -9 -49 -19 -49 -47h65v-102h-132v89c0 56 24 99 89 112z"/>
    <glyph glyph-name="uni0326" unicode="̦" horiz-adv-x="0" d="M-139 -240l-27 51c36 9 49 20 49 47h-65v102h132v-89c0 -55 -24 -98 -89 -111z"/>
    <glyph glyph-name="uni0327" unicode="̧" horiz-adv-x="0" d="M-244 7h76l-32 -53c12 9 31 15 54 15c54 0 91 -30 91 -87c0 -63 -53 -95 -131 -95c-64 0 -109 24 -127 65l84 21c7 -15 21 -24 39 -24c24 0 40 15 40 37c0 21 -16 36 -39 36c-14 0 -25 -5 -33 -15l-60 14z"/>
    <glyph glyph-name="uni0328" unicode="̨" horiz-adv-x="0" d="M-62 -125c-29 -53 -68 -78 -132 -78c-78 0 -122 35 -122 93c0 47 29 83 92 110h114c-83 -20 -112 -60 -112 -95c0 -23 13 -36 37 -36c22 0 39 13 56 41z"/>
    <glyph glyph-name="uni2003" unicode=" " horiz-adv-x="1000"/>
    <glyph glyph-name="uni2002" unicode=" " horiz-adv-x="500"/>
    <glyph glyph-name="uni2005" unicode=" " horiz-adv-x="250"/>
    <glyph glyph-name="uni200A" unicode=" " horiz-adv-x="75"/>
    <glyph glyph-name="uni00A0" unicode=" " horiz-adv-x="247"/>
    <glyph glyph-name="uni2009" unicode=" " horiz-adv-x="135"/>
    <glyph glyph-name="uni2004" unicode=" " horiz-adv-x="333"/>
    <glyph glyph-name="uni0243" unicode="Ƀ" horiz-adv-x="663" d="M631 199c0 -105 -70 -189 -212 -198v-108h-59v107h-72v-107h-59v107h-155v695h155v90h59v-90h72v90h59v-91c134 -9 194 -77 194 -175c0 -74 -42 -134 -126 -156c92 -13 144 -73 144 -164zM446 497c0 49 -30 85 -109 85h-106v-176h106c82 0 109 40 109 91zM351 112 c77 0 113 42 113 100c0 56 -36 93 -110 93h-123v-193h120z"/>
    <glyph glyph-name="uni20BF.case" horiz-adv-x="663" d="M631 202c0 -106 -70 -192 -212 -201v-90h-59v89h-72v-89h-59v89h-155v710h155v82h59v-82h72v82h59v-83c134 -10 194 -81 194 -180c0 -75 -42 -136 -126 -158c92 -14 144 -75 144 -169zM446 508c0 51 -30 88 -109 88h-106v-182h106c82 0 109 42 109 94zM351 112 c77 0 113 44 113 103s-36 97 -110 97h-123v-200h120z"/>
    <glyph glyph-name="uni20BF.tf" d="M582 197c0 -112 -72 -178 -187 -193v-111h-59v107h-72v-107h-59v107h-131v695h131v90h59v-90h62h10v90h59v-95c107 -17 171 -75 171 -178c0 -75 -48 -132 -131 -152c93 -14 147 -74 147 -163zM404 500c0 57 -33 81 -95 81h-79v-177h79c62 0 95 33 95 96zM320 115 c63 0 100 32 100 96c0 58 -36 92 -96 92h-94v-188h90z"/>
    <glyph glyph-name="uni20BF.tf.case" d="M582 203c0 -117 -72 -183 -187 -199v-105h-59v101h-72v-101h-59v101h-131v710h131v85h59v-85h62h10v85h59v-90c107 -17 171 -78 171 -183c0 -76 -48 -133 -131 -154c93 -14 147 -74 147 -165zM404 510c0 60 -33 85 -95 85h-79v-183h79c62 0 95 34 95 98zM320 115 c63 0 100 33 100 102c0 60 -36 94 -96 94h-94v-196h90z"/>
    <glyph glyph-name="g.ss01" horiz-adv-x="610" d="M288 -207c-153 0 -231 54 -243 176h156c9 -51 41 -74 90 -74c63 1 93 35 93 111v86c-24 -59 -73 -91 -141 -91c-125 0 -211 106 -211 258c0 153 86 253 215 253c66 0 120 -31 144 -86l14 74h137v-485c0 -148 -87 -222 -254 -222zM292 105c56 0 92 51 92 128v45 c0 73 -37 123 -90 123c-61 0 -97 -51 -97 -146c0 -90 38 -150 95 -150z"/>
    <glyph glyph-name="gbreve.ss01" horiz-adv-x="610" d="M239 723c2 -52 28 -81 73 -81s70 29 72 81h101c-6 -114 -76 -161 -173 -161c-98 0 -168 47 -174 161h101zM288 -207c-153 0 -231 54 -243 176h156c9 -51 41 -74 90 -74c63 1 93 35 93 111v86c-24 -59 -73 -91 -141 -91c-125 0 -211 106 -211 258c0 153 86 253 215 253 c66 0 120 -31 144 -86l14 74h137v-485c0 -148 -87 -222 -254 -222zM292 105c56 0 92 51 92 128v45c0 73 -37 123 -90 123c-61 0 -97 -51 -97 -146c0 -90 38 -150 95 -150z"/>
    <glyph glyph-name="gcircumflex.ss01" horiz-adv-x="610" d="M497 567h-116l-70 105l-69 -105h-117l106 156h160zM288 -207c-153 0 -231 54 -243 176h156c9 -51 41 -74 90 -74c63 1 93 35 93 111v86c-24 -59 -73 -91 -141 -91c-125 0 -211 106 -211 258c0 153 86 253 215 253c66 0 120 -31 144 -86l14 74h137v-485 c0 -148 -87 -222 -254 -222zM292 105c56 0 92 51 92 128v45c0 73 -37 123 -90 123c-61 0 -97 -51 -97 -146c0 -90 38 -150 95 -150z"/>
    <glyph glyph-name="uni0123.ss01" horiz-adv-x="610" d="M336 768l27 -52c-36 -9 -49 -19 -49 -47h65v-102h-132v89c0 56 24 99 89 112zM288 -207c-153 0 -231 54 -243 176h156c9 -51 41 -74 90 -74c63 1 93 35 93 111v86c-24 -59 -73 -91 -141 -91c-125 0 -211 106 -211 258c0 153 86 253 215 253c66 0 120 -31 144 -86l14 74 h137v-485c0 -148 -87 -222 -254 -222zM292 105c56 0 92 51 92 128v45c0 73 -37 123 -90 123c-61 0 -97 -51 -97 -146c0 -90 38 -150 95 -150z"/>
    <glyph glyph-name="gdotaccent.ss01" horiz-adv-x="610" d="M228 572v146h167v-146h-167zM288 -207c-153 0 -231 54 -243 176h156c9 -51 41 -74 90 -74c63 1 93 35 93 111v86c-24 -59 -73 -91 -141 -91c-125 0 -211 106 -211 258c0 153 86 253 215 253c66 0 120 -31 144 -86l14 74h137v-485c0 -148 -87 -222 -254 -222zM292 105 c56 0 92 51 92 128v45c0 73 -37 123 -90 123c-61 0 -97 -51 -97 -146c0 -90 38 -150 95 -150z"/>
    <glyph glyph-name="g_g.liga.ss01" horiz-adv-x="1219" d="M288 -207c-153 0 -231 54 -243 176h156c9 -51 41 -74 90 -74c63 1 93 35 93 111v86c-24 -59 -73 -91 -141 -91c-125 0 -211 106 -211 258c0 153 86 253 215 253c66 0 120 -31 144 -86l14 74h137v-485c0 -148 -87 -222 -254 -222zM898 -207c-153 0 -231 54 -243 176h156 c9 -51 41 -74 90 -74c63 1 93 35 93 111v86c-24 -59 -73 -91 -141 -91c-125 0 -211 106 -211 258c0 153 86 253 215 253c66 0 120 -31 144 -86l14 74h137v-485c0 -148 -87 -222 -254 -222zM292 105c56 0 92 51 92 128v45c0 73 -37 123 -90 123c-61 0 -97 -51 -97 -146 c0 -90 38 -150 95 -150zM902 105c56 0 92 51 92 128v45c0 73 -37 123 -90 123c-61 0 -97 -51 -97 -146c0 -90 38 -150 95 -150z"/>
    <glyph glyph-name="g.sups.ss01" horiz-adv-x="487" d="M229 159c-122 0 -182 39 -189 131h124c4 -34 32 -52 68 -51c43 1 64 24 64 72v63c-17 -38 -54 -60 -106 -60c-93 0 -159 76 -159 185c0 113 63 185 163 185c51 0 92 -23 109 -63l7 54h121v-351c0 -109 -69 -165 -202 -165zM235 397c38 0 62 30 62 79v38 c0 48 -25 81 -60 81c-42 0 -65 -33 -65 -99c0 -60 24 -99 63 -99z"/>
    <glyph glyph-name="a.sups" horiz-adv-x="460" d="M155 301c-77 0 -129 44 -129 108c0 76 55 101 144 114l103 15v15c0 33 -16 48 -48 48c-33 0 -51 -16 -54 -49h-134c7 85 77 132 189 132c127 0 184 -47 184 -151v-129c0 -38 4 -74 10 -94h-132c-4 17 -6 35 -6 57c-20 -41 -69 -66 -127 -66zM210 378c41 0 68 26 68 62v43 l-51 -9c-48 -8 -70 -22 -70 -53c0 -25 20 -43 53 -43z"/>
    <glyph glyph-name="b.sups" horiz-adv-x="490" d="M304 301c-52 0 -94 23 -113 61l-5 -52h-126v529h137v-208c19 33 61 53 111 53c93 0 151 -74 151 -192c0 -117 -59 -191 -155 -191zM257 390c40 0 62 35 62 102c0 66 -22 102 -64 102c-37 -1 -60 -33 -60 -83v-36c0 -54 22 -85 62 -85z"/>
    <glyph glyph-name="c.sups" horiz-adv-x="448" d="M235 301c-124 0 -206 76 -206 191c0 119 79 192 208 192c101 0 169 -46 185 -128l-127 -29c-6 40 -29 60 -62 60c-42 0 -67 -34 -67 -89c0 -63 25 -99 67 -99c34 0 56 24 61 61l128 -29c-14 -78 -88 -130 -187 -130z"/>
    <glyph glyph-name="d.sups" horiz-adv-x="490" d="M181 301c-91 0 -150 76 -150 190c0 118 61 193 156 193c51 0 90 -20 107 -57v212h136v-529h-130v61c-17 -42 -64 -70 -119 -70zM238 390c36 0 58 34 58 82v37c0 55 -22 86 -60 86c-41 0 -64 -36 -64 -101c0 -63 25 -104 66 -104z"/>
    <glyph glyph-name="e.sups" horiz-adv-x="450" d="M418 493v-24h-261c2 -42 33 -72 85 -72c47 0 80 16 107 42l58 -67c-31 -39 -87 -71 -167 -71c-134 0 -211 71 -211 189s76 194 199 194c121 0 190 -72 190 -191zM157 535h135c0 47 -21 76 -64 76s-70 -27 -71 -76z"/>
    <glyph glyph-name="f.sups" horiz-adv-x="326" d="M303 675v-87h-86v-278h-136v278h-58v87h58v26c0 94 54 143 160 143c20 0 42 -3 62 -7v-95c-11 2 -24 3 -34 3c-33 0 -52 -16 -52 -45v-25h86z"/>
    <glyph glyph-name="g.sups" horiz-adv-x="463" d="M443 652c-13 2 -24 3 -35 3c-17 0 -31 -2 -44 -7c29 -20 44 -49 44 -85c0 -76 -70 -124 -183 -124c-29 0 -56 3 -79 9c-5 -3 -7 -8 -7 -13c0 -20 17 -31 48 -31h112c93 0 142 -36 142 -104c0 -90 -83 -141 -228 -141c-119 0 -189 30 -189 82c0 27 22 48 66 62 c-35 12 -55 37 -55 70c0 41 27 71 76 88c-45 21 -70 57 -70 102c0 76 71 121 184 121c35 0 66 -4 92 -13c13 44 54 67 115 67h11v-86zM225 498c33 0 57 26 57 64c0 40 -24 63 -57 63c-34 0 -57 -23 -57 -62s23 -65 57 -65zM152 293c-8 0 -16 0 -23 1c-6 -8 -8 -16 -8 -26 c0 -33 36 -50 97 -50c73 0 110 13 110 46c0 20 -13 29 -40 29h-136z"/>
    <glyph glyph-name="h.sups" horiz-adv-x="491" d="M60 310v529h137v-225c23 47 64 71 120 71c81 0 123 -50 123 -148v-227h-137v213c0 40 -17 60 -50 60c-35 0 -56 -26 -56 -73v-200h-137z"/>
    <glyph glyph-name="i.sups" horiz-adv-x="251" d="M55 719v121h141v-121h-141zM57 310v365h137v-365h-137z"/>
    <glyph glyph-name="j.sups" horiz-adv-x="256" d="M60 719v121h141v-121h-141zM38 163c-20 0 -48 2 -60 4v94c9 -1 22 -2 30 -2c40 0 54 16 54 63v353h137v-362c0 -100 -39 -150 -161 -150z"/>
    <glyph glyph-name="k.sups" horiz-adv-x="475" d="M314 310l-83 137l-34 -36v-101h-137v529h137v-298l110 134h155l-136 -148l138 -217h-150z"/>
    <glyph glyph-name="l.sups" horiz-adv-x="257" d="M197 839v-529h-137v529h137z"/>
    <glyph glyph-name="m.sups" horiz-adv-x="705" d="M55 675h133v-64c23 49 61 73 119 73c55 0 88 -22 108 -73c26 49 66 73 123 73c74 0 116 -50 116 -136v-238h-137v205c0 46 -14 67 -45 67c-32 0 -49 -22 -49 -63v-209h-137v204c0 47 -14 68 -44 68c-33 0 -50 -22 -50 -66v-206h-137v365z"/>
    <glyph glyph-name="n.sups" horiz-adv-x="486" d="M55 310v365h133v-67c26 50 67 76 124 76c81 0 123 -51 123 -149v-225h-137v204c0 47 -16 68 -50 68c-36 0 -55 -25 -55 -71v-201h-138z"/>
    <glyph glyph-name="o.sups" horiz-adv-x="459" d="M229 301c-112 0 -200 64 -200 193c0 128 88 190 200 190s201 -62 201 -190c0 -129 -89 -193 -201 -193zM229 391c41 0 66 33 66 103s-25 100 -66 100s-66 -30 -66 -100s25 -103 66 -103z"/>
    <glyph glyph-name="p.sups" horiz-adv-x="486" d="M55 168v507h132v-54c22 40 66 63 118 63c91 0 150 -74 150 -190c0 -117 -60 -193 -155 -193c-45 0 -79 15 -108 50v-183h-137zM252 390c39 0 62 40 62 104c0 65 -22 101 -63 101c-40 0 -61 -33 -61 -95v-20c0 -52 23 -90 62 -90z"/>
    <glyph glyph-name="q.sups" horiz-adv-x="486" d="M294 168v197c-21 -41 -62 -64 -115 -64c-90 0 -148 77 -148 190c0 118 61 193 157 193c54 0 95 -21 112 -62l7 53h123v-507h-136zM235 390c38 0 61 34 61 84v39c0 51 -24 82 -62 82c-40 0 -62 -36 -62 -101s23 -104 63 -104z"/>
    <glyph glyph-name="r.sups" horiz-adv-x="344" d="M184 577c20 71 63 107 131 107h5v-131c-11 1 -19 2 -31 2c-28 0 -52 -7 -68 -19c-18 -16 -29 -41 -29 -76v-150h-137v365h129v-98z"/>
    <glyph glyph-name="s.sups" horiz-adv-x="391" d="M197 301c-76 0 -144 24 -184 70l58 70c33 -34 81 -54 129 -54c37 0 54 11 54 29c0 19 -11 25 -50 32l-50 9c-79 13 -118 47 -118 111c0 70 64 116 170 116c58 0 124 -16 165 -50l-53 -71c-33 26 -73 41 -118 41c-31 0 -45 -9 -45 -26c0 -12 9 -23 37 -28l67 -12 c75 -12 110 -48 110 -113c0 -77 -61 -124 -172 -124z"/>
    <glyph glyph-name="t.sups" horiz-adv-x="327" d="M12 588v87h63v85l137 51v-136h87v-87h-87v-122c0 -35 20 -54 55 -54c13 0 22 0 32 2v-104c-30 -5 -50 -8 -70 -8c-104 0 -154 41 -154 125v161h-63z"/>
    <glyph glyph-name="u.sups" horiz-adv-x="483" d="M297 374c-18 -45 -62 -73 -119 -73c-87 0 -127 50 -127 136v238h137v-212c0 -41 18 -60 49 -60c35 0 54 23 54 57v215h137v-365h-131v64z"/>
    <glyph glyph-name="v.sups" horiz-adv-x="435" d="M142 310l-130 365h140l56 -207l9 -49h1c3 17 4 28 10 50l55 206h140l-130 -365h-151z"/>
    <glyph glyph-name="w.sups" horiz-adv-x="616" d="M119 310l-99 365h129l41 -210c2 -9 4 -20 4 -31h2c1 11 2 21 4 31l53 210h109l53 -210c3 -10 4 -20 5 -31h2c1 11 2 22 4 31l41 210h129l-99 -365h-129l-55 198c-2 9 -4 17 -4 25h-2c0 -8 -2 -16 -4 -25l-55 -198h-129z"/>
    <glyph glyph-name="x.sups" horiz-adv-x="463" d="M17 310l136 191l-128 174h150l40 -60c6 -10 13 -23 17 -39h2c5 16 13 29 19 39l40 60h139l-126 -170l140 -195h-151l-49 72c-8 12 -17 27 -20 39h-2c-4 -12 -12 -27 -20 -39l-50 -72h-137z"/>
    <glyph glyph-name="y.sups" horiz-adv-x="436" d="M89 162c-12 0 -33 3 -55 6v96c27 -5 36 -6 47 -6c40 0 61 16 70 42l3 10l-142 365h149l56 -209c4 -15 6 -26 8 -46h2c1 15 4 27 9 46l53 209h135l-129 -378c-33 -94 -93 -135 -206 -135z"/>
    <glyph glyph-name="z.sups" horiz-adv-x="390" d="M24 385l172 198h-162v92h322v-73l-167 -198h177v-94h-342v75z"/>
    <glyph glyph-name="uni24FF" unicode="⓿" horiz-adv-x="801" d="M401 -17c-202 0 -372 143 -372 372s170 372 372 372c201 0 371 -143 371 -372s-170 -372 -371 -372zM401 151c114 0 179 76 179 204c0 129 -65 205 -179 205c-113 0 -179 -77 -179 -205s66 -204 179 -204zM401 231c-49 0 -74 43 -74 124s25 125 74 125s74 -44 74 -125 s-25 -124 -74 -124z"/>
    <glyph glyph-name="uni2776" unicode="❶" horiz-adv-x="801" d="M401 -17c-202 0 -372 143 -372 372s170 372 372 372c201 0 371 -143 371 -372s-170 -372 -371 -372zM364 159h100v392h-82c-15 -42 -43 -59 -90 -59h-13v-92h20c23 0 51 4 65 13v-254z"/>
    <glyph glyph-name="uni2777" unicode="❷" horiz-adv-x="801" d="M401 -17c-202 0 -372 143 -372 372s170 372 372 372c201 0 371 -143 371 -372s-170 -372 -371 -372zM246 169h310v83h-169c77 36 167 94 167 193c0 80 -57 124 -152 124c-96 0 -156 -48 -156 -123c0 -8 1 -18 3 -29l104 -10c-2 12 -4 23 -4 32c0 30 18 49 48 49 c31 0 48 -18 48 -50c0 -76 -91 -132 -199 -193v-76z"/>
    <glyph glyph-name="uni2778" unicode="❸" horiz-adv-x="801" d="M401 -17c-202 0 -372 143 -372 372s170 372 372 372c201 0 371 -143 371 -372s-170 -372 -371 -372zM403 151c97 0 160 47 160 120c0 53 -30 81 -90 92c49 12 79 46 79 89c0 68 -54 108 -148 108c-97 0 -160 -50 -160 -128l100 -15c0 41 20 64 54 64c31 0 49 -14 49 -41 c0 -30 -17 -46 -58 -46h-19v-72h18c49 0 69 -14 69 -45c0 -30 -18 -47 -53 -47c-37 0 -62 21 -62 59l-103 -11c1 -79 66 -127 164 -127z"/>
    <glyph glyph-name="uni2779" unicode="❹" horiz-adv-x="801" d="M401 -17c-202 0 -372 143 -372 372s170 372 372 372c201 0 371 -143 371 -372s-170 -372 -371 -372zM408 163h98v82h61v75h-61v234h-114l-172 -240v-69h188v-82zM312 320l96 141v-141h-96z"/>
    <glyph glyph-name="uni277A" unicode="❺" horiz-adv-x="801" d="M401 -17c-202 0 -372 143 -372 372s170 372 372 372c201 0 371 -143 371 -372s-170 -372 -371 -372zM399 155c99 0 159 55 159 142c0 85 -49 137 -130 137c-38 0 -68 -11 -86 -32l11 71h184v82h-259l-26 -228l92 -8c9 27 26 40 56 40c37 0 57 -27 57 -66 c0 -36 -21 -57 -57 -57c-32 0 -50 19 -56 46l-101 -17c12 -67 71 -110 156 -110z"/>
    <glyph glyph-name="uni277B" unicode="❻" horiz-adv-x="801" d="M401 -17c-202 0 -372 143 -372 372s170 372 372 372c201 0 371 -143 371 -372s-170 -372 -371 -372zM403 151c87 0 151 56 151 142c0 82 -49 131 -126 131c-45 0 -76 -14 -96 -45c4 69 30 102 73 102c22 0 40 -10 47 -40l98 17c-13 67 -62 102 -144 102 c-105 0 -171 -78 -171 -214c0 -118 59 -195 168 -195zM401 229c-30 0 -57 20 -67 79c14 25 36 40 65 40c35 0 57 -24 57 -59c0 -39 -22 -60 -55 -60z"/>
    <glyph glyph-name="uni277C" unicode="❼" horiz-adv-x="801" d="M401 -17c-202 0 -372 143 -372 372s170 372 372 372c201 0 371 -143 371 -372s-170 -372 -371 -372zM305 159h113c0 127 43 230 131 314v78h-295v-87h190c-85 -84 -139 -201 -139 -305z"/>
    <glyph glyph-name="uni277D" unicode="❽" horiz-adv-x="801" d="M401 -17c-202 0 -372 143 -372 372s170 372 372 372c201 0 371 -143 371 -372s-170 -372 -371 -372zM400 151c102 0 170 48 170 120c0 52 -26 85 -77 105c40 17 59 44 59 82c0 63 -62 102 -154 102s-154 -45 -154 -111c0 -44 21 -72 60 -92c-51 -15 -73 -46 -73 -94 c0 -66 69 -112 169 -112zM423 398l-20 4c-39 10 -60 24 -60 47c0 26 20 40 54 40c36 0 57 -16 57 -44c0 -21 -10 -36 -31 -47zM402 226c-39 0 -67 22 -67 51c0 27 10 43 38 56l34 -10c36 -10 60 -26 60 -50c0 -28 -27 -47 -65 -47z"/>
    <glyph glyph-name="uni277E" unicode="❾" horiz-adv-x="801" d="M401 -17c-202 0 -372 143 -372 372s170 372 372 372c201 0 371 -143 371 -372s-170 -372 -371 -372zM398 151c116 0 166 83 166 212c0 125 -54 197 -164 197c-95 0 -156 -55 -156 -135c0 -79 56 -126 137 -126c33 0 61 8 84 25c-5 -63 -25 -94 -64 -94 c-30 0 -48 17 -54 45l-99 -20c13 -67 67 -104 150 -104zM400 374c-34 0 -58 23 -58 53c0 35 24 56 59 56c41 0 59 -25 64 -80c-17 -18 -40 -29 -65 -29z"/>
    <glyph glyph-name="zero.case" horiz-adv-x="667" d="M333 -15c-188 0 -299 137 -299 371s111 371 299 371c189 0 300 -137 300 -371s-111 -371 -300 -371zM333 110c86 0 134 86 134 246s-48 246 -134 246c-85 0 -133 -86 -133 -246s48 -246 133 -246z"/>
    <glyph glyph-name="one.case" horiz-adv-x="429" d="M171 0v492c-27 -26 -74 -39 -121 -39h-28v144h19c84 0 132 35 160 113h131v-710h-161z"/>
    <glyph glyph-name="two.case" horiz-adv-x="587" d="M29 0v118c104 63 190 125 251 183c68 67 95 120 95 191c0 70 -32 108 -90 108c-59 0 -94 -40 -94 -106c0 -16 3 -35 7 -57l-164 15c-4 19 -6 38 -6 55c0 134 102 220 265 220c160 0 254 -81 254 -223c0 -96 -41 -177 -125 -255c-46 -42 -103 -81 -173 -121h304v-128h-524 z"/>
    <glyph glyph-name="three.case" horiz-adv-x="600" d="M296 -15c-167 0 -272 90 -274 232l163 16c1 -78 44 -124 112 -124c66 0 100 37 100 101s-38 97 -120 97h-37v110h36c70 0 106 36 106 97c0 57 -33 91 -92 91c-65 0 -102 -47 -102 -126l-159 21c0 139 104 227 269 227c160 0 250 -72 250 -194c0 -80 -55 -144 -139 -163 c103 -16 158 -74 158 -171c0 -132 -106 -214 -271 -214z"/>
    <glyph glyph-name="four.case" horiz-adv-x="601" d="M593 160h-104v-160h-159v160h-320v108l301 442h178v-432h104v-118zM336 484c0 37 0 54 2 79h-2c-9 -24 -21 -44 -40 -72l-99 -152c-20 -29 -32 -47 -46 -61h185v206z"/>
    <glyph glyph-name="five.case" horiz-adv-x="595" d="M294 -15c-144 0 -243 75 -263 199l157 24c11 -59 48 -97 105 -97c69 0 109 47 109 126c0 80 -39 133 -106 133c-54 0 -91 -31 -106 -85l-144 13l43 412h437v-128h-319l-19 -166c31 46 84 71 153 71c138 0 221 -93 221 -245c0 -158 -101 -257 -268 -257z"/>
    <glyph glyph-name="six.case" horiz-adv-x="605" d="M360 480c133 0 215 -92 215 -239c0 -151 -106 -256 -257 -256c-180 0 -286 131 -286 359c0 239 109 383 288 383c141 0 224 -64 244 -187l-152 -24c-12 59 -44 90 -95 90c-79 0 -126 -78 -130 -211c34 55 94 85 173 85zM314 107c67 0 107 48 107 127 c0 77 -43 129 -109 129c-57 0 -103 -37 -124 -100c9 -97 56 -156 126 -156z"/>
    <glyph glyph-name="seven.case" horiz-adv-x="527" d="M114 0v12c0 202 93 402 244 564h-339v134h499v-124c-147 -156 -228 -340 -228 -561v-25h-176z"/>
    <glyph glyph-name="eight.case" horiz-adv-x="624" d="M452 393c98 -38 141 -101 141 -197c0 -128 -113 -211 -286 -211c-171 0 -283 78 -283 199c0 90 42 145 135 174c-79 36 -115 90 -115 173c0 118 103 196 258 196c158 0 260 -70 260 -180c0 -76 -35 -126 -110 -154zM302 618c-64 0 -103 -32 -103 -86 c0 -48 33 -79 110 -99l37 -10c44 24 62 55 62 102c0 58 -39 93 -106 93zM310 103c73 0 119 37 119 97c0 53 -33 87 -111 108l-53 15c-55 -26 -77 -62 -77 -117c0 -63 49 -103 122 -103z"/>
    <glyph glyph-name="nine.case" horiz-adv-x="608" d="M294 727c181 0 280 -121 280 -359c0 -236 -85 -383 -286 -383c-137 0 -229 67 -247 192l152 27c10 -57 46 -94 102 -94c88 0 124 83 125 221c-33 -52 -91 -76 -156 -76c-142 0 -234 90 -234 230c0 142 101 242 264 242zM294 372c54 0 105 37 125 92 c-4 78 -40 145 -123 145c-68 0 -112 -47 -112 -119c0 -69 45 -118 110 -118z"/>
    <glyph glyph-name="one.case.ss02" horiz-adv-x="561" d="M382 129h164v-129h-502v129h177v366c-30 -25 -78 -41 -143 -41h-31v145h26c100 0 147 39 178 111h131v-581z"/>
    <glyph glyph-name="zero.case.zero" horiz-adv-x="667" d="M333 727c189 0 300 -137 300 -371s-111 -371 -300 -371c-188 0 -299 137 -299 371s111 371 299 371zM333 602c-85 0 -133 -86 -133 -246c0 -44 4 -83 11 -116l223 296c-23 44 -57 66 -101 66zM333 110c86 0 134 86 134 246c0 41 -3 77 -9 108l-222 -294 c23 -40 56 -60 97 -60z"/>
    <glyph glyph-name="uni24EA" unicode="⓪" horiz-adv-x="801" d="M401 -17c-202 0 -372 143 -372 372c0 230 170 372 372 372c201 0 371 -142 371 -372c0 -229 -170 -372 -371 -372zM401 42c164 0 303 120 303 313c0 194 -139 313 -303 313c-165 0 -304 -119 -304 -313c0 -193 139 -313 304 -313zM401 151c-113 0 -178 76 -178 203 c0 129 65 205 178 205c114 0 178 -75 178 -204c0 -128 -64 -204 -178 -204zM401 230c50 0 76 44 76 125s-26 126 -76 126s-75 -45 -75 -127c0 -80 25 -124 75 -124z"/>
    <glyph glyph-name="uni2460" unicode="①" horiz-adv-x="801" d="M401 -17c-202 0 -372 143 -372 372c0 230 170 372 372 372c201 0 371 -142 371 -372c0 -229 -170 -372 -371 -372zM401 42c164 0 303 120 303 313c0 194 -139 313 -303 313c-165 0 -304 -119 -304 -313c0 -193 139 -313 304 -313zM365 159v256c-14 -9 -41 -13 -65 -13 h-20v90h13c47 0 75 17 90 58h79v-391h-97z"/>
    <glyph glyph-name="uni2461" unicode="②" horiz-adv-x="801" d="M401 -17c-202 0 -372 143 -372 372c0 230 170 372 372 372c201 0 371 -142 371 -372c0 -229 -170 -372 -371 -372zM401 42c164 0 303 120 303 313c0 194 -139 313 -303 313c-165 0 -304 -119 -304 -313c0 -193 139 -313 304 -313zM247 169v74c107 61 199 119 199 195 c0 34 -17 51 -49 51c-31 0 -49 -19 -49 -50c0 -8 2 -19 4 -31l-102 9c-2 11 -3 21 -3 29c0 75 59 123 155 123c94 0 150 -44 150 -124c0 -100 -91 -158 -168 -195h170v-81h-307z"/>
    <glyph glyph-name="uni2462" unicode="③" horiz-adv-x="801" d="M401 -17c-202 0 -372 143 -372 372c0 230 170 372 372 372c201 0 371 -142 371 -372c0 -229 -170 -372 -371 -372zM401 42c164 0 303 120 303 313c0 194 -139 313 -303 313c-165 0 -304 -119 -304 -313c0 -193 139 -313 304 -313zM403 151c-98 0 -162 48 -163 127l100 10 c0 -38 26 -59 64 -59c36 0 54 17 54 47c0 32 -20 45 -69 45h-22v73h22c42 0 60 17 60 46c0 28 -19 42 -51 42c-35 0 -56 -23 -56 -65l-97 15c0 78 62 127 159 127c93 0 146 -39 146 -107c0 -43 -30 -77 -78 -88c60 -12 90 -40 90 -93c0 -74 -62 -120 -159 -120z"/>
    <glyph glyph-name="uni2463" unicode="④" horiz-adv-x="801" d="M401 -17c-202 0 -372 143 -372 372c0 230 170 372 372 372c201 0 371 -142 371 -372c0 -229 -170 -372 -371 -372zM401 42c164 0 303 120 303 313c0 194 -139 313 -303 313c-165 0 -304 -119 -304 -313c0 -193 139 -313 304 -313zM559 244h-61v-82h-96v82h-188v67 l173 241h111v-235h61v-73zM402 462l-98 -145h98v145z"/>
    <glyph glyph-name="uni2464" unicode="⑤" horiz-adv-x="801" d="M401 -17c-202 0 -372 143 -372 372c0 230 170 372 372 372c201 0 371 -142 371 -372c0 -229 -170 -372 -371 -372zM401 42c164 0 303 120 303 313c0 194 -139 313 -303 313c-165 0 -304 -119 -304 -313c0 -193 139 -313 304 -313zM399 155c-84 0 -143 43 -154 110l98 15 c6 -26 25 -45 57 -45c37 0 58 21 58 58c0 40 -20 68 -58 68c-30 0 -48 -14 -57 -42l-89 8l25 228h257v-80h-184l-11 -75c18 22 47 34 86 34c81 0 130 -52 130 -137c0 -87 -60 -142 -158 -142z"/>
    <glyph glyph-name="uni2465" unicode="⑥" horiz-adv-x="801" d="M401 727c201 0 371 -142 371 -372c0 -229 -170 -372 -371 -372c-202 0 -372 143 -372 372c0 230 170 372 372 372zM401 42c164 0 303 120 303 313c0 194 -139 313 -303 313c-165 0 -304 -119 -304 -313c0 -193 139 -313 304 -313zM427 423c77 0 126 -49 126 -130 c0 -86 -63 -142 -150 -142c-109 0 -167 77 -167 195c0 136 65 213 170 213c81 0 130 -34 143 -101l-96 -17c-7 31 -25 41 -48 41c-43 0 -70 -32 -74 -102c20 29 51 43 96 43zM401 227c34 0 56 22 56 62c0 35 -22 61 -58 61c-29 0 -52 -16 -66 -42c9 -60 37 -81 68 -81z"/>
    <glyph glyph-name="uni2466" unicode="⑦" horiz-adv-x="801" d="M401 -17c-202 0 -372 143 -372 372c0 230 170 372 372 372c201 0 371 -142 371 -372c0 -229 -170 -372 -371 -372zM401 42c164 0 303 120 303 313c0 194 -139 313 -303 313c-165 0 -304 -119 -304 -313c0 -193 139 -313 304 -313zM255 465v85h293v-75 c-83 -80 -132 -186 -132 -306v-10h-110v5c1 102 58 221 139 301h-190z"/>
    <glyph glyph-name="uni2467" unicode="⑧" horiz-adv-x="801" d="M401 727c201 0 371 -142 371 -372c0 -229 -170 -372 -371 -372c-202 0 -372 143 -372 372c0 230 170 372 372 372zM401 42c164 0 303 120 303 313c0 194 -139 313 -303 313c-165 0 -304 -119 -304 -313c0 -193 139 -313 304 -313zM494 375c49 -20 75 -52 75 -104 c0 -72 -68 -120 -169 -120c-99 0 -168 46 -168 111c0 49 22 80 72 95c-39 20 -58 49 -58 92c0 66 61 110 152 110c92 0 153 -39 153 -101c0 -39 -19 -67 -57 -83zM397 491c-34 0 -55 -15 -55 -42c0 -23 21 -38 60 -48l21 -5c22 12 32 28 32 49c0 29 -21 46 -58 46zM402 224 c39 0 66 20 66 49c0 24 -24 41 -59 50l-37 10c-28 -13 -38 -29 -38 -56c0 -31 28 -53 68 -53z"/>
    <glyph glyph-name="uni2468" unicode="⑨" horiz-adv-x="801" d="M401 727c201 0 371 -142 371 -372c0 -229 -170 -372 -371 -372c-202 0 -372 143 -372 372c0 230 170 372 372 372zM401 42c164 0 303 120 303 313c0 194 -139 313 -303 313c-165 0 -304 -119 -304 -313c0 -193 139 -313 304 -313zM397 559c109 0 163 -71 163 -196 c0 -128 -50 -212 -165 -212c-83 0 -136 37 -149 104l96 19c7 -29 24 -45 56 -45c40 0 60 32 65 97c-22 -18 -51 -27 -84 -27c-81 0 -137 47 -137 126s60 134 155 134zM397 372c25 0 50 12 65 32c-5 54 -23 80 -64 80c-36 0 -60 -21 -60 -57c0 -32 23 -55 59 -55z"/>
    <glyph glyph-name="zero.osf" horiz-adv-x="617" d="M310 -15c-172 0 -284 115 -284 289c0 165 114 276 283 276c168 0 282 -113 282 -281c0 -170 -113 -284 -281 -284zM310 103c75 0 122 63 122 164s-47 162 -123 162c-77 0 -124 -59 -124 -158c0 -105 47 -168 125 -168z"/>
    <glyph glyph-name="one.osf" horiz-adv-x="588" d="M388 127h167v-127h-500l1 127h177v220c-32 -28 -94 -47 -149 -47h-27v135h19c73 0 155 33 181 100h131v-408z"/>
    <glyph glyph-name="two.osf" horiz-adv-x="589" d="M32 104c59 29 131 63 187 94c110 65 146 104 146 158c0 45 -29 71 -76 71c-51 0 -82 -30 -82 -80c0 -14 1 -26 3 -37l-164 16c-2 15 -3 24 -3 31c0 114 101 193 248 193c152 0 241 -68 241 -182c0 -52 -22 -95 -69 -135c-44 -37 -103 -70 -188 -106h279v-127h-522v104z "/>
    <glyph glyph-name="three.osf" horiz-adv-x="611" d="M301 -165c-175 0 -274 81 -276 225l163 14c1 -78 43 -117 114 -117c67 0 106 36 106 94c0 61 -42 92 -125 92h-41v109h40c71 0 111 32 111 91c0 53 -35 84 -96 84c-67 0 -106 -38 -106 -123l-159 21c1 144 105 225 268 225c167 0 259 -67 259 -189 c0 -75 -53 -136 -130 -155c92 -16 148 -78 148 -167c0 -125 -105 -204 -276 -204z"/>
    <glyph glyph-name="four.osf" horiz-adv-x="652" d="M354 -150v161h-329v109l310 415h178v-406h104v-118h-104v-161h-159zM169 129h185v166c0 30 0 59 1 95h-2c-13 -24 -26 -46 -37 -61l-108 -150c-15 -19 -28 -39 -39 -50z"/>
    <glyph glyph-name="five.osf" horiz-adv-x="612" d="M300 -165c-149 0 -254 71 -269 184l160 20c12 -53 52 -83 107 -83c71 0 115 47 115 124c0 68 -42 111 -109 111c-52 0 -93 -26 -112 -71l-144 12l44 403h436v-126h-316l-22 -178c31 50 88 78 164 78c137 0 226 -89 226 -225c0 -148 -114 -249 -280 -249z"/>
    <glyph glyph-name="six.osf" horiz-adv-x="607" d="M362 469c133 0 215 -89 215 -233c0 -148 -106 -251 -258 -251c-179 0 -285 129 -285 350c0 234 109 375 288 375c141 0 224 -62 244 -182l-152 -24c-13 56 -44 85 -95 85c-79 0 -127 -75 -130 -201c35 52 93 81 173 81zM316 107c66 0 107 46 107 122 c0 74 -44 123 -109 123c-57 0 -102 -35 -124 -95c9 -93 55 -150 126 -150z"/>
    <glyph glyph-name="seven.osf" horiz-adv-x="540" d="M121 -150v12c0 192 90 380 244 539h-343v134h503v-124c-145 -148 -228 -318 -228 -536v-25h-176z"/>
    <glyph glyph-name="eight.osf" horiz-adv-x="630" d="M459 384c98 -37 141 -97 141 -191c0 -125 -113 -208 -287 -208c-170 0 -283 78 -283 196c0 86 41 139 133 167c-77 36 -112 90 -112 169c0 116 102 193 257 193c158 0 260 -69 260 -177c0 -73 -34 -122 -109 -149zM309 601c-65 0 -103 -31 -103 -84c0 -45 33 -74 109 -93 l40 -11c43 23 60 53 60 97c0 57 -40 91 -106 91zM316 103c73 0 120 37 120 94c0 50 -34 82 -112 103l-54 14c-53 -25 -75 -58 -75 -111c0 -60 48 -100 121 -100z"/>
    <glyph glyph-name="nine.osf" horiz-adv-x="614" d="M302 550c183 0 278 -120 278 -350c0 -239 -99 -365 -288 -365c-145 0 -229 56 -258 169l154 28c15 -54 54 -83 112 -83c85 0 126 69 127 213c-32 -47 -92 -75 -164 -75c-142 0 -233 88 -233 225c0 146 105 238 272 238zM296 204c58 0 110 37 130 90 c-5 89 -50 138 -127 138c-69 0 -114 -46 -114 -115c0 -67 45 -113 111 -113z"/>
    <glyph glyph-name="zero.osf.zero" horiz-adv-x="617" d="M309 550c168 0 282 -113 282 -281c0 -170 -113 -284 -281 -284c-172 0 -284 115 -284 289c0 165 114 276 283 276zM309 429c-77 0 -124 -59 -124 -158c0 -44 8 -80 23 -107l172 241c-19 16 -43 24 -71 24zM310 103c75 0 122 63 122 164c0 40 -7 74 -21 100l-171 -241 c19 -15 42 -23 70 -23z"/>
    <glyph glyph-name="one.ss02" horiz-adv-x="561" d="M381 129h165v-129h-503v129h177v351c-29 -25 -77 -41 -142 -41h-32v145h26c101 0 148 39 179 111h130v-566z"/>
    <glyph glyph-name="zero.tf.case" d="M310 -15c-171 0 -274 108 -274 371c0 262 103 371 274 371s274 -109 274 -371c0 -263 -103 -371 -274 -371zM310 102c75 0 114 61 115 254c-1 194 -40 254 -115 254s-114 -60 -115 -254c1 -193 40 -254 115 -254z"/>
    <glyph glyph-name="one.tf.case" d="M411 129h165v-129h-503v129h177v365c-29 -25 -77 -41 -142 -41h-32v144h26c100 0 148 40 178 113h131v-581z"/>
    <glyph glyph-name="two.tf.case" d="M53 0v118c73 52 163 129 236 203c64 67 90 118 90 183c0 61 -30 96 -81 96c-53 0 -84 -38 -84 -99c0 -16 2 -34 5 -50l-159 16c-3 16 -4 28 -4 41c0 132 96 219 245 219c155 0 239 -78 239 -217c0 -85 -33 -156 -111 -236c-52 -52 -107 -98 -178 -146h302v-128h-500z"/>
    <glyph glyph-name="three.tf.case" d="M314 -15c-167 0 -265 92 -266 232l162 16c2 -75 36 -124 102 -124c61 0 93 38 93 102c0 58 -39 96 -110 96h-35v110h33c63 0 97 41 97 97c0 58 -29 90 -83 90c-61 0 -93 -42 -93 -122l-160 22c0 136 96 223 261 223c148 0 236 -75 236 -191c0 -78 -50 -145 -126 -165 c89 -18 144 -78 144 -178c0 -125 -100 -208 -255 -208z"/>
    <glyph glyph-name="four.tf.case" d="M345 0v160h-316v108l287 442h177v-432h98v-118h-98v-160h-148zM162 278h183v206c0 29 0 54 3 92h-1c-11 -31 -20 -49 -40 -79l-106 -168c-16 -24 -27 -39 -39 -51z"/>
    <glyph glyph-name="five.tf.case" d="M303 -15c-141 0 -239 77 -252 200l151 23c10 -59 48 -97 105 -97c65 0 102 48 102 125c0 83 -34 134 -101 134c-54 0 -91 -33 -104 -87l-134 13l43 414h414v-128h-309l-20 -167c30 44 82 72 151 72c133 0 214 -92 214 -247c0 -156 -102 -255 -260 -255z"/>
    <glyph glyph-name="six.tf.case" d="M358 480c131 0 213 -93 213 -239c0 -154 -99 -256 -250 -256c-179 0 -278 129 -278 359c0 242 104 383 283 383c133 0 216 -67 234 -187l-152 -24c-10 60 -39 90 -88 90c-76 0 -121 -77 -124 -210c33 54 92 84 162 84zM316 107c63 0 101 50 101 128c0 77 -37 128 -98 128 c-55 0 -100 -37 -122 -99c8 -99 51 -157 119 -157z"/>
    <glyph glyph-name="seven.tf.case" d="M160 0v12c0 202 93 402 244 564h-343v134h503v-124c-147 -156 -228 -340 -228 -561v-24z"/>
    <glyph glyph-name="eight.tf.case" d="M443 396c87 -32 142 -88 142 -197c0 -129 -109 -214 -277 -214c-164 0 -272 80 -272 202c0 86 40 143 130 169c-69 32 -110 83 -110 172c0 118 101 199 251 199c145 0 246 -67 246 -183c0 -71 -35 -121 -110 -148zM303 618c-57 0 -92 -34 -92 -91c0 -50 37 -77 99 -94 l38 -10c41 23 59 53 59 99c0 60 -39 96 -104 96zM313 103c69 0 114 39 114 100c0 57 -41 87 -107 105l-53 15c-52 -26 -73 -60 -73 -114c0 -64 47 -106 119 -106z"/>
    <glyph glyph-name="nine.tf.case" d="M298 726c175 0 275 -122 275 -358s-86 -383 -277 -383c-135 0 -224 66 -243 192l152 27c11 -59 47 -94 98 -94c79 0 118 78 118 216c-32 -49 -85 -72 -145 -72c-141 0 -234 89 -234 228c0 143 96 244 256 244zM306 372c51 0 97 35 115 87c-4 79 -36 149 -117 149 c-66 0 -108 -48 -108 -121c0 -68 45 -115 110 -115z"/>
    <glyph glyph-name="zero.tf.case.zero" d="M310 727c171 0 274 -109 274 -371c0 -263 -103 -371 -274 -371s-274 108 -274 371c0 262 103 371 274 371zM310 610c-75 0 -114 -60 -115 -254c0 -40 2 -75 6 -105l205 277c-19 60 -51 82 -96 82zM310 102c75 0 114 61 115 254c0 37 -2 68 -5 96l-204 -275 c19 -55 51 -75 94 -75z"/>
    <glyph glyph-name="zero.tosf" d="M310 550c166 0 283 -111 283 -283s-117 -282 -283 -282c-167 0 -283 110 -283 283c0 172 117 282 283 282zM310 104c73 0 123 56 123 162c0 107 -50 164 -123 164s-123 -56 -123 -163s50 -163 123 -163zM593 267v-1v1z"/>
    <glyph glyph-name="one.tosf" d="M408 121h167v-121h-500v121h179v228c-32 -29 -108 -49 -162 -49h-14v135h11c72 2 156 39 188 100h131v-414z"/>
    <glyph glyph-name="two.tosf" d="M46 104c59 29 132 62 187 94c106 60 146 103 146 158c0 44 -28 71 -76 71c-51 0 -82 -28 -82 -76c0 -14 1 -27 3 -38l-164 17c-1 14 -2 22 -2 30c0 113 100 190 247 190c153 0 241 -66 241 -179c0 -53 -22 -97 -69 -138c-41 -36 -99 -69 -188 -106h279v-127h-522v104z "/>
    <glyph glyph-name="three.tosf" d="M311 -165c-167 0 -262 78 -263 219l161 14c1 -72 32 -112 99 -112c59 0 95 36 95 88c0 64 -35 99 -112 99h-41v109h40c64 0 98 38 98 92s-29 85 -83 85c-61 0 -93 -37 -93 -117l-158 21c0 139 96 217 255 217c157 0 242 -70 242 -196c0 -71 -50 -129 -130 -148 c95 -16 148 -78 148 -171c0 -115 -103 -200 -258 -200z"/>
    <glyph glyph-name="four.tosf" d="M345 -150v161h-316v109l287 415h177v-406h102v-118h-102v-161h-148zM166 129h179v185c0 28 0 46 2 82h-1c-13 -26 -27 -50 -38 -67l-92 -136c-17 -26 -32 -46 -50 -64z"/>
    <glyph glyph-name="five.tosf" d="M300 -165c-138 0 -237 77 -249 192l151 19c10 -53 49 -86 102 -86c67 0 105 50 105 119c0 74 -39 117 -100 117c-50 2 -92 -30 -105 -77l-137 15l43 401h417v-128h-308l-20 -165c30 46 83 75 155 75c129 0 209 -92 209 -232c0 -149 -95 -250 -263 -250z"/>
    <glyph glyph-name="six.tosf" d="M358 469c131 0 213 -90 213 -233c0 -151 -100 -251 -250 -251c-179 0 -278 126 -278 350c0 237 104 375 283 375c133 0 216 -65 234 -182l-152 -24c-10 57 -39 85 -88 85c-76 0 -121 -74 -124 -200c33 51 92 80 162 80zM316 107c62 0 101 48 101 122 c0 75 -37 123 -98 123c-54 0 -100 -36 -122 -95c8 -95 51 -150 119 -150z"/>
    <glyph glyph-name="seven.tosf" d="M160 -150v12c0 199 93 381 244 539h-343v134h503v-124c-147 -152 -228 -318 -228 -536v-24z"/>
    <glyph glyph-name="eight.tosf" d="M443 387c88 -32 142 -86 142 -194c0 -125 -109 -208 -277 -208c-164 0 -272 78 -272 196c0 85 39 139 130 165c-68 32 -110 82 -110 170c0 116 101 194 251 194c145 0 246 -65 246 -177c0 -70 -34 -120 -110 -146zM303 601c-57 0 -92 -32 -92 -85c0 -50 37 -75 99 -92 l39 -10c41 22 58 52 58 96c0 57 -39 91 -104 91zM313 103c69 0 114 37 114 94c0 56 -41 84 -107 103l-54 14c-51 -25 -72 -59 -72 -111c0 -60 47 -100 119 -100z"/>
    <glyph glyph-name="nine.tosf" d="M298 550c180 0 275 -124 275 -351c0 -228 -88 -364 -277 -364c-141 0 -224 63 -243 181l152 27c11 -51 42 -83 98 -83c80 0 118 74 118 197c-31 -47 -82 -70 -145 -70c-138 0 -234 85 -234 225c0 144 99 238 256 238zM306 204c52 0 97 35 115 86c-3 77 -37 142 -117 142 c-66 0 -108 -46 -108 -115c0 -68 46 -113 110 -113z"/>
    <glyph glyph-name="zero.tosf.zero" d="M310 550c166 0 283 -111 283 -283s-117 -282 -283 -282c-167 0 -283 110 -283 283c0 172 117 282 283 282zM310 430c-73 0 -123 -56 -123 -163c0 -42 8 -77 22 -103l173 242c-20 16 -44 24 -72 24zM310 104c73 0 123 56 123 162c0 41 -7 75 -21 101l-171 -241 c19 -15 42 -22 69 -22zM593 267v-1v1z"/>
    <glyph glyph-name="zero.subs" horiz-adv-x="530" d="M265 -151c-144 0 -233 95 -233 264c0 170 89 265 233 265s232 -95 232 -265c0 -169 -88 -264 -232 -264zM265 -47c56 0 91 52 91 160c0 110 -35 161 -91 161c-57 0 -91 -51 -91 -161c0 -108 34 -160 91 -160z"/>
    <glyph glyph-name="one.subs" horiz-adv-x="352" d="M137 -140v332c-22 -19 -56 -29 -96 -29h-17v123h12c69 0 104 24 128 81h109v-507h-136z"/>
    <glyph glyph-name="two.subs" horiz-adv-x="475" d="M31 -140v97c152 88 261 151 261 249c0 44 -21 68 -60 68c-41 0 -65 -26 -65 -69c0 -12 2 -24 5 -39l-140 13c-2 13 -4 28 -4 40c0 97 82 159 210 159c126 0 200 -59 200 -160c0 -118 -94 -193 -220 -253h225v-105h-412z"/>
    <glyph glyph-name="three.subs" horiz-adv-x="481" d="M237 -151c-131 0 -212 65 -212 169l138 13c1 -49 29 -79 73 -79c45 0 68 23 68 61s-27 57 -82 57h-29v89h28c48 0 74 21 74 60c0 37 -22 58 -62 58c-44 0 -69 -30 -69 -79l-136 15c0 101 81 165 212 165c126 0 197 -52 197 -143c0 -56 -44 -103 -110 -115 c79 -10 121 -53 121 -120c0 -91 -82 -151 -211 -151z"/>
    <glyph glyph-name="four.subs" horiz-adv-x="487" d="M470 -34h-76v-106h-133v106h-243v93l227 308h149v-303h76v-98zM261 250l-127 -186h127v186z"/>
    <glyph glyph-name="five.subs" horiz-adv-x="475" d="M235 -151c-113 0 -191 54 -206 143l131 22c7 -38 34 -61 72 -61c48 0 77 29 77 78c0 50 -29 82 -73 82c-37 0 -65 -19 -74 -52l-120 11l32 295h341v-105h-241l-14 -99c23 30 63 45 115 45c105 0 169 -65 169 -172c0 -118 -79 -187 -209 -187z"/>
    <glyph glyph-name="six.subs" horiz-adv-x="486" d="M295 204c97 0 161 -60 161 -169c0 -108 -83 -186 -201 -186c-138 0 -224 96 -224 258c0 165 86 271 224 271c113 0 176 -45 191 -133l-127 -18c-8 35 -30 58 -67 58c-49 0 -82 -45 -89 -137c26 38 70 56 132 56zM251 -50c48 0 77 29 77 78c0 48 -32 81 -77 81 c-37 0 -69 -22 -86 -57c10 -71 40 -102 86 -102z"/>
    <glyph glyph-name="seven.subs" horiz-adv-x="427" d="M95 -140v9c0 147 72 284 186 388h-257v110h388v-104c-105 -101 -168 -213 -168 -381v-22h-149z"/>
    <glyph glyph-name="eight.subs" horiz-adv-x="494" d="M364 143c73 -26 106 -71 106 -141c0 -93 -88 -153 -226 -153c-133 0 -219 56 -219 143c0 61 29 97 98 117c-58 26 -85 65 -85 124c0 87 80 145 201 145c125 0 205 -50 205 -128c0 -53 -24 -86 -80 -107zM241 289c-46 0 -73 -20 -73 -55c0 -30 25 -49 82 -62l31 -7 c25 14 35 33 35 62c0 38 -28 62 -75 62zM248 -54c49 0 82 25 82 61c0 34 -25 54 -84 68l-35 8c-32 -16 -47 -38 -47 -72c0 -40 33 -65 84 -65z"/>
    <glyph glyph-name="nine.subs" horiz-adv-x="486" d="M236 378c138 0 219 -84 219 -257c0 -176 -73 -272 -223 -272c-107 0 -178 46 -192 133l127 20c8 -34 35 -56 72 -56c50 0 80 39 86 137c-26 -33 -70 -47 -117 -47c-111 0 -178 69 -178 166c0 104 78 176 206 176zM236 132c35 0 69 17 87 48c-9 76 -37 102 -84 102 c-49 0 -81 -30 -81 -76c0 -41 32 -74 78 -74z"/>
    <glyph glyph-name="zero.dnom" horiz-adv-x="416" d="M208 -9c-113 0 -178 76 -178 204s65 205 178 205c114 0 178 -76 178 -205c0 -128 -64 -204 -178 -204zM208 70c50 0 75 44 75 125c0 82 -25 126 -75 126s-75 -45 -75 -126s25 -125 75 -125z"/>
    <glyph glyph-name="one.dnom" horiz-adv-x="274" d="M109 0v256c-14 -10 -41 -13 -65 -13h-20v89h14c46 0 74 18 89 59h79v-391h-97z"/>
    <glyph glyph-name="two.dnom" horiz-adv-x="366" d="M26 0v74c107 61 199 118 199 195c0 33 -17 51 -49 51c-31 0 -50 -20 -50 -50c0 -8 2 -19 5 -32l-102 10c-2 11 -3 21 -3 29c0 75 59 123 155 123c94 0 149 -45 149 -124c0 -100 -91 -158 -167 -195h170v-81h-307z"/>
    <glyph glyph-name="three.dnom" horiz-adv-x="374" d="M185 -9c-98 0 -163 49 -163 127l100 11c0 -39 26 -60 64 -60c36 0 54 17 54 48s-20 45 -70 45h-22v72h23c41 0 59 17 59 47c0 28 -18 42 -50 42c-36 0 -56 -24 -56 -66l-97 16c0 77 62 127 159 127c93 0 146 -40 146 -107c0 -43 -30 -77 -78 -89c59 -11 90 -40 90 -93 c0 -73 -62 -120 -159 -120z"/>
    <glyph glyph-name="four.dnom" horiz-adv-x="371" d="M361 83h-62v-83h-95v83h-188v67l172 241h111v-235h62v-73zM204 300l-99 -144h99v144z"/>
    <glyph glyph-name="five.dnom" horiz-adv-x="371" d="M184 -9c-85 0 -143 43 -155 110l98 15c7 -26 25 -46 57 -46c38 0 59 22 59 59c0 40 -20 67 -58 67c-31 0 -48 -14 -57 -41l-90 8l26 228h256v-80h-183l-11 -75c18 22 47 34 86 34c81 0 130 -52 130 -137c0 -87 -60 -142 -158 -142z"/>
    <glyph glyph-name="six.dnom" horiz-adv-x="374" d="M220 264c76 0 126 -49 126 -131c0 -86 -63 -142 -151 -142c-109 0 -166 78 -166 195c0 136 65 214 170 214c81 0 130 -34 143 -101l-96 -17c-7 31 -26 41 -48 41c-44 0 -70 -32 -75 -103c21 30 52 44 97 44zM193 68c35 0 57 21 57 61c0 36 -22 61 -58 61 c-30 0 -52 -16 -66 -43c9 -59 37 -79 67 -79z"/>
    <glyph glyph-name="seven.dnom" horiz-adv-x="324" d="M18 306v85h293v-76c-83 -79 -131 -185 -132 -305v-10h-110v4c1 103 59 221 140 302h-191z"/>
    <glyph glyph-name="eight.dnom" horiz-adv-x="386" d="M285 216c51 -21 76 -53 76 -104c0 -72 -68 -121 -169 -121c-99 0 -167 46 -167 112c0 49 22 79 72 94c-39 20 -59 50 -59 92c0 66 62 111 152 111c93 0 153 -39 153 -102c0 -39 -19 -66 -58 -82zM190 331c-35 0 -56 -15 -56 -41c0 -24 22 -38 60 -48l21 -5 c22 12 32 28 32 49c0 28 -21 45 -57 45zM194 65c40 0 66 19 66 48c0 24 -24 41 -59 51l-36 10c-29 -13 -39 -29 -39 -57c0 -30 28 -52 68 -52z"/>
    <glyph glyph-name="nine.dnom" horiz-adv-x="375" d="M183 400c110 0 163 -72 163 -197c0 -128 -50 -212 -165 -212c-83 0 -136 37 -149 105l96 19c7 -29 25 -46 56 -46c40 0 60 32 65 97c-23 -18 -51 -27 -84 -27c-81 0 -137 47 -137 126c0 80 60 135 155 135zM183 213c25 0 50 12 65 32c-5 54 -23 80 -64 80 c-36 0 -60 -22 -60 -57c0 -32 23 -55 59 -55z"/>
    <glyph glyph-name="zero.numr" horiz-adv-x="416" d="M208 311c-113 0 -178 76 -178 204s65 205 178 205c114 0 178 -76 178 -205c0 -128 -64 -204 -178 -204zM208 390c50 0 75 44 75 125c0 82 -25 126 -75 126s-75 -45 -75 -126s25 -125 75 -125z"/>
    <glyph glyph-name="one.numr" horiz-adv-x="274" d="M109 320v256c-14 -10 -41 -13 -65 -13h-20v89h14c46 0 74 18 89 59h79v-391h-97z"/>
    <glyph glyph-name="two.numr" horiz-adv-x="366" d="M26 320v74c107 61 199 118 199 195c0 33 -17 51 -49 51c-31 0 -50 -20 -50 -50c0 -8 2 -19 5 -32l-102 10c-2 11 -3 21 -3 29c0 75 59 123 155 123c94 0 149 -45 149 -124c0 -100 -91 -158 -167 -195h170v-81h-307z"/>
    <glyph glyph-name="three.numr" horiz-adv-x="374" d="M185 311c-98 0 -163 49 -163 127l100 11c0 -39 26 -60 64 -60c36 0 54 17 54 48s-20 45 -70 45h-22v72h23c41 0 59 17 59 47c0 28 -18 42 -50 42c-36 0 -56 -24 -56 -66l-97 16c0 77 62 127 159 127c93 0 146 -40 146 -107c0 -43 -30 -77 -78 -89c59 -11 90 -40 90 -93 c0 -73 -62 -120 -159 -120z"/>
    <glyph glyph-name="four.numr" horiz-adv-x="371" d="M361 403h-62v-83h-95v83h-188v67l172 241h111v-235h62v-73zM204 620l-99 -144h99v144z"/>
    <glyph glyph-name="five.numr" horiz-adv-x="371" d="M184 311c-85 0 -143 43 -155 110l98 15c7 -26 25 -46 57 -46c38 0 59 22 59 59c0 40 -20 67 -58 67c-31 0 -48 -14 -57 -41l-90 8l26 228h256v-80h-183l-11 -75c18 22 47 34 86 34c81 0 130 -52 130 -137c0 -87 -60 -142 -158 -142z"/>
    <glyph glyph-name="six.numr" horiz-adv-x="374" d="M220 584c76 0 126 -49 126 -131c0 -86 -63 -142 -151 -142c-109 0 -166 78 -166 195c0 136 65 214 170 214c81 0 130 -34 143 -101l-96 -17c-7 31 -26 41 -48 41c-44 0 -70 -32 -75 -103c21 30 52 44 97 44zM193 388c35 0 57 21 57 61c0 36 -22 61 -58 61 c-30 0 -52 -16 -66 -43c9 -59 37 -79 67 -79z"/>
    <glyph glyph-name="seven.numr" horiz-adv-x="324" d="M18 626v85h293v-76c-83 -79 -131 -185 -132 -305v-10h-110v4c1 103 59 221 140 302h-191z"/>
    <glyph glyph-name="eight.numr" horiz-adv-x="386" d="M285 536c51 -21 76 -53 76 -104c0 -72 -68 -121 -169 -121c-99 0 -167 46 -167 112c0 49 22 79 72 94c-39 20 -59 50 -59 92c0 66 62 111 152 111c93 0 153 -39 153 -102c0 -39 -19 -66 -58 -82zM190 651c-35 0 -56 -15 -56 -41c0 -24 22 -38 60 -48l21 -5 c22 12 32 28 32 49c0 28 -21 45 -57 45zM194 385c40 0 66 19 66 48c0 24 -24 41 -59 51l-36 10c-29 -13 -39 -29 -39 -57c0 -30 28 -52 68 -52z"/>
    <glyph glyph-name="nine.numr" horiz-adv-x="375" d="M183 720c110 0 163 -72 163 -197c0 -128 -50 -212 -165 -212c-83 0 -136 37 -149 105l96 19c7 -29 25 -46 56 -46c40 0 60 32 65 97c-23 -18 -51 -27 -84 -27c-81 0 -137 47 -137 126c0 80 60 135 155 135zM183 533c25 0 50 12 65 32c-5 54 -23 80 -64 80 c-36 0 -60 -22 -60 -57c0 -32 23 -55 59 -55z"/>
    <glyph glyph-name="zero.sups" horiz-adv-x="530" d="M265 299c-144 0 -233 95 -233 264c0 170 89 265 233 265s232 -95 232 -265c0 -169 -88 -264 -232 -264zM265 403c56 0 91 52 91 160c0 110 -35 161 -91 161c-57 0 -91 -51 -91 -161c0 -108 34 -160 91 -160z"/>
    <glyph glyph-name="one.sups" horiz-adv-x="352" d="M137 310v332c-22 -19 -56 -29 -96 -29h-17v123h12c69 0 104 24 128 81h109v-507h-136z"/>
    <glyph glyph-name="two.sups" horiz-adv-x="475" d="M31 310v97c152 88 261 151 261 249c0 44 -21 68 -60 68c-41 0 -65 -26 -65 -69c0 -12 2 -24 5 -39l-140 13c-2 13 -4 28 -4 40c0 97 82 159 210 159c126 0 200 -59 200 -160c0 -118 -94 -193 -220 -253h225v-105h-412z"/>
    <glyph glyph-name="three.sups" horiz-adv-x="481" d="M237 299c-131 0 -212 65 -212 169l138 13c1 -49 29 -79 73 -79c45 0 68 23 68 61s-27 57 -82 57h-29v89h28c48 0 74 21 74 60c0 37 -22 58 -62 58c-44 0 -69 -30 -69 -79l-136 15c0 101 81 165 212 165c126 0 197 -52 197 -143c0 -56 -44 -103 -110 -115 c79 -10 121 -53 121 -120c0 -91 -82 -151 -211 -151z"/>
    <glyph glyph-name="four.sups" horiz-adv-x="487" d="M470 416h-76v-106h-133v106h-243v93l227 308h149v-303h76v-98zM261 700l-127 -186h127v186z"/>
    <glyph glyph-name="five.sups" horiz-adv-x="475" d="M235 299c-113 0 -191 54 -206 143l131 22c7 -38 34 -61 72 -61c48 0 77 29 77 78c0 50 -29 82 -73 82c-37 0 -65 -19 -74 -52l-120 11l32 295h341v-105h-241l-14 -99c23 30 63 45 115 45c105 0 169 -65 169 -172c0 -118 -79 -187 -209 -187z"/>
    <glyph glyph-name="six.sups" horiz-adv-x="486" d="M295 654c97 0 161 -60 161 -169c0 -108 -83 -186 -201 -186c-138 0 -224 96 -224 258c0 165 86 271 224 271c113 0 176 -45 191 -133l-127 -18c-8 35 -30 58 -67 58c-49 0 -82 -45 -89 -137c26 38 70 56 132 56zM251 400c48 0 77 29 77 78c0 48 -32 81 -77 81 c-37 0 -69 -22 -86 -57c10 -71 40 -102 86 -102z"/>
    <glyph glyph-name="seven.sups" horiz-adv-x="427" d="M95 310v9c0 147 72 284 186 388h-257v110h388v-104c-105 -101 -168 -213 -168 -381v-22h-149z"/>
    <glyph glyph-name="eight.sups" horiz-adv-x="494" d="M364 593c73 -26 106 -71 106 -141c0 -93 -88 -153 -226 -153c-133 0 -219 56 -219 143c0 61 29 97 98 117c-58 26 -85 65 -85 124c0 87 80 145 201 145c125 0 205 -50 205 -128c0 -53 -24 -86 -80 -107zM241 739c-46 0 -73 -20 -73 -55c0 -30 25 -49 82 -62l31 -7 c25 14 35 33 35 62c0 38 -28 62 -75 62zM248 396c49 0 82 25 82 61c0 34 -25 54 -84 68l-35 8c-32 -16 -47 -38 -47 -72c0 -40 33 -65 84 -65z"/>
    <glyph glyph-name="nine.sups" horiz-adv-x="486" d="M236 828c138 0 219 -84 219 -257c0 -176 -73 -272 -223 -272c-107 0 -178 46 -192 133l127 20c8 -34 35 -56 72 -56c50 0 80 39 86 137c-26 -33 -70 -47 -117 -47c-111 0 -178 69 -178 166c0 104 78 176 206 176zM236 582c35 0 69 17 87 48c-9 76 -37 102 -84 102 c-49 0 -81 -30 -81 -76c0 -41 32 -74 78 -74z"/>
    <glyph glyph-name="colon.case" horiz-adv-x="285" d="M228 550v-164h-171v164h171zM228 164v-164h-171v164h171z"/>
    <glyph glyph-name="semicolon.case" horiz-adv-x="285" d="M228 550v-164h-171v164h171zM98 -155l-33 66c58 19 72 42 72 87v2h-80v164h171v-155c0 -83 -36 -135 -130 -164z"/>
    <glyph glyph-name="exclamdown.case" horiz-adv-x="330" d="M252 572h-174v153h174v-153zM101 493h128l27 -493h-182z"/>
    <glyph glyph-name="questiondown.case" horiz-adv-x="530" d="M361 720v-153h-173v153h173zM354 506v-48c0 -39 -15 -77 -64 -115l-51 -39c-38 -29 -60 -60 -60 -109c0 -50 33 -82 88 -82c60 0 98 34 98 95c0 17 -2 33 -6 50l154 -13c5 -23 7 -41 7 -58c0 -116 -95 -194 -254 -194c-158 0 -251 68 -251 185c0 73 37 134 94 179l45 38 c33 26 43 46 43 82v29h157z"/>
    <glyph glyph-name="periodcentered.case" horiz-adv-x="285" d="M228 450v-164h-171v164h171z"/>
    <glyph glyph-name="bullet.case" horiz-adv-x="373" d="M186 242c-74 0 -129 52 -129 127c0 77 55 129 129 129c75 0 130 -50 130 -129c0 -75 -55 -127 -130 -127z"/>
    <glyph glyph-name="slash.case" horiz-adv-x="506" d="M182 -84h-140l282 877h140z"/>
    <glyph glyph-name="backslash.case" horiz-adv-x="506" d="M324 -84l-282 877h140l282 -877h-140z"/>
    <glyph glyph-name="asterisk.ss04" horiz-adv-x="263" d="M132 710l-31 -93h-97l79 -57l-30 -93l79 57l79 -57l-31 93l79 57h-97z"/>
    <glyph glyph-name="period.tf" horiz-adv-x="310" d="M240 164v-164h-170v164h170z"/>
    <glyph glyph-name="comma.tf" horiz-adv-x="310" d="M110 -155l-33 66c59 19 72 42 72 87v2h-79v164h170v-155c0 -83 -36 -135 -130 -164z"/>
    <glyph glyph-name="colon.tf" horiz-adv-x="310" d="M240 500v-164h-170v164h170zM240 164v-164h-170v164h170z"/>
    <glyph glyph-name="semicolon.tf" horiz-adv-x="310" d="M240 500v-164h-170v164h170zM110 -155l-33 66c59 19 72 42 72 87v2h-79v164h170v-155c0 -83 -36 -135 -130 -164z"/>
    <glyph glyph-name="slash.tf" d="M239 -117h-140l282 877h140z"/>
    <glyph glyph-name="parenleft.case" horiz-adv-x="355" d="M231 -110c-109 124 -177 286 -177 467c0 184 69 334 177 455l120 -46c-101 -128 -147 -254 -147 -410s46 -290 147 -420z"/>
    <glyph glyph-name="parenright.case" horiz-adv-x="355" d="M124 -110l-120 46c101 130 147 264 147 420s-46 282 -147 410l119 46c109 -121 178 -271 178 -455c0 -181 -68 -343 -177 -467z"/>
    <glyph glyph-name="braceleft.case" horiz-adv-x="383" d="M290 -81c-121 0 -176 50 -176 155v138c0 65 -14 95 -80 97v107c68 2 79 26 79 93v132c0 95 66 154 180 154h66v-112h-27c-50 0 -72 -28 -72 -76v-95c0 -79 -20 -130 -97 -149c76 -22 96 -76 96 -156v-106c0 -46 21 -69 67 -69h36v-113h-72z"/>
    <glyph glyph-name="braceright.case" horiz-adv-x="383" d="M93 -81h-72v113h36c46 0 66 23 66 69v106c0 80 20 134 97 156c-77 19 -98 70 -98 149v95c0 48 -21 76 -71 76h-27v112h66c114 0 180 -59 180 -154v-132c0 -67 11 -91 79 -93v-107c-66 -2 -80 -32 -80 -97v-138c0 -105 -55 -155 -176 -155z"/>
    <glyph glyph-name="bracketleft.case" horiz-adv-x="359" d="M74 -80v871h264v-112h-117v-648h117v-111h-264z"/>
    <glyph glyph-name="bracketright.case" horiz-adv-x="359" d="M284 -80h-263v111h117v648h-117v112h263v-871z"/>
    <glyph glyph-name="parenleft.tf" d="M338 -140c-109 124 -177 286 -177 467c0 184 69 334 178 455l120 -46c-101 -128 -148 -254 -148 -410s47 -290 148 -420z"/>
    <glyph glyph-name="parenright.tf" d="M282 -140l-121 46c101 130 148 264 148 420s-47 282 -148 410l120 46c109 -121 178 -271 178 -455c0 -181 -68 -343 -177 -467z"/>
    <glyph glyph-name="hyphen.case" horiz-adv-x="415" d="M44 419h327v-135h-327v135z"/>
    <glyph glyph-name="endash.case" horiz-adv-x="621" d="M44 409h534v-115h-534v115z"/>
    <glyph glyph-name="emdash.case" horiz-adv-x="857" d="M44 409h769v-115h-769v115z"/>
    <glyph glyph-name="underscore.case" horiz-adv-x="469" d="M0 -17h469v-89h-469v89z"/>
    <glyph glyph-name="hyphen.tf" d="M96 346h427v-136h-427v136z"/>
    <glyph glyph-name="underscore.tf" d="M0 -89h620v-89h-620v89z"/>
    <glyph glyph-name="guillemotleft.case" horiz-adv-x="569" d="M180 141l-163 209l166 206h138l-163 -206l161 -209h-139zM411 141l-163 209l166 206h138l-163 -206l162 -209h-140z"/>
    <glyph glyph-name="guillemotright.case" horiz-adv-x="569" d="M158 141h-139l161 209l-163 206h138l166 -206zM389 141h-139l161 209l-163 206h138l166 -206z"/>
    <glyph glyph-name="guilsinglleft.case" horiz-adv-x="338" d="M180 141l-163 209l166 206h138l-163 -206l161 -209h-139z"/>
    <glyph glyph-name="guilsinglright.case" horiz-adv-x="338" d="M158 141h-139l161 209l-163 206h138l166 -206z"/>
    <glyph glyph-name="parenleft.subs" horiz-adv-x="300" d="M193 -241c-82 89 -133 205 -133 339c0 138 52 243 133 332l104 -34c-75 -91 -110 -184 -110 -298c0 -113 35 -213 110 -305z"/>
    <glyph glyph-name="parenright.subs" horiz-adv-x="300" d="M107 -241l-104 35c75 91 110 191 110 304c0 114 -35 207 -110 298l104 34c81 -89 133 -194 133 -332c0 -133 -51 -250 -133 -339z"/>
    <glyph glyph-name="parenleft.sups" horiz-adv-x="300" d="M193 209c-82 89 -133 206 -133 339c0 138 52 243 133 332l104 -34c-75 -91 -110 -184 -110 -298c0 -113 35 -213 110 -304z"/>
    <glyph glyph-name="parenright.sups" horiz-adv-x="300" d="M107 209l-104 35c75 91 110 191 110 304c0 114 -35 207 -110 298l104 34c81 -89 133 -194 133 -332c0 -133 -51 -250 -133 -339z"/>
    <glyph glyph-name="uni0E3F" unicode="฿" horiz-adv-x="663" d="M487 363c92 -13 144 -72 144 -164c0 -129 -92 -199 -238 -199h-33v-107h-58v107h-228v695h228v91h58v-91h21c145 0 232 -62 232 -183c0 -74 -46 -129 -126 -149zM225 585v-182h77v182h-77zM452 497c0 53 -31 83 -92 87v-180c61 4 92 36 92 93zM225 109h77v199h-77v-199z M360 109c70 1 111 39 111 103c0 61 -41 96 -110 96h-1v-199z"/>
    <glyph glyph-name="uni20BA" unicode="₺" horiz-adv-x="586" d="M447 245l137 -22c-23 -101 -86 -223 -273 -223h-223v260l-71 -21v68l71 21v78l-71 -21v69l71 21v220h161v-174l202 59v-68l-202 -59v-78l202 59v-69l-202 -59v-187h43c103 0 137 66 155 126z"/>
    <glyph glyph-name="uni20BD" unicode="₽" horiz-adv-x="624" d="M342 259h-96v-74h130v-63h-130v-122h-161v122h-83v63h83v74h-82v107h82v329h270c154 0 255 -85 255 -215c0 -139 -99 -221 -268 -221zM246 580v-214h76c73 0 114 40 114 107s-42 107 -114 107h-76z"/>
    <glyph glyph-name="uni20B9" unicode="₹" horiz-adv-x="573" d="M570 695v-95h-177c27 -25 43 -58 50 -99h127v-63h-124c-8 -97 -81 -165 -197 -182l210 -256h-175l-220 271v73h83c76 0 121 33 131 94h-214v63h213c-11 65 -55 99 -127 99h-86v95h506z"/>
    <glyph glyph-name="uni20A9" unicode="₩" horiz-adv-x="926" d="M908 398h-74l-17 -79h91v-59h-105l-59 -260h-172l-49 260h-120l-49 -260h-172l-59 260h-104v59h91l-18 79h-73v59h60l-54 238h149l39 -238h127l48 238h151l48 -238h127l39 238h149l-54 -238h60v-59zM445 486l-5 -29h46l-5 29c-8 44 -12 80 -16 128h-3 c-5 -48 -8 -84 -17 -128zM222 398l13 -79h77l16 79h-106zM414 319h98l-15 79h-68zM691 319l13 79h-105l16 -79h76zM288 201l12 59h-55l9 -58c8 -50 11 -77 13 -112h3c4 37 9 64 18 111zM672 202l10 58h-55l12 -59c9 -47 14 -74 17 -111h3c2 35 5 62 13 112z"/>
    <glyph glyph-name="uni0E3F.case" horiz-adv-x="663" d="M487 371c92 -13 144 -73 144 -166c0 -132 -92 -205 -238 -205h-33v-88h-58v88h-228v709h228v77h58v-77h21c145 0 232 -64 232 -187c0 -75 -46 -130 -126 -151zM225 599v-188h77v188h-77zM452 507c0 55 -31 87 -92 91v-186c61 4 92 38 92 95zM225 110h77v206h-77v-206z M360 110c70 1 111 41 111 108c0 62 -41 98 -110 98h-1v-206z"/>
    <glyph glyph-name="currency.case" horiz-adv-x="567" d="M525 353c0 -55 -15 -102 -42 -140l55 -61l-72 -68l-58 62c-35 -19 -75 -29 -120 -29c-47 0 -90 11 -126 32l-61 -66l-72 68l60 66c-25 37 -39 84 -39 136c0 53 14 99 40 137l-61 66l72 68l62 -66c36 20 78 31 125 31c44 0 84 -10 118 -28l60 64l72 -68l-56 -62 c27 -38 43 -87 43 -142zM288 231c65 0 114 48 114 122s-49 122 -114 122c-66 0 -117 -48 -117 -122s51 -122 117 -122z"/>
    <glyph glyph-name="dollar.case" horiz-adv-x="619" d="M599 206c0 -126 -100 -210 -258 -221v-73h-66v73c-131 8 -230 67 -277 163l121 81c37 -72 88 -112 156 -123v207l-38 8c-133 30 -200 100 -200 205c0 115 91 190 238 199v73h66v-73c105 -9 186 -54 242 -135l-108 -87c-31 57 -75 93 -134 105v-175l43 -10 c149 -33 215 -96 215 -217zM180 533c0 -41 24 -66 95 -85v164c-59 -4 -95 -32 -95 -79zM341 104c68 6 110 40 110 94s-31 79 -110 100v-194z"/>
    <glyph glyph-name="Euro.case" horiz-adv-x="680" d="M518 213l149 -42c-46 -118 -146 -186 -293 -186c-174 0 -283 105 -315 271h-54v67h45c-1 13 -1 27 -1 41c0 8 0 17 1 25h-45v67h51c30 170 143 271 322 271c147 0 249 -65 284 -178l-148 -43c-21 58 -69 96 -139 96c-83 0 -135 -52 -155 -146h240v-67h-248v-24 c0 -15 1 -29 2 -42h246v-67h-236c24 -91 78 -145 156 -145c66 0 116 39 138 102z"/>
    <glyph glyph-name="uni20BA.case" horiz-adv-x="586" d="M447 245l137 -22c-23 -101 -86 -223 -273 -223h-223v260l-71 -21v68l71 21v78l-71 -21v69l71 21v235h161v-189l202 59v-68l-202 -59v-78l202 59v-69l-202 -59v-187h43c103 0 137 66 155 126z"/>
    <glyph glyph-name="uni20BD.case" horiz-adv-x="624" d="M342 266h-96v-78h130v-64h-130v-124h-161v124h-83v64h83v78h-82v106h82v338h270c154 0 255 -86 255 -219c0 -141 -99 -225 -268 -225zM246 594v-222h76c73 0 114 42 114 112s-42 110 -114 110h-76z"/>
    <glyph glyph-name="uni20B9.case" horiz-adv-x="573" d="M570 710v-96h-178c28 -27 45 -62 52 -106h126v-64h-124c-9 -98 -82 -167 -197 -184l210 -260h-175l-220 275v73h83c75 0 119 34 130 96h-213v64h214c-10 69 -54 106 -128 106h-86v96h506z"/>
    <glyph glyph-name="sterling.case" horiz-adv-x="655" d="M504 199l144 -23c-16 -119 -90 -191 -196 -191c-99 0 -141 26 -254 26c-48 0 -105 -7 -159 -19l-32 92c94 27 139 83 139 170c0 26 -2 49 -5 70h-102v77h87c-7 32 -13 64 -13 102c0 142 92 224 240 224c142 0 228 -63 250 -181l-150 -33c-9 63 -43 97 -96 97 c-61 0 -91 -37 -91 -104c0 -39 6 -72 13 -105h175v-77h-161c2 -16 3 -32 3 -50c0 -74 -35 -128 -100 -158c21 7 45 9 74 9c58 0 94 -14 152 -14c46 0 75 32 82 88z"/>
    <glyph glyph-name="uni0E3F.tf.case" d="M429 368c93 -14 145 -74 145 -165c0 -135 -92 -203 -237 -203h-3v-101h-58v101h-201v709h201v87h58v-87c138 -2 224 -63 224 -187c0 -76 -48 -133 -129 -154zM276 608h-66v-200h66v200zM417 510c0 60 -28 90 -83 97v-197c54 8 83 42 83 100zM210 101h66v212h-66v-212z M334 101c62 5 99 44 99 116c0 58 -36 92 -99 96v-212z"/>
    <glyph glyph-name="currency.tf.case" d="M551 353c0 -54 -15 -102 -41 -140l55 -61l-72 -68l-58 62c-35 -19 -76 -29 -121 -29c-47 0 -90 11 -126 32l-61 -66l-72 68l60 66c-25 37 -39 84 -39 136c0 53 14 99 40 137l-61 66l72 68l62 -66c36 20 78 31 125 31c44 0 84 -10 119 -28l60 64l72 -68l-57 -62 c27 -38 43 -87 43 -142zM314 231c65 0 115 48 115 122s-50 122 -115 122c-66 0 -116 -48 -116 -122s50 -122 116 -122z"/>
    <glyph glyph-name="dollar.tf.case" d="M574 202c0 -136 -89 -212 -237 -217v-73h-45v74c-139 9 -225 84 -255 201l139 45c18 -76 58 -117 116 -128v188l-46 13c-125 33 -188 112 -188 215c0 124 90 201 234 206v72h45v-73c129 -9 217 -78 230 -197l-133 -38c-9 70 -40 110 -97 121v-187l65 -18 c115 -31 172 -94 172 -204zM204 528c0 -49 32 -76 88 -91v175c-54 -4 -88 -32 -88 -84zM337 101c56 3 87 30 87 86c0 50 -27 77 -87 93v-179z"/>
    <glyph glyph-name="Euro.tf.case" d="M453 206l142 -43c-30 -114 -121 -178 -248 -178c-165 0 -250 110 -269 274h-63v67h59v6v60h-59v67h62c18 168 115 268 278 268c121 0 212 -54 238 -172l-142 -46c-15 62 -42 102 -101 102c-63 0 -106 -45 -114 -152h180v-67h-182v-66h182v-67h-179 c11 -107 50 -154 113 -154c52 0 84 36 103 101z"/>
    <glyph glyph-name="uni20BA.tf.case" d="M453 248l137 -22c-22 -103 -84 -226 -266 -226h-199v265l-71 -22v69l71 22v79l-71 -22v70l71 21v228h154v-181l178 54v-69l-178 -54v-79l178 54v-69l-178 -54v-193h27c98 0 131 68 147 129z"/>
    <glyph glyph-name="uni20BD.tf.case" d="M354 265h-83v-77h133v-64h-133v-124h-156v124h-84v64h84v77h-84v107h84v338h239c175 0 244 -111 244 -220c0 -119 -70 -225 -244 -225zM271 594v-222h57c80 0 117 50 117 117c0 63 -38 105 -117 105h-57z"/>
    <glyph glyph-name="uni20B9.tf.case" d="M566 614h-167c26 -27 41 -63 47 -106h120v-64h-119c-11 -103 -80 -174 -185 -182l214 -262h-184l-207 267v81h73c69 0 111 34 121 96h-194v64h194c-11 69 -55 106 -128 106h-66v96h481v-96z"/>
    <glyph glyph-name="sterling.tf.case" d="M442 199l145 -23c-17 -128 -96 -191 -190 -191c-80 0 -113 26 -205 26c-43 0 -91 -7 -133 -19l-32 95c77 26 119 80 119 173c0 23 -2 44 -5 64h-89v77h71c-9 37 -18 74 -18 116c0 133 86 210 225 210c131 0 208 -62 228 -182l-144 -32c-8 65 -37 100 -84 100 c-49 0 -79 -29 -79 -91c0 -47 9 -84 18 -121h139v-77h-124c2 -15 3 -31 3 -49c0 -80 -43 -135 -107 -161c19 4 39 5 58 5c50 0 80 -11 129 -11c37 0 69 27 75 91z"/>
    <glyph glyph-name="uni20A9.tf.case" d="M584 405h-39l-8 -76h47v-59h-53l-27 -270h-134l-27 270h-66l-27 -270h-135l-27 270h-53v59h47l-8 76h-39v59h33l-25 246h104l13 -246h61l27 246h124l27 -246h61l13 246h103l-25 -246h33v-59zM304 541l-8 -77h27l-8 77c-2 25 -2 45 -2 72h-6c0 -27 0 -47 -3 -72zM164 405 l4 -76h38l9 76h-51zM283 329h54l-8 76h-39zM452 329l4 76h-51l8 -76h39zM188 163l12 107h-29l6 -107c1 -29 3 -49 3 -63h4c0 18 2 34 4 63zM443 163l6 107h-30l12 -107c3 -29 4 -45 5 -63h4c0 14 1 34 3 63z"/>
    <glyph glyph-name="yen.tf.case" d="M590 710l-187 -372h138v-70h-152v-69h152v-70h-152v-129h-158v129h-152v70h152v69h-152v70h138l-187 372h171l91 -223c10 -24 13 -36 17 -60h2c4 24 7 36 17 60l91 223h171z"/>
    <glyph glyph-name="uni20A9.case" horiz-adv-x="926" d="M908 403h-74l-18 -80h92v-60h-105l-59 -263h-172l-48 263h-122l-48 -263h-172l-58 263h-105v60h92l-18 80h-74v60h61l-55 247h149l39 -247h126l49 247h151l49 -247h125l40 247h149l-55 -247h61v-60zM445 498l-6 -35h48l-6 35c-8 45 -12 81 -16 129h-3 c-5 -48 -8 -84 -17 -129zM223 403l12 -80h77l15 80h-104zM413 323h100l-15 80h-70zM691 323l13 80h-104l15 -80h76zM288 203l12 60h-55l9 -59c8 -51 11 -78 13 -113h3c4 37 9 65 18 112zM672 204l9 59h-54l12 -60c9 -47 14 -75 17 -112h3c2 35 6 62 13 113z"/>
    <glyph glyph-name="yen.case" horiz-adv-x="604" d="M607 710l-216 -382h158v-71h-168v-59h168v-70h-168v-128h-158v128h-167v70h167v59h-167v71h157l-216 382h177l85 -173c20 -41 33 -74 42 -106h2c9 32 23 65 42 106l85 173h177z"/>
    <glyph glyph-name="uni0E3F.tf" d="M429 360c93 -14 145 -74 145 -163c0 -130 -92 -197 -237 -197h-3v-107h-58v107h-201v695h201v91h58v-91c138 -2 224 -62 224 -183c0 -75 -48 -132 -129 -152zM276 594h-66v-194h66v194zM417 500c0 58 -28 86 -83 93v-191c54 7 83 41 83 98zM210 101h66v204h-66v-204z M334 101c62 5 99 42 99 110c0 57 -36 91 -99 94v-204z"/>
    <glyph glyph-name="currency.tf" d="M551 303c0 -54 -15 -102 -41 -140l55 -61l-72 -68l-58 62c-35 -19 -76 -29 -121 -29c-47 0 -90 11 -126 32l-61 -66l-72 68l60 66c-25 37 -39 84 -39 136c0 53 14 99 40 137l-61 66l72 68l62 -66c36 20 78 31 125 31c44 0 84 -10 119 -28l60 64l72 -68l-57 -62 c27 -38 43 -87 43 -142zM314 181c65 0 115 48 115 122s-50 122 -115 122c-66 0 -116 -48 -116 -122s50 -122 116 -122z"/>
    <glyph glyph-name="uni20BA.tf" d="M453 245l137 -22c-22 -101 -84 -223 -266 -223h-199v261l-71 -21v68l71 21v78l-71 -21v68l71 21v220h154v-173l178 54v-69l-178 -53v-78l178 53v-68l-178 -53v-189h27c98 0 131 66 147 126z"/>
    <glyph glyph-name="uni20BD.tf" d="M354 259h-83v-74h133v-63h-133v-122h-156v122h-84v63h84v74h-84v106h84v330h239c189 0 244 -122 244 -216c0 -104 -55 -220 -244 -220zM271 580v-215h57c89 0 117 56 117 113c0 53 -30 102 -117 102h-57z"/>
    <glyph glyph-name="uni20B9.tf" d="M566 600h-166c24 -26 40 -59 45 -99h121v-63h-119c-9 -102 -79 -172 -185 -180l214 -258h-184l-207 263v81h73c70 0 112 32 121 94h-194v63h193c-11 65 -55 99 -127 99h-66v95h481v-95z"/>
    <glyph glyph-name="uni20A9.tf" d="M584 400h-39l-7 -75h46v-59h-52l-28 -266h-134l-28 266h-65l-27 -266h-135l-28 266h-52v59h46l-7 75h-39v58h33l-25 237h104l13 -237h61l27 237h124l26 -237h62l13 237h103l-25 -237h33v-58zM304 528l-7 -70h25l-7 70c-1 24 -2 44 -2 71h-6c0 -27 -1 -47 -3 -71zM164 400 l4 -75h38l9 75h-51zM283 325h53l-8 75h-37zM452 325l4 75h-51l8 -75h39zM188 162l12 104h-29l6 -104c2 -29 3 -49 3 -62h4c0 17 2 34 4 62zM443 162l6 104h-30l12 -104c3 -28 4 -45 5 -62h4c0 13 1 33 3 62z"/>
    <glyph glyph-name="plus.case" horiz-adv-x="562" d="M518 431v-104h-180v-190h-115v190h-179v104h179v179h115v-179h180z"/>
    <glyph glyph-name="minus.case" horiz-adv-x="562" d="M44 325v107h474v-107h-474z"/>
    <glyph glyph-name="multiply.case" d="M568 554l-177 -177l176 -176l-80 -82l-177 178l-177 -177l-80 80l177 177l-177 177l80 80l177 -176l176 176z"/>
    <glyph glyph-name="divide.case" horiz-adv-x="562" d="M278 486c-39 0 -68 27 -68 68s29 68 68 68s69 -26 69 -68c0 -40 -30 -68 -69 -68zM44 325v105h474v-105h-474zM278 130c-39 0 -68 28 -68 68c0 42 29 69 68 69s69 -26 69 -69c0 -40 -30 -68 -69 -68z"/>
    <glyph glyph-name="equal.case" horiz-adv-x="562" d="M44 422v106h474v-106h-474zM44 230v106h474v-106h-474z"/>
    <glyph glyph-name="notequal.case" d="M518 422h-159l-34 -86h193v-106h-234l-46 -117h-82l46 117h-158v106h199l34 86h-233v106h274l44 113h82l-44 -113h118v-106z"/>
    <glyph glyph-name="greater.case" d="M93 123v121l338 133l-338 133v119l473 -198v-110z"/>
    <glyph glyph-name="less.case" d="M527 123l-473 198v110l473 198v-119l-338 -133l338 -133v-121z"/>
    <glyph glyph-name="greaterequal.case" d="M84 184v122l338 132l-338 133v120l473 -199v-109zM556 153v-103h-471v103h471z"/>
    <glyph glyph-name="lessequal.case" d="M536 184l-473 199v109l473 199v-120l-338 -133l338 -132v-122zM64 153h471v-103h-471v103z"/>
    <glyph glyph-name="plusminus.case" d="M366 439h183v-104h-183v-145h-114v145h-181v104h181v154h114v-154zM71 50v106h478v-106h-478z"/>
    <glyph glyph-name="approxequal.case" d="M427 395c-80 0 -165 63 -232 63c-45 0 -95 -20 -124 -47v112c27 25 79 44 124 44c92 0 162 -63 232 -63c45 0 94 19 122 46v-112c-25 -25 -76 -43 -122 -43zM427 201c-80 0 -165 63 -232 63c-45 0 -95 -19 -124 -46v112c27 25 79 43 124 43c92 0 162 -63 232 -63 c45 0 94 20 122 47v-112c-25 -25 -76 -44 -122 -44z"/>
    <glyph glyph-name="asciitilde.case" d="M412 251c-98 0 -140 80 -202 80c-37 0 -64 -25 -75 -70l-90 22c21 93 82 146 162 146c98 0 140 -81 202 -81c37 0 64 25 76 70l90 -21c-22 -93 -82 -146 -163 -146z"/>
    <glyph glyph-name="logicalnot.case" d="M63 436h474v-264h-108v160h-366v104z"/>
    <glyph glyph-name="infinity.case" d="M444 541c87 0 149 -62 149 -162c0 -97 -63 -164 -148 -164c-66 0 -108 37 -135 80c-30 -46 -67 -80 -134 -80c-87 0 -149 62 -149 162c0 97 63 164 148 164c66 0 108 -37 135 -80c30 46 67 80 134 80zM187 310c35 0 55 27 76 65c-19 39 -42 71 -77 71 c-34 0 -56 -23 -56 -68s23 -68 57 -68zM434 310c34 0 56 23 56 68s-23 68 -57 68c-35 0 -55 -27 -76 -65c19 -39 42 -71 77 -71z"/>
    <glyph glyph-name="emptyset.case" horiz-adv-x="541" d="M512 569l-56 -60c33 -40 52 -93 52 -154c0 -141 -99 -237 -238 -237c-53 0 -100 14 -138 39l-57 -61l-46 43l56 61c-33 40 -52 93 -52 154c0 141 99 236 238 236c53 0 100 -14 138 -39l57 62zM154 355c0 -25 5 -46 15 -64l159 172c-17 9 -36 14 -57 14 c-67 0 -117 -49 -117 -122zM386 354c0 24 -5 45 -14 63l-159 -171c17 -9 36 -14 57 -14c68 0 116 48 116 122z"/>
    <glyph glyph-name="plus.tf.case" d="M547 431v-104h-180v-190h-115v190h-180v104h180v179h115v-179h180z"/>
    <glyph glyph-name="minus.tf.case" d="M72 325v107h475v-107h-475z"/>
    <glyph glyph-name="divide.tf.case" d="M307 486c-39 0 -68 27 -68 68s29 68 68 68s68 -26 68 -68c0 -40 -29 -68 -68 -68zM72 325v105h475v-105h-475zM307 130c-39 0 -68 28 -68 68c0 42 29 69 68 69s68 -26 68 -69c0 -40 -29 -68 -68 -68z"/>
    <glyph glyph-name="equal.tf.case" d="M45 422v106h474v-106h-474zM45 230v106h474v-106h-474z"/>
    <glyph glyph-name="emptyset.tf.case" d="M552 569l-56 -60c33 -40 52 -93 52 -154c0 -141 -99 -237 -238 -237c-53 0 -100 14 -138 39l-57 -61l-46 43l56 61c-33 40 -52 93 -52 154c0 141 99 236 238 236c53 0 100 -14 138 -39l57 62zM194 355c0 -25 5 -46 15 -64l159 172c-17 9 -36 14 -57 14 c-67 0 -117 -49 -117 -122zM426 354c0 24 -5 45 -14 63l-159 -171c17 -9 36 -14 57 -14c67 0 116 48 116 122z"/>
    <glyph glyph-name="plus.tf" d="M547 381v-104h-180v-190h-115v190h-180v104h180v179h115v-179h180z"/>
    <glyph glyph-name="minus.tf" d="M72 275v107h475v-107h-475z"/>
    <glyph glyph-name="divide.tf" d="M307 436c-39 0 -68 27 -68 68s29 68 68 68s68 -26 68 -68c0 -40 -29 -68 -68 -68zM72 275v105h475v-105h-475zM307 80c-39 0 -68 28 -68 68c0 42 29 69 68 69s68 -26 68 -69c0 -40 -29 -68 -68 -68z"/>
    <glyph glyph-name="equal.tf" d="M45 372v106h474v-106h-474zM45 180v106h474v-106h-474z"/>
    <glyph glyph-name="emptyset.tf" d="M552 519l-56 -60c33 -40 52 -93 52 -154c0 -141 -99 -237 -238 -237c-53 0 -100 14 -138 39l-57 -61l-46 43l56 61c-33 40 -52 93 -52 154c0 141 99 236 238 236c53 0 100 -14 138 -39l57 62zM194 305c0 -25 5 -46 15 -64l159 172c-17 9 -36 14 -57 14 c-67 0 -117 -49 -117 -122zM426 304c0 24 -5 45 -14 63l-159 -171c17 -9 36 -14 57 -14c67 0 116 48 116 122z"/>
    <glyph glyph-name="arrowup" unicode="↑" horiz-adv-x="443" d="M178 -35v589h-104l148 196l147 -196h-103v-589h-88z"/>
    <glyph glyph-name="uni2197" unicode="↗" horiz-adv-x="877" d="M709 556l-576 -576l-59 63l575 575l-86 93h240v-253z"/>
    <glyph glyph-name="arrowright" unicode="→" horiz-adv-x="1025" d="M74 371h680v106l196 -147l-196 -147v106h-680v82z"/>
    <glyph glyph-name="uni2198" unicode="↘" horiz-adv-x="877" d="M709 166l94 98v-253h-240l86 93l-575 575l59 63z"/>
    <glyph glyph-name="arrowdown" unicode="↓" horiz-adv-x="443" d="M266 745v-589h103l-147 -196l-148 196h104v589h88z"/>
    <glyph glyph-name="uni2199" unicode="↙" horiz-adv-x="877" d="M168 166l576 576l59 -63l-575 -575l86 -93h-240v253z"/>
    <glyph glyph-name="arrowleft" unicode="←" horiz-adv-x="1025" d="M950 289h-680v-106l-196 147l196 147v-106h680v-82z"/>
    <glyph glyph-name="uni2196" unicode="↖" horiz-adv-x="877" d="M168 555l-94 -98v253h240l-86 -93l575 -575l-59 -63z"/>
    <glyph glyph-name="arrowboth" unicode="↔" horiz-adv-x="1025" d="M754 289h-484v-106l-196 147l196 147v-106h484v106l196 -147l-196 -147v106z"/>
    <glyph glyph-name="arrowupdn" unicode="↕" horiz-adv-x="443" d="M74 156h104v398h-104l148 196l147 -196h-103v-398h103l-147 -196z"/>
    <glyph glyph-name="uni21A9" unicode="↩" horiz-adv-x="959" d="M270 183l-196 147l196 147v-106h382c85 0 140 42 140 122c0 82 -55 122 -140 122h-223v82h234c135 0 222 -70 222 -203c0 -131 -87 -205 -222 -205h-393v-106z"/>
    <glyph glyph-name="uni21AA" unicode="↪" horiz-adv-x="959" d="M688 183v106h-392c-136 0 -222 74 -222 205c0 133 86 203 222 203h234v-82h-223c-86 0 -140 -40 -140 -122c0 -80 54 -122 140 -122h381v106l197 -147z"/>
    <glyph glyph-name="uni21B0" unicode="↰" horiz-adv-x="811" d="M649 0v559h-379v-106l-196 147l196 147v-106h467v-641h-88z"/>
    <glyph glyph-name="uni21B1" unicode="↱" horiz-adv-x="811" d="M162 0h-88v641h467v106l196 -147l-196 -147v106h-379v-559z"/>
    <glyph glyph-name="uni21B2" unicode="↲" horiz-adv-x="811" d="M649 710h88v-641h-467v-106l-196 147l196 147v-106h379v559z"/>
    <glyph glyph-name="uni21B3" unicode="↳" horiz-adv-x="811" d="M162 710v-559h379v106l196 -147l-196 -147v106h-467v641h88z"/>
    <glyph glyph-name="uni21B4" unicode="↴" horiz-adv-x="895" d="M719 723v-557h102l-147 -196l-147 196h104v475h-557v82h645z"/>
    <glyph glyph-name="uni21BB" unicode="↻" horiz-adv-x="1006" d="M785 188l-148 196h105c-15 159 -138 260 -288 260c-159 0 -286 -112 -286 -289c0 -176 127 -292 286 -292c81 0 162 33 223 98l57 -67c-77 -78 -173 -118 -280 -118c-205 0 -380 150 -380 377c0 228 173 378 380 378c197 0 361 -137 376 -347h102z"/>
    <glyph glyph-name="uni21C4" unicode="⇄" horiz-adv-x="1057" d="M901 405h-631v-106l-196 147l196 147v-106h631v-82zM787 254v107l196 -148l-196 -147v106h-629v82h629z"/>
    <glyph glyph-name="uni21C5" unicode="⇅" horiz-adv-x="686" d="M420 16v538h-103l147 196l147 -196h-103v-538h-88zM222 -40l-148 196h104v545h88v-545h103z"/>
    <glyph glyph-name="uni21BB.alt" horiz-adv-x="1002" d="M871 384h102l-148 -196l-147 196h104c-8 159 -118 260 -274 260c-89 0 -162 -34 -230 -95l-55 65c75 71 171 117 293 117c194 0 346 -137 355 -347zM491 63c90 0 163 34 231 95l55 -65c-75 -71 -171 -117 -294 -117c-193 0 -344 135 -354 343h-100l147 196l148 -196h-106 c10 -156 120 -256 273 -256z"/>
    <glyph glyph-name="arrowup.ss03" horiz-adv-x="800" d="M332 509l-171 -189l-87 104l327 326l325 -326l-84 -104l-175 189v-544h-135v544z"/>
    <glyph glyph-name="uni2197.ss03" horiz-adv-x="892" d="M691 489l-518 -529l-99 102l526 526l-250 -4v126h467v-468h-130z"/>
    <glyph glyph-name="arrowright.ss03" horiz-adv-x="1030" d="M717 265h-643v128h643l-191 178l103 85l326 -326l-326 -327l-104 88z"/>
    <glyph glyph-name="uni2198.ss03" horiz-adv-x="892" d="M691 209l-4 247h130v-468h-467v126l250 -4l-526 526l99 102z"/>
    <glyph glyph-name="arrowdown.ss03" horiz-adv-x="800" d="M332 201v544h135v-544l175 189l84 -104l-325 -326l-327 326l87 104z"/>
    <glyph glyph-name="uni2199.ss03" horiz-adv-x="892" d="M201 209l518 529l98 -102l-525 -526l249 4v-126h-467v468h130z"/>
    <glyph glyph-name="arrowleft.ss03" horiz-adv-x="1030" d="M313 265l192 -174l-104 -88l-327 327l327 326l103 -85l-191 -178h642v-128h-642z"/>
    <glyph glyph-name="uni2196.ss03" horiz-adv-x="892" d="M201 489l3 -247h-130v468h467v-126l-249 4l525 -526l-98 -102z"/>
    <glyph glyph-name="uni25CF" unicode="●" horiz-adv-x="801" d="M401 -17c-202 0 -372 143 -372 372s170 372 372 372c201 0 371 -143 371 -372s-170 -372 -371 -372z"/>
    <glyph glyph-name="circle" unicode="○" horiz-adv-x="801" d="M401 -17c-202 0 -372 143 -372 372c0 230 170 372 372 372c201 0 371 -142 371 -372c0 -229 -170 -372 -371 -372zM401 42c164 0 303 120 303 313c0 194 -139 313 -303 313c-165 0 -304 -119 -304 -313c0 -193 139 -313 304 -313z"/>
    <glyph glyph-name="uni2105" unicode="℅" horiz-adv-x="875" d="M225 -13h-121l538 748h121zM1 542c0 112 65 192 192 192c105 0 167 -54 177 -137l-115 -19c-5 39 -28 63 -64 63c-47 0 -72 -40 -72 -98c0 -60 25 -103 74 -103c34 0 58 24 63 63l114 -22c-16 -75 -71 -134 -179 -134c-128 0 -190 87 -190 195zM676 -13 c-116 0 -192 77 -192 194c0 119 76 193 192 193c115 0 191 -74 191 -193s-76 -194 -191 -194zM748 181c0 65 -28 101 -72 101c-45 0 -74 -36 -74 -101c0 -66 29 -102 74 -102c44 0 72 36 72 102z"/>
    <glyph glyph-name="at.case" horiz-adv-x="842" d="M431 -31c-246 0 -402 147 -402 378c0 225 161 384 402 384c236 0 382 -144 382 -364c0 -142 -70 -231 -181 -231c-70 0 -118 28 -134 78c-25 -51 -76 -80 -140 -80c-84 0 -142 51 -142 126c0 76 49 116 161 134l111 16v19c0 48 -17 68 -61 68c-42 0 -63 -21 -65 -64h-133 c4 93 81 153 199 153c124 0 187 -55 187 -165v-140c0 -51 12 -73 44 -73c49 0 79 60 79 157c0 187 -109 301 -308 301c-202 0 -323 -126 -323 -319c0 -188 132 -311 335 -311c62 0 132 16 183 40l28 -60c-64 -32 -134 -47 -222 -47zM405 224c52 0 85 34 85 88v26l-62 -9 c-52 -8 -77 -27 -77 -58c0 -27 23 -47 54 -47z"/>
    <glyph glyph-name="section.case" horiz-adv-x="477" d="M403 243c34 -26 49 -60 49 -104c0 -96 -84 -156 -216 -156c-110 0 -191 42 -232 117l91 73c31 -55 80 -84 143 -84c44 0 66 14 66 43c0 25 -14 37 -67 54l-108 37c-91 30 -131 77 -131 146c0 48 25 83 72 105c-37 28 -53 63 -53 109c0 90 79 144 213 144 c96 0 167 -36 208 -96l-86 -75c-32 46 -75 69 -126 69c-42 0 -63 -15 -63 -44c0 -23 14 -36 56 -50l109 -37c92 -30 128 -73 128 -146c0 -45 -18 -80 -53 -105zM198 323l116 -38c10 10 15 22 15 39c0 32 -15 48 -62 65l-114 43c-14 -11 -20 -24 -20 -43c0 -32 19 -51 65 -66 z"/>
    <glyph glyph-name="bar.case" horiz-adv-x="245" d="M72 -84v877h100v-877h-100z"/>
    <glyph glyph-name="brokenbar.case" horiz-adv-x="244" d="M172 800v-375h-100v375h100zM172 304v-381h-100v381h100z"/>
    <glyph glyph-name="dagger.case" horiz-adv-x="494" d="M304 446v-506h-114v506h-139v94h139v220h114v-220h140v-94h-140z"/>
    <glyph glyph-name="daggerdbl.case" horiz-adv-x="494" d="M444 446h-140v-188h139v-94h-139v-224h-114v224h-139v94h139v188h-139v94h139v220h114v-220h140v-94z"/>
    <glyph glyph-name="bar.tf" horiz-adv-x="310" d="M105 -117v877h100v-877h-100z"/>
    <glyph glyph-name="plus.subs" horiz-adv-x="439" d="M398 141v-83h-133v-136h-90v136h-134v83h134v129h90v-129h133z"/>
    <glyph glyph-name="minus.subs" horiz-adv-x="439" d="M41 59v82h357v-82h-357z"/>
    <glyph glyph-name="multiply.subs" horiz-adv-x="485" d="M439 226l-131 -127l130 -127l-64 -65l-132 128l-131 -127l-64 63l130 128l-130 127l64 64l131 -128l131 128z"/>
    <glyph glyph-name="divide.subs" horiz-adv-x="439" d="M217 171c-31 0 -54 22 -54 54c0 33 23 54 54 54s54 -21 54 -54c0 -32 -23 -54 -54 -54zM41 59v82h357v-82h-357zM217 -82c-31 0 -54 21 -54 54c0 32 23 54 54 54s54 -21 54 -54c0 -32 -23 -54 -54 -54z"/>
    <glyph glyph-name="plus.sups" horiz-adv-x="439" d="M398 591v-83h-133v-136h-90v136h-134v83h134v129h90v-129h133z"/>
    <glyph glyph-name="minus.sups" horiz-adv-x="439" d="M41 509v82h357v-82h-357z"/>
    <glyph glyph-name="multiply.sups" horiz-adv-x="485" d="M439 676l-131 -127l130 -127l-64 -65l-132 128l-131 -127l-64 63l130 128l-130 127l64 64l131 -128l131 128z"/>
    <glyph glyph-name="divide.sups" horiz-adv-x="439" d="M217 621c-31 0 -54 22 -54 54c0 33 23 54 54 54s54 -21 54 -54c0 -32 -23 -54 -54 -54zM41 509v82h357v-82h-357zM217 368c-31 0 -54 21 -54 54c0 32 23 54 54 54s54 -21 54 -54c0 -32 -23 -54 -54 -54z"/>
    <glyph glyph-name="caronaccentcomb" horiz-adv-x="232" d="M90 521l-24 48c35 7 49 17 49 39h-65v102h132v-89c0 -52 -27 -89 -92 -100z"/>
    <glyph glyph-name="uniE000" unicode="" horiz-adv-x="895" d="M176 723h645v-82h-557v-475h104l-147 -196l-147 196h102v557z"/>
    </font>
</defs>
</svg>
